osu file format v14

[General]
AudioFilename: DM Ashura (ft. Hanna and Skizzo) - Move That Body [PIU Prime].mp3
AudioLeadIn: 0
PreviewTime: 94787
Countdown: 0
SampleSet: Soft
StackLeniency: 0.7
Mode: 3
LetterboxInBreaks: 0
SpecialStyle: 0
WidescreenStoryboard: 0

[Editor]
DistanceSpacing: 1.2
BeatDivisor: 4
GridSize: 4
TimelineZoom: 0.9999996

[Metadata]
Title:Move That Body!
TitleUnicode:Move That Body!
Artist:DM Ashura feat. Skizzo & Hanna
ArtistUnicode:DM Ashura feat. Skizzo & Hanna
Creator:AJIekceu
Version:Allezard's Move
Source:Pump It Up 2015 Prime
Tags:alexey arcade dance andamiro piu eurodance allezard
BeatmapID:732828
BeatmapSetID:330717

[Difficulty]
HPDrainRate:8
CircleSize:4
OverallDifficulty:8.5
ApproachRate:5
SliderMultiplier:1.4
SliderTickRate:1

[Events]
//Background and Video events
Video,620,"Move That Body.avi"
0,0,"1428-wide Edited.png",0,0
//Break Periods
//Storyboard Layer 0 (Background)
//Storyboard Layer 1 (Fail)
//Storyboard Layer 2 (Pass)
//Storyboard Layer 3 (Foreground)
//Storyboard Sound Samples

[TimingPoints]
650,413.793103448276,4,2,1,40,1,0
13891,-100,4,2,1,50,0,1
27132,-100,4,2,1,40,0,0
70167,-100,4,2,1,50,0,1
83408,-100,4,2,1,40,0,0
96650,-100,4,2,1,50,0,1
109891,-100,4,2,1,40,0,0

[HitObjects]
64,192,650,5,0,0:2:0:0:
320,192,650,1,4,0:2:0:0:
448,192,650,1,8,0:2:0:0:
192,192,753,128,0,960:0:0:0:0:
320,192,856,1,2,0:2:0:0:
64,192,960,1,0,0:0:0:0:
320,192,1063,1,8,0:0:0:0:
448,192,1063,128,0,1270:0:0:0:0:
64,192,1270,1,2,0:0:0:0:
320,192,1374,1,0,0:0:0:0:
192,192,1374,128,0,1581:0:0:0:0:
64,192,1581,1,0,0:0:0:0:
448,192,1684,1,2,0:0:0:0:
320,192,1787,1,0,0:0:0:0:
192,192,1891,1,8,0:0:0:0:
64,192,1891,1,0,0:0:0:0:
448,192,1994,1,0,0:2:0:0:
320,192,2098,1,0,0:0:0:0:
64,192,2098,1,2,0:0:0:0:
192,192,2201,1,0,0:0:0:0:
64,192,2305,1,0,0:0:0:0:
448,192,2305,1,8,0:0:0:0:
320,192,2408,1,0,0:0:0:0:
64,192,2512,1,0,0:0:0:0:
192,192,2512,1,2,0:0:0:0:
320,192,2615,1,0,0:0:0:0:
448,192,2615,1,0,0:0:0:0:
192,192,2718,1,8,0:0:0:0:
64,192,2718,1,0,0:0:0:0:
320,192,2822,1,0,0:0:0:0:
64,192,2925,1,2,0:0:0:0:
448,192,2925,1,0,0:0:0:0:
192,192,3029,1,0,0:0:0:0:
320,192,3132,1,0,0:2:0:0:
448,192,3132,1,8,0:2:0:0:
192,192,3236,1,0,0:2:0:0:
64,192,3339,1,2,0:2:0:0:
448,192,3339,1,0,0:0:0:0:
192,192,3443,1,0,0:2:0:0:
320,192,3443,1,0,0:0:0:0:
64,192,3546,1,8,0:0:0:0:
448,192,3546,1,0,0:0:0:0:
320,192,3650,1,0,0:0:0:0:
192,192,3753,1,2,0:0:0:0:
64,192,3753,1,0,0:0:0:0:
448,192,3856,1,0,0:0:0:0:
192,192,3960,1,0,0:0:0:0:
320,192,3960,1,8,0:0:0:0:
64,192,4063,1,0,0:0:0:0:
448,192,4167,1,2,0:2:0:0:
192,192,4167,1,0,0:0:0:0:
320,192,4270,1,0,0:0:0:0:
448,192,4374,1,0,0:2:0:0:
64,192,4374,1,8,0:0:0:0:
192,192,4477,1,0,0:0:0:0:
448,192,4581,1,0,0:0:0:0:
320,192,4581,1,2,0:0:0:0:
64,192,4684,1,0,0:0:0:0:
448,192,4787,128,0,6443:0:2:0:0:
192,192,4787,1,8,0:0:0:0:
320,192,4891,1,0,0:0:0:0:
64,192,4994,128,2,5098:0:0:0:0:
320,192,5098,1,0,0:0:0:0:
192,192,5201,1,8,0:0:0:0:
64,192,5305,1,0,0:0:0:0:
320,192,5408,128,2,5512:0:0:0:0:
64,192,5512,1,0,0:0:0:0:
192,192,5615,1,8,0:2:0:0:
320,192,5718,1,0,0:0:0:0:
64,192,5822,128,2,5925:0:0:0:0:
320,192,5925,1,0,0:2:0:0:
64,192,6029,128,8,6132:0:0:0:0:
320,192,6132,1,0,0:0:0:0:
64,192,6236,128,2,6339:0:0:0:0:
192,192,6339,1,0,0:0:0:0:
320,192,6443,128,8,6546:0:0:0:0:
64,192,6546,1,0,0:0:0:0:
448,192,6650,1,2,0:2:0:0:
192,192,6650,1,0,0:0:0:0:
320,192,6753,1,0,0:0:0:0:
448,192,6856,1,0,0:0:0:0:
64,192,6856,1,8,0:0:0:0:
192,192,6960,1,0,0:0:0:0:
320,192,7063,1,2,0:2:0:0:
448,192,7063,1,8,0:0:0:0:
448,192,7167,1,4,0:0:0:0:
320,192,7167,1,2,0:0:0:0:
320,192,7270,1,8,0:2:0:0:
448,192,7270,1,4,0:0:0:0:
64,192,7374,128,0,7581:0:0:0:0:
448,192,7477,1,2,0:0:0:0:
320,192,7581,1,0,0:0:0:0:
64,192,7684,1,8,0:2:0:0:
192,192,7684,1,0,0:0:0:0:
448,192,7684,128,0,7891:0:0:0:0:
320,192,7787,1,0,0:0:0:0:
64,192,7891,1,2,0:0:0:0:
192,192,7994,128,0,8201:0:0:0:0:
448,192,8098,1,0,0:2:0:0:
320,192,8098,1,8,0:0:0:0:
64,192,8201,1,0,0:0:0:0:
448,192,8305,1,2,0:0:0:0:
320,192,8305,1,0,0:0:0:0:
64,192,8408,1,0,0:0:0:0:
192,192,8408,1,0,0:0:0:0:
448,192,8512,1,8,0:2:0:0:
320,192,8512,1,0,0:0:0:0:
192,192,8615,1,0,0:0:0:0:
448,192,8718,1,0,0:0:0:0:
64,192,8718,1,2,0:0:0:0:
320,192,8822,1,0,0:0:0:0:
192,192,8925,1,8,0:0:0:0:
64,192,8925,1,0,0:0:0:0:
448,192,9029,1,0,0:0:0:0:
64,192,9132,1,2,0:0:0:0:
192,192,9132,1,0,0:0:0:0:
320,192,9236,1,0,0:0:0:0:
448,192,9236,1,0,0:0:0:0:
64,192,9339,1,0,0:0:0:0:
192,192,9339,1,8,0:0:0:0:
320,192,9443,1,0,0:0:0:0:
192,192,9546,1,0,0:0:0:0:
64,192,9546,1,2,0:0:0:0:
448,192,9650,1,0,0:0:0:0:
192,192,9753,1,8,0:2:0:0:
320,192,9753,1,0,0:0:0:0:
64,192,9856,1,0,0:0:0:0:
448,192,9960,1,0,0:0:0:0:
320,192,9960,1,2,0:0:0:0:
192,192,10063,1,0,0:0:0:0:
64,192,10063,1,0,0:0:0:0:
320,192,10167,1,8,0:0:0:0:
448,192,10167,1,0,0:0:0:0:
192,192,10270,1,0,0:0:0:0:
64,192,10374,1,0,0:0:0:0:
448,192,10374,1,2,0:0:0:0:
320,192,10477,1,0,0:0:0:0:
64,192,10581,1,8,0:0:0:0:
192,192,10581,1,0,0:0:0:0:
448,192,10581,1,4,0:0:0:0:
320,192,10787,1,8,0:0:0:0:
448,192,10787,1,2,0:0:0:0:
192,192,10787,1,0,0:0:0:0:
192,192,10994,1,8,0:2:0:0:
320,192,10994,1,0,0:0:0:0:
64,192,10994,1,4,0:0:0:0:
448,192,11201,1,2,0:0:0:0:
64,192,11201,1,8,0:0:0:0:
320,192,11201,1,0,0:0:0:0:
320,192,11408,1,8,0:2:0:0:
192,192,11408,1,4,0:0:0:0:
448,192,11408,1,0,0:0:0:0:
64,192,11615,1,8,0:2:0:0:
448,192,11615,1,2,0:2:0:0:
192,192,11615,1,0,0:0:0:0:
64,192,11822,1,4,0:2:0:0:
320,192,11822,1,0,0:0:0:0:
192,192,11822,1,8,0:0:0:0:
448,192,12029,1,2,0:2:0:0:
192,192,12029,1,0,0:0:0:0:
320,192,12029,1,8,0:0:0:0:
448,192,12236,1,4,0:2:0:0:
64,192,12236,1,8,0:0:0:0:
320,192,12236,1,0,0:0:0:0:
192,192,12443,128,0,12546:0:0:0:0:
192,192,12650,128,0,12753:0:0:0:0:
192,192,12856,128,0,12960:0:0:0:0:
320,192,13063,1,8,0:2:0:0:
448,192,13063,1,4,0:2:0:0:
64,192,13167,1,4,0:2:0:0:
192,192,13167,1,8,0:0:0:0:
448,192,13270,1,0,0:0:0:0:
192,192,13374,1,4,0:0:0:0:
64,192,13374,1,8,0:0:0:0:
448,192,13477,1,8,0:0:0:0:
320,192,13477,1,4,0:0:0:0:
192,192,13684,1,8,0:2:0:0:
64,192,13684,1,4,0:0:0:0:
192,192,13787,1,4,0:0:0:0:
64,192,13787,1,8,0:0:0:0:
192,192,13891,1,8,0:2:0:0:
320,192,13891,1,4,0:0:0:0:
64,192,13891,1,2,0:0:0:0:
448,192,14098,1,0,0:0:0:0:
320,192,14201,1,0,0:0:0:0:
192,192,14305,1,8,0:2:0:0:
64,192,14305,1,0,0:2:0:0:
448,192,14408,1,0,0:0:0:0:
320,192,14512,1,0,0:0:0:0:
64,192,14615,1,0,0:0:0:0:
448,192,14718,1,0,0:0:0:0:
192,192,14718,1,8,0:0:0:0:
320,192,14822,1,0,0:0:0:0:
64,192,14925,1,0,0:0:0:0:
192,192,15029,1,0,0:0:0:0:
320,192,15132,1,0,0:0:0:0:
448,192,15132,1,8,0:0:0:0:
64,192,15236,1,0,0:0:0:0:
192,192,15339,1,0,0:0:0:0:
320,192,15443,1,0,0:0:0:0:
64,192,15546,1,2,0:0:0:0:
448,192,15546,128,8,15650:0:0:0:0:
192,192,15650,1,0,0:0:0:0:
320,192,15753,128,2,15856:0:0:0:0:
448,192,15856,1,0,0:0:0:0:
64,192,15960,1,2,0:0:0:0:
192,192,15960,128,8,16063:0:0:0:0:
448,192,16063,1,0,0:0:0:0:
320,192,16167,128,2,16270:0:0:0:0:
64,192,16270,128,2,16374:0:0:0:0:
320,192,16374,1,8,0:0:0:0:
448,192,16374,1,0,0:0:0:0:
192,192,16477,128,2,16581:0:0:0:0:
448,192,16581,128,2,16684:0:0:0:0:
64,192,16684,1,0,0:0:0:0:
448,192,16787,1,8,0:0:0:0:
320,192,16787,128,2,16994:0:0:0:0:
192,192,16891,1,0,0:0:0:0:
64,192,16994,128,2,17098:0:0:0:0:
448,192,17098,1,0,0:0:0:0:
320,192,17201,1,0,0:0:0:0:
192,192,17201,1,8,0:0:0:0:
64,192,17305,1,0,0:0:0:0:
448,192,17408,1,0,0:0:0:0:
320,192,17512,1,0,0:0:0:0:
192,192,17615,1,0,0:0:0:0:
64,192,17615,1,8,0:0:0:0:
448,192,17718,1,0,0:0:0:0:
320,192,17822,1,0,0:0:0:0:
192,192,17925,1,0,0:0:0:0:
64,192,18029,1,0,0:2:0:0:
448,192,18029,1,8,0:0:0:0:
320,192,18132,1,0,0:0:0:0:
64,192,18236,1,0,0:0:0:0:
192,192,18339,1,0,0:0:0:0:
320,192,18443,1,8,0:0:0:0:
448,192,18443,1,0,0:0:0:0:
64,192,18546,1,0,0:0:0:0:
192,192,18650,1,0,0:0:0:0:
320,192,18753,128,0,18856:0:0:0:0:
448,192,18856,128,2,18960:0:0:0:0:
192,192,18856,1,8,0:0:0:0:
64,192,18960,1,0,0:0:0:0:
320,192,19063,1,0,0:0:0:0:
448,192,19167,1,0,0:0:0:0:
64,192,19270,1,2,0:0:0:0:
192,192,19270,128,8,19477:0:0:0:0:
320,192,19374,1,0,0:0:0:0:
448,192,19477,1,0,0:0:0:0:
320,192,19581,128,2,19684:0:0:0:0:
192,192,19684,1,0,0:0:0:0:
64,192,19684,1,8,0:0:0:0:
448,192,19787,128,2,19891:0:0:0:0:
64,192,19891,128,2,19994:0:0:0:0:
192,192,19994,1,0,0:0:0:0:
64,192,20098,1,0,0:0:0:0:
320,192,20098,1,8,0:0:0:0:
448,192,20098,128,2,20305:0:0:0:0:
192,192,20201,1,0,0:0:0:0:
64,192,20305,1,8,0:0:0:0:
320,192,20305,1,2,0:0:0:0:
192,192,20408,1,0,0:0:0:0:
320,192,20512,1,4,0:0:0:0:
448,192,20512,1,8,0:0:0:0:
64,192,20512,1,2,0:0:0:0:
192,192,20615,1,0,0:0:0:0:
320,192,20718,1,0,0:0:0:0:
64,192,20822,1,0,0:0:0:0:
448,192,20925,1,8,0:2:0:0:
192,192,20925,1,0,0:0:0:0:
320,192,21029,1,0,0:0:0:0:
192,192,21132,1,0,0:0:0:0:
64,192,21236,1,0,0:0:0:0:
448,192,21339,1,8,0:2:0:0:
320,192,21339,1,0,0:0:0:0:
64,192,21443,1,0,0:0:0:0:
192,192,21546,1,0,0:0:0:0:
320,192,21650,1,0,0:0:0:0:
64,192,21753,1,8,0:0:0:0:
448,192,21753,1,0,0:0:0:0:
320,192,21856,1,0,0:0:0:0:
192,192,21960,1,0,0:0:0:0:
64,192,22063,1,0,0:0:0:0:
320,192,22167,1,2,0:0:0:0:
448,192,22167,128,8,22270:0:0:0:0:
64,192,22270,1,0,0:0:0:0:
192,192,22374,128,2,22477:0:0:0:0:
320,192,22477,1,0,0:0:0:0:
448,192,22581,1,8,0:2:0:0:
64,192,22581,128,2,22684:0:0:0:0:
320,192,22684,1,0,0:0:0:0:
192,192,22787,128,2,22891:0:0:0:0:
320,192,22891,128,2,22994:0:0:0:0:
64,192,22994,1,8,0:2:0:0:
448,192,22994,1,0,0:0:0:0:
192,192,23098,128,2,23201:0:0:0:0:
320,192,23201,128,2,23305:0:0:0:0:
64,192,23305,1,0,0:0:0:0:
448,192,23408,1,2,0:0:0:0:
320,192,23408,128,8,23615:0:0:0:0:
64,192,23512,1,0,0:0:0:0:
192,192,23615,128,2,23718:0:0:0:0:
448,192,23718,1,0,0:0:0:0:
64,192,23822,1,0,0:0:0:0:
192,192,23822,1,8,0:0:0:0:
320,192,23925,1,0,0:0:0:0:
448,192,24029,1,0,0:0:0:0:
192,192,24132,1,0,0:2:0:0:
448,192,24236,1,8,0:2:0:0:
64,192,24236,1,0,0:0:0:0:
320,192,24339,1,0,0:0:0:0:
192,192,24443,1,0,0:0:0:0:
448,192,24546,1,0,0:2:0:0:
64,192,24650,1,0,0:2:0:0:
192,192,24650,1,8,0:0:0:0:
320,192,24753,1,0,0:0:0:0:
448,192,24856,1,0,0:0:0:0:
64,192,24960,1,0,0:0:0:0:
320,192,25063,1,0,0:0:0:0:
192,192,25063,1,8,0:0:0:0:
448,192,25167,1,0,0:0:0:0:
64,192,25270,1,0,0:0:0:0:
192,192,25374,128,0,25477:0:0:0:0:
320,192,25477,1,8,0:2:0:0:
448,192,25477,128,2,25581:0:0:0:0:
64,192,25581,1,0,0:0:0:0:
192,192,25684,1,0,0:0:0:0:
448,192,25787,1,0,0:2:0:0:
320,192,25891,1,2,0:2:0:0:
192,192,25891,128,8,25994:0:0:0:0:
64,192,25994,1,0,0:0:0:0:
448,192,26098,1,0,0:0:0:0:
320,192,26201,128,2,26305:0:0:0:0:
192,192,26305,1,0,0:0:0:0:
64,192,26305,1,8,0:0:0:0:
448,192,26408,128,0,26512:0:0:0:0:
192,192,26512,1,8,0:2:0:0:
64,192,26512,1,2,0:0:0:0:
320,192,26512,128,0,26615:0:0:0:0:
448,192,26718,1,8,0:0:0:0:
64,192,26718,1,0,0:0:0:0:
192,192,26822,1,0,0:0:0:0:
320,192,26925,1,8,0:0:0:0:
448,192,26925,1,4,0:0:0:0:
448,192,27029,1,8,0:2:0:0:
320,192,27029,1,4,0:0:0:0:
320,192,27132,1,8,0:2:0:0:
448,192,27132,1,4,0:0:0:0:
192,192,27132,1,2,0:0:0:0:
64,192,27236,128,0,27339:0:0:0:0:
192,192,27339,1,0,0:0:0:0:
448,192,27443,1,0,0:0:0:0:
320,192,27546,1,8,0:0:0:0:
64,192,27546,128,0,27650:0:0:0:0:
192,192,27650,1,0,0:0:0:0:
320,192,27753,128,0,27856:0:0:0:0:
64,192,27856,1,0,0:0:0:0:
448,192,27856,128,0,27960:0:0:0:0:
192,192,27960,1,8,0:0:0:0:
64,192,28063,128,0,28167:0:0:0:0:
448,192,28167,1,0,0:0:0:0:
192,192,28167,128,0,28270:0:0:0:0:
320,192,28270,1,0,0:0:0:0:
448,192,28374,1,8,0:2:0:0:
64,192,28374,1,0,0:0:0:0:
320,192,28477,1,0,0:0:0:0:
64,192,28581,1,0,0:0:0:0:
192,192,28581,1,0,0:0:0:0:
448,192,28684,1,0,0:0:0:0:
192,192,28787,1,4,0:0:0:0:
320,192,28787,1,8,0:0:0:0:
64,192,28891,1,0,0:0:0:0:
448,192,28994,1,8,0:0:0:0:
192,192,29098,1,8,0:0:0:0:
64,192,29098,1,4,0:0:0:0:
320,192,29201,1,4,0:2:0:0:
448,192,29201,1,8,0:0:0:0:
64,192,29305,1,8,0:0:0:0:
320,192,29408,1,8,0:0:0:0:
448,192,29408,1,2,0:0:0:0:
320,192,29512,1,2,0:2:0:0:
192,192,29512,1,8,0:0:0:0:
192,192,29615,1,2,0:2:0:0:
64,192,29615,1,8,0:0:0:0:
320,192,29718,1,2,0:0:0:0:
448,192,29718,1,0,0:0:0:0:
192,192,29822,1,2,0:0:0:0:
64,192,29822,1,0,0:0:0:0:
320,192,29925,1,2,0:0:0:0:
448,192,29925,1,0,0:0:0:0:
192,192,30029,1,2,0:0:0:0:
64,192,30029,1,0,0:0:0:0:
320,192,30132,1,2,0:0:0:0:
448,192,30132,1,0,0:0:0:0:
192,192,30236,1,2,0:0:0:0:
64,192,30236,1,4,0:0:0:0:
320,192,30339,1,2,0:0:0:0:
448,192,30339,1,0,0:0:0:0:
64,192,30443,1,8,0:2:0:0:
192,192,30443,1,2,0:0:0:0:
320,192,30546,1,0,0:0:0:0:
448,192,30650,1,0,0:0:0:0:
192,192,30753,1,0,0:0:0:0:
320,192,30856,1,2,0:0:0:0:
448,192,30856,1,8,0:0:0:0:
64,192,30960,1,0,0:0:0:0:
320,192,31063,1,0,0:0:0:0:
192,192,31167,1,0,0:0:0:0:
448,192,31270,1,0,0:2:0:0:
64,192,31270,1,8,0:2:0:0:
320,192,31374,1,0,0:0:0:0:
64,192,31477,1,0,0:0:0:0:
192,192,31581,1,0,0:0:0:0:
320,192,31684,1,8,0:0:0:0:
448,192,31684,1,0,0:0:0:0:
64,192,31787,1,0,0:0:0:0:
320,192,31891,1,0,0:0:0:0:
192,192,31994,1,0,0:0:0:0:
64,192,32098,1,8,0:0:0:0:
448,192,32098,1,0,0:0:0:0:
320,192,32201,1,0,0:2:0:0:
192,192,32305,1,0,0:0:0:0:
64,192,32408,1,0,0:0:0:0:
192,192,32512,1,8,0:0:0:0:
448,192,32512,1,0,0:0:0:0:
320,192,32615,1,0,0:0:0:0:
64,192,32718,1,0,0:2:0:0:
192,192,32822,1,0,0:2:0:0:
320,192,32925,1,0,0:2:0:0:
448,192,32925,1,8,0:2:0:0:
64,192,33029,1,0,0:0:0:0:
192,192,33132,1,0,0:0:0:0:
320,192,33236,1,0,0:2:0:0:
448,192,33339,1,8,0:2:0:0:
64,192,33339,1,0,0:0:0:0:
192,192,33443,1,0,0:0:0:0:
448,192,33546,1,0,0:0:0:0:
320,192,33650,1,0,0:2:0:0:
64,192,33753,1,8,0:0:0:0:
192,192,33753,1,2,0:0:0:0:
448,192,33856,1,0,0:0:0:0:
64,192,33960,1,0,0:0:0:0:
192,192,34063,1,0,0:0:0:0:
448,192,34167,1,8,0:2:0:0:
320,192,34167,1,2,0:0:0:0:
64,192,34270,1,0,0:0:0:0:
192,192,34374,1,0,0:0:0:0:
320,192,34477,1,0,0:2:0:0:
448,192,34581,1,8,0:2:0:0:
64,192,34581,1,0,0:2:0:0:
192,192,34684,1,0,0:2:0:0:
320,192,34787,1,0,0:0:0:0:
192,192,34891,1,0,0:0:0:0:
64,192,34994,1,0,0:2:0:0:
448,192,34994,1,8,0:2:0:0:
320,192,35098,1,0,0:0:0:0:
192,192,35201,1,0,0:0:0:0:
320,192,35305,1,0,0:0:0:0:
448,192,35408,1,8,0:2:0:0:
64,192,35408,1,0,0:2:0:0:
192,192,35512,1,0,0:0:0:0:
320,192,35615,1,0,0:0:0:0:
64,192,35718,1,0,0:0:0:0:
320,192,35822,1,0,0:2:0:0:
448,192,35822,1,8,0:2:0:0:
192,192,35925,1,0,0:2:0:0:
64,192,36029,1,0,0:0:0:0:
320,192,36132,1,0,0:0:0:0:
64,192,36236,1,2,0:2:0:0:
448,192,36236,1,8,0:2:0:0:
192,192,36339,1,2,0:0:0:0:
320,192,36443,1,0,0:0:0:0:
192,192,36546,1,0,0:2:0:0:
320,192,36650,1,0,0:2:0:0:
448,192,36650,1,8,0:2:0:0:
64,192,36650,1,2,0:0:0:0:
448,192,36856,1,8,0:2:0:0:
192,192,36856,1,2,0:0:0:0:
64,192,36856,1,0,0:0:0:0:
320,192,37063,1,2,0:0:0:0:
448,192,37063,1,8,0:0:0:0:
192,192,37063,1,0,0:0:0:0:
64,192,37270,1,0,0:0:0:0:
192,192,37374,1,0,0:0:0:0:
320,192,37477,1,2,0:0:0:0:
448,192,37477,1,8,0:0:0:0:
64,192,37581,1,0,0:0:0:0:
192,192,37684,1,0,0:2:0:0:
320,192,37787,1,0,0:2:0:0:
64,192,37891,1,0,0:0:0:0:
448,192,37891,1,8,0:0:0:0:
192,192,37994,1,0,0:0:0:0:
448,192,38098,1,0,0:0:0:0:
320,192,38201,1,0,0:0:0:0:
64,192,38305,1,0,0:2:0:0:
192,192,38305,1,8,0:0:0:0:
320,192,38408,1,0,0:0:0:0:
448,192,38512,1,0,0:0:0:0:
192,192,38615,1,0,0:2:0:0:
64,192,38718,1,0,0:2:0:0:
448,192,38718,1,8,0:2:0:0:
320,192,38822,1,0,0:0:0:0:
192,192,38925,1,0,0:0:0:0:
448,192,39029,1,0,0:2:0:0:
64,192,39132,1,8,0:2:0:0:
320,192,39132,1,0,0:0:0:0:
192,192,39236,1,0,0:0:0:0:
448,192,39339,1,0,0:0:0:0:
320,192,39443,1,0,0:0:0:0:
192,192,39546,1,0,0:2:0:0:
64,192,39546,1,8,0:0:0:0:
448,192,39650,1,0,0:0:0:0:
192,192,39753,1,0,0:0:0:0:
320,192,39856,1,0,0:0:0:0:
192,192,39960,1,8,0:2:0:0:
448,192,39960,1,0,0:0:0:0:
64,192,40063,1,0,0:0:0:0:
320,192,40167,1,0,0:0:0:0:
192,192,40270,1,0,0:0:0:0:
64,192,40374,1,2,0:0:0:0:
320,192,40374,1,8,0:0:0:0:
448,192,40374,128,0,40684:0:0:0:0:
64,192,40581,1,0,0:2:0:0:
192,192,40684,1,0,0:0:0:0:
320,192,40787,1,8,0:2:0:0:
64,192,40787,128,2,41098:0:0:0:0:
448,192,40994,1,0,0:0:0:0:
192,192,41098,1,0,0:0:0:0:
320,192,41201,1,8,0:2:0:0:
448,192,41201,1,0,0:2:0:0:
64,192,41305,1,0,0:2:0:0:
192,192,41408,1,0,0:0:0:0:
448,192,41512,1,0,0:2:0:0:
64,192,41615,1,0,0:2:0:0:
320,192,41615,1,8,0:0:0:0:
192,192,41718,1,0,0:0:0:0:
448,192,41822,1,0,0:0:0:0:
320,192,41925,1,0,0:0:0:0:
64,192,42029,1,0,0:2:0:0:
448,192,42029,1,8,0:2:0:0:
192,192,42132,1,0,0:0:0:0:
320,192,42236,1,0,0:0:0:0:
448,192,42339,1,0,0:0:0:0:
64,192,42443,1,8,0:2:0:0:
320,192,42443,1,0,0:0:0:0:
192,192,42546,1,0,0:0:0:0:
448,192,42650,1,0,0:0:0:0:
320,192,42753,1,0,0:0:0:0:
64,192,42856,1,8,0:2:0:0:
192,192,42856,1,0,0:0:0:0:
448,192,42960,1,0,0:0:0:0:
64,192,43063,1,8,0:2:0:0:
192,192,43063,1,0,0:0:0:0:
448,192,43167,1,0,0:0:0:0:
320,192,43270,1,2,0:2:0:0:
192,192,43270,1,8,0:0:0:0:
64,192,43270,1,0,0:0:0:0:
448,192,43374,1,0,0:0:0:0:
64,192,43477,1,4,0:2:0:0:
192,192,43477,1,8,0:2:0:0:
192,192,43581,1,4,0:2:0:0:
64,192,43581,1,8,0:0:0:0:
192,192,43684,1,8,0:0:0:0:
64,192,43684,1,4,0:0:0:0:
448,192,43684,1,2,0:0:0:0:
320,192,43787,1,0,0:0:0:0:
192,192,43891,1,0,0:0:0:0:
64,192,43994,1,0,0:0:0:0:
320,192,44098,1,8,0:0:0:0:
448,192,44098,1,2,0:0:0:0:
192,192,44201,1,0,0:0:0:0:
64,192,44305,1,0,0:0:0:0:
320,192,44408,1,0,0:0:0:0:
64,192,44512,1,0,0:2:0:0:
192,192,44512,1,8,0:0:0:0:
448,192,44615,1,0,0:2:0:0:
320,192,44718,1,0,0:2:0:0:
192,192,44822,1,0,0:2:0:0:
448,192,44925,1,8,0:2:0:0:
64,192,44925,1,0,0:2:0:0:
320,192,45029,1,0,0:2:0:0:
192,192,45132,1,0,0:0:0:0:
448,192,45236,1,0,0:0:0:0:
64,192,45339,1,8,0:2:0:0:
320,192,45339,1,0,0:0:0:0:
192,192,45443,1,0,0:2:0:0:
320,192,45546,1,0,0:2:0:0:
448,192,45650,1,0,0:0:0:0:
64,192,45753,1,8,0:2:0:0:
192,192,45753,1,0,0:0:0:0:
320,192,45856,1,0,0:0:0:0:
448,192,45960,1,0,0:0:0:0:
192,192,46063,1,0,0:0:0:0:
64,192,46167,1,8,0:0:0:0:
320,192,46167,1,0,0:0:0:0:
448,192,46270,1,0,0:0:0:0:
192,192,46374,1,0,0:0:0:0:
320,192,46477,1,0,0:0:0:0:
64,192,46581,1,8,0:2:0:0:
448,192,46581,1,0,0:0:0:0:
192,192,46684,1,0,0:0:0:0:
320,192,46787,1,0,0:0:0:0:
64,192,46891,1,0,0:0:0:0:
192,192,46994,1,2,0:0:0:0:
448,192,46994,1,8,0:0:0:0:
320,192,47098,1,0,0:0:0:0:
64,192,47201,1,0,0:0:0:0:
192,192,47305,1,0,0:2:0:0:
320,192,47408,1,8,0:0:0:0:
448,192,47408,1,2,0:0:0:0:
64,192,47512,1,0,0:0:0:0:
192,192,47615,1,0,0:0:0:0:
448,192,47718,1,0,0:0:0:0:
64,192,47822,1,8,0:2:0:0:
320,192,47822,1,0,0:0:0:0:
192,192,47925,1,0,0:0:0:0:
448,192,48029,1,0,0:0:0:0:
320,192,48132,1,0,0:2:0:0:
192,192,48236,1,8,0:2:0:0:
64,192,48236,1,0,0:0:0:0:
448,192,48339,1,0,0:0:0:0:
320,192,48443,1,0,0:0:0:0:
192,192,48546,1,0,0:0:0:0:
64,192,48650,1,8,0:2:0:0:
448,192,48650,1,0,0:0:0:0:
320,192,48753,1,0,0:0:0:0:
192,192,48856,1,0,0:0:0:0:
448,192,48960,1,0,0:0:0:0:
320,192,49063,1,0,0:0:0:0:
64,192,49063,1,8,0:0:0:0:
192,192,49167,1,0,0:0:0:0:
448,192,49270,1,0,0:0:0:0:
320,192,49374,1,0,0:0:0:0:
192,192,49477,1,0,0:0:0:0:
64,192,49477,1,8,0:0:0:0:
448,192,49581,1,0,0:0:0:0:
320,192,49684,1,0,0:0:0:0:
64,192,49787,1,0,0:0:0:0:
448,192,49891,1,0,0:2:0:0:
192,192,49891,1,8,0:0:0:0:
320,192,49994,1,0,0:0:0:0:
64,192,50098,1,8,0:2:0:0:
448,192,50098,1,0,0:0:0:0:
192,192,50201,1,0,0:0:0:0:
320,192,50305,1,2,0:0:0:0:
448,192,50305,1,8,0:0:0:0:
64,192,50408,1,0,0:0:0:0:
192,192,50512,1,0,0:0:0:0:
448,192,50615,1,0,0:0:0:0:
320,192,50718,1,8,0:0:0:0:
64,192,50718,1,2,0:0:0:0:
192,192,50822,1,0,0:0:0:0:
448,192,50925,1,0,0:0:0:0:
320,192,51029,1,0,0:0:0:0:
192,192,51132,1,8,0:0:0:0:
64,192,51132,1,0,0:0:0:0:
448,192,51236,1,0,0:0:0:0:
320,192,51339,1,0,0:0:0:0:
64,192,51443,1,0,0:0:0:0:
192,192,51546,1,8,0:2:0:0:
448,192,51546,1,0,0:0:0:0:
320,192,51650,1,0,0:0:0:0:
64,192,51753,1,0,0:2:0:0:
192,192,51856,1,0,0:0:0:0:
448,192,51960,1,8,0:2:0:0:
320,192,51960,1,0,0:0:0:0:
64,192,52063,1,0,0:0:0:0:
192,192,52167,1,0,0:0:0:0:
320,192,52270,1,0,0:0:0:0:
448,192,52374,1,8,0:2:0:0:
64,192,52374,1,0,0:0:0:0:
192,192,52477,1,0,0:0:0:0:
320,192,52581,1,0,0:0:0:0:
192,192,52684,1,0,0:2:0:0:
448,192,52787,1,0,0:2:0:0:
64,192,52787,1,8,0:0:0:0:
320,192,52891,1,0,0:0:0:0:
192,192,52994,1,0,0:2:0:0:
448,192,53098,1,0,0:0:0:0:
320,192,53201,1,8,0:2:0:0:
64,192,53201,1,0,0:0:0:0:
192,192,53305,1,0,0:0:0:0:
320,192,53408,1,0,0:2:0:0:
64,192,53512,1,0,0:0:0:0:
192,192,53615,1,8,0:0:0:0:
448,192,53615,1,2,0:0:0:0:
320,192,53718,1,0,0:0:0:0:
64,192,53822,1,0,0:0:0:0:
192,192,53925,1,0,0:0:0:0:
448,192,54029,1,8,0:2:0:0:
320,192,54029,1,2,0:0:0:0:
64,192,54132,1,0,0:0:0:0:
192,192,54236,1,0,0:2:0:0:
448,192,54339,1,0,0:0:0:0:
320,192,54443,1,0,0:0:0:0:
64,192,54443,1,8,0:0:0:0:
192,192,54546,1,0,0:0:0:0:
448,192,54650,1,0,0:0:0:0:
320,192,54753,1,0,0:0:0:0:
64,192,54856,1,8,0:2:0:0:
192,192,54856,1,0,0:0:0:0:
448,192,54960,1,0,0:0:0:0:
320,192,55063,1,0,0:0:0:0:
64,192,55167,1,0,0:0:0:0:
448,192,55270,1,8,0:2:0:0:
192,192,55270,1,0,0:0:0:0:
320,192,55374,1,0,0:0:0:0:
64,192,55477,1,0,0:0:0:0:
192,192,55581,1,0,0:0:0:0:
320,192,55684,1,8,0:0:0:0:
448,192,55684,1,0,0:0:0:0:
64,192,55787,1,0,0:0:0:0:
192,192,55891,1,0,0:0:0:0:
320,192,55994,1,0,0:0:0:0:
448,192,56098,1,8,0:2:0:0:
64,192,56098,1,0,0:0:0:0:
192,192,56201,1,0,0:0:0:0:
320,192,56305,1,8,0:2:0:0:
448,192,56305,1,0,0:0:0:0:
64,192,56408,1,0,0:0:0:0:
192,192,56512,1,8,0:0:0:0:
448,192,56512,1,0,0:0:0:0:
320,192,56615,1,0,0:0:0:0:
64,192,56718,1,4,0:2:0:0:
192,192,56718,1,8,0:0:0:0:
192,192,56822,1,4,0:0:0:0:
64,192,56822,1,8,0:0:0:0:
320,192,56925,1,4,0:0:0:0:
448,192,56925,1,8,0:0:0:0:
64,192,56925,1,2,0:0:0:0:
192,192,57132,1,0,0:0:0:0:
448,192,57236,1,0,0:0:0:0:
320,192,57339,1,4,0:2:0:0:
64,192,57339,1,2,0:2:0:0:
192,192,57339,1,0,0:0:0:0:
448,192,57546,1,0,0:0:0:0:
64,192,57650,1,0,0:0:0:0:
320,192,57753,1,2,0:0:0:0:
192,192,57753,1,8,0:0:0:0:
448,192,57753,1,0,0:0:0:0:
64,192,57960,1,0,0:0:0:0:
192,192,58063,1,0,0:0:0:0:
64,192,58167,1,2,0:2:0:0:
448,192,58167,1,0,0:0:0:0:
320,192,58167,1,4,0:0:0:0:
192,192,58374,1,0,0:0:0:0:
448,192,58477,1,0,0:0:0:0:
192,192,58581,1,0,0:0:0:0:
64,192,58581,1,8,0:0:0:0:
320,192,58581,1,2,0:0:0:0:
448,192,58787,1,0,0:0:0:0:
320,192,58891,1,0,0:0:0:0:
192,192,58994,1,0,0:0:0:0:
448,192,58994,1,4,0:0:0:0:
64,192,58994,1,2,0:0:0:0:
320,192,59201,1,0,0:0:0:0:
192,192,59305,1,0,0:0:0:0:
448,192,59408,1,8,0:2:0:0:
64,192,59408,1,2,0:0:0:0:
320,192,59408,1,0,0:0:0:0:
192,192,59615,1,0,0:0:0:0:
448,192,59718,1,0,0:0:0:0:
320,192,59822,1,4,0:2:0:0:
192,192,59822,1,0,0:0:0:0:
64,192,59822,1,2,0:0:0:0:
192,192,60029,1,2,0:0:0:0:
320,192,60029,1,4,0:0:0:0:
448,192,60029,1,8,0:0:0:0:
64,192,60236,1,8,0:2:0:0:
320,192,60236,1,2,0:0:0:0:
448,192,60236,1,0,0:0:0:0:
192,192,60443,1,0,0:0:0:0:
320,192,60546,1,0,0:0:0:0:
448,192,60650,1,4,0:2:0:0:
192,192,60650,1,0,0:0:0:0:
64,192,60650,1,2,0:0:0:0:
320,192,60856,1,0,0:0:0:0:
64,192,60960,1,0,0:0:0:0:
320,192,61063,1,2,0:0:0:0:
448,192,61063,1,8,0:0:0:0:
192,192,61063,1,0,0:0:0:0:
64,192,61270,1,0,0:0:0:0:
448,192,61374,1,0,0:0:0:0:
320,192,61477,1,0,0:0:0:0:
192,192,61477,1,4,0:0:0:0:
64,192,61477,1,2,0:0:0:0:
448,192,61684,1,0,0:0:0:0:
320,192,61787,1,0,0:0:0:0:
64,192,61891,1,2,0:2:0:0:
448,192,61891,1,8,0:0:0:0:
192,192,61891,1,0,0:0:0:0:
320,192,62098,1,0,0:0:0:0:
64,192,62201,1,0,0:0:0:0:
448,192,62305,1,2,0:2:0:0:
192,192,62305,1,4,0:0:0:0:
320,192,62305,1,0,0:0:0:0:
64,192,62512,1,0,0:0:0:0:
192,192,62615,1,0,0:0:0:0:
448,192,62718,1,0,0:0:0:0:
320,192,62718,1,8,0:0:0:0:
64,192,62718,1,2,0:0:0:0:
192,192,62925,1,0,0:0:0:0:
320,192,63029,1,0,0:0:0:0:
448,192,63132,1,4,0:2:0:0:
192,192,63132,1,2,0:0:0:0:
64,192,63132,1,0,0:0:0:0:
320,192,63339,1,4,0:0:0:0:
448,192,63339,1,8,0:0:0:0:
64,192,63339,1,2,0:0:0:0:
192,192,63546,1,8,0:2:0:0:
448,192,63546,1,0,0:0:0:0:
320,192,63546,1,2,0:0:0:0:
64,192,63753,1,0,0:0:0:0:
192,192,63753,1,0,0:0:0:0:
320,192,63856,1,0,0:0:0:0:
64,192,63960,1,2,0:0:0:0:
448,192,63960,1,0,0:0:0:0:
192,192,63960,1,4,0:0:0:0:
320,192,64167,1,0,0:0:0:0:
448,192,64167,1,0,0:0:0:0:
192,192,64270,1,0,0:0:0:0:
448,192,64374,1,8,0:0:0:0:
64,192,64374,1,0,0:0:0:0:
320,192,64374,1,2,0:0:0:0:
192,192,64581,1,0,0:0:0:0:
64,192,64581,1,0,0:0:0:0:
448,192,64684,1,0,0:0:0:0:
192,192,64787,1,0,0:2:0:0:
320,192,64787,1,4,0:0:0:0:
64,192,64787,1,2,0:0:0:0:
448,192,64994,1,0,0:0:0:0:
320,192,64994,1,0,0:0:0:0:
192,192,65098,1,0,0:0:0:0:
320,192,65201,1,0,0:2:0:0:
64,192,65201,1,8,0:0:0:0:
448,192,65201,1,2,0:0:0:0:
192,192,65408,1,0,0:0:0:0:
64,192,65408,1,0,0:0:0:0:
320,192,65512,1,0,0:0:0:0:
448,192,65615,1,4,0:2:0:0:
192,192,65615,1,0,0:0:0:0:
64,192,65615,1,2,0:0:0:0:
320,192,65822,1,0,0:0:0:0:
448,192,65822,1,0,0:0:0:0:
64,192,65925,1,0,0:0:0:0:
192,192,66029,1,2,0:0:0:0:
320,192,66029,1,8,0:0:0:0:
448,192,66029,1,0,0:0:0:0:
64,192,66236,1,0,0:0:0:0:
192,192,66236,1,0,0:0:0:0:
448,192,66339,1,0,0:0:0:0:
192,192,66443,1,4,0:2:0:0:
320,192,66443,1,2,0:0:0:0:
64,192,66443,1,0,0:0:0:0:
64,192,66650,1,2,0:0:0:0:
192,192,66650,1,8,0:0:0:0:
448,192,66650,1,4,0:0:0:0:
192,192,66856,1,2,0:0:0:0:
320,192,66856,1,8,0:0:0:0:
448,192,66856,1,0,0:0:0:0:
64,192,67063,1,0,0:0:0:0:
320,192,67063,1,0,0:0:0:0:
448,192,67167,1,0,0:0:0:0:
64,192,67270,1,0,0:2:0:0:
320,192,67270,1,2,0:0:0:0:
192,192,67270,1,4,0:0:0:0:
448,192,67477,1,0,0:0:0:0:
192,192,67477,1,0,0:0:0:0:
320,192,67581,1,0,0:0:0:0:
448,192,67684,1,0,0:0:0:0:
192,192,67684,1,8,0:0:0:0:
64,192,67684,1,2,0:0:0:0:
320,192,67891,1,0,0:0:0:0:
64,192,67891,1,0,0:0:0:0:
192,192,67994,1,0,0:0:0:0:
64,192,68098,1,0,0:0:0:0:
320,192,68098,1,4,0:0:0:0:
448,192,68098,1,2,0:0:0:0:
192,192,68305,1,0,0:0:0:0:
320,192,68305,1,0,0:0:0:0:
448,192,68408,1,0,0:0:0:0:
192,192,68512,1,8,0:0:0:0:
64,192,68512,1,0,0:0:0:0:
320,192,68615,1,2,0:0:0:0:
448,192,68718,1,0,0:0:0:0:
64,192,68718,1,2,0:0:0:0:
192,192,68822,1,2,0:0:0:0:
320,192,68925,1,2,0:0:0:0:
448,192,68925,1,0,0:0:0:0:
64,192,69029,1,0,0:0:0:0:
192,192,69029,1,2,0:0:0:0:
320,192,69132,1,2,0:0:0:0:
448,192,69132,1,0,0:0:0:0:
192,192,69236,1,2,0:0:0:0:
64,192,69339,1,8,0:0:0:0:
448,192,69339,1,2,0:0:0:0:
320,192,69443,1,2,0:0:0:0:
192,192,69443,1,0,0:0:0:0:
64,192,69546,1,4,0:0:0:0:
448,192,69546,1,2,0:0:0:0:
320,192,69650,1,2,0:0:0:0:
192,192,69650,1,0,0:0:0:0:
64,192,69753,1,8,0:2:0:0:
448,192,69753,1,2,0:0:0:0:
320,192,69856,1,2,0:2:0:0:
192,192,69856,1,0,0:0:0:0:
64,192,69960,1,4,0:2:0:0:
448,192,69960,1,2,0:0:0:0:
320,192,70063,1,2,0:0:0:0:
192,192,70063,1,0,0:0:0:0:
64,192,70167,1,8,0:0:0:0:
192,192,70167,1,2,0:0:0:0:
448,192,70167,1,4,0:0:0:0:
320,192,70374,1,0,0:0:0:0:
448,192,70581,128,2,70787:0:2:0:0:
64,192,70581,1,8,0:0:0:0:
192,192,70581,1,0,0:0:0:0:
320,192,70787,128,2,70891:0:0:0:0:
192,192,70891,128,2,71408:0:0:0:0:
448,192,70994,1,8,0:0:0:0:
64,192,70994,1,2,0:0:0:0:
320,192,71098,1,0,0:0:0:0:
448,192,71201,1,0,0:0:0:0:
64,192,71305,1,0,0:0:0:0:
320,192,71408,1,8,0:0:0:0:
448,192,71408,1,0,0:0:0:0:
64,192,71512,1,0,0:0:0:0:
320,192,71615,128,0,71822:0:0:0:0:
192,192,71718,1,2,0:0:0:0:
448,192,71822,1,8,0:0:0:0:
64,192,71822,1,2,0:0:0:0:
192,192,71925,1,0,0:0:0:0:
320,192,72029,1,0,0:0:0:0:
448,192,72029,1,2,0:0:0:0:
64,192,72132,1,0,0:0:0:0:
320,192,72236,1,8,0:2:0:0:
192,192,72236,1,2,0:0:0:0:
448,192,72236,128,0,72443:0:0:0:0:
64,192,72339,1,0,0:0:0:0:
320,192,72443,1,2,0:2:0:0:
192,192,72546,1,2,0:2:0:0:
64,192,72650,1,0,0:2:0:0:
448,192,72650,1,8,0:2:0:0:
320,192,72753,1,2,0:2:0:0:
64,192,72856,1,2,0:0:0:0:
192,192,72960,1,0,0:0:0:0:
448,192,73063,128,2,73270:0:2:0:0:
320,192,73063,1,8,0:2:0:0:
64,192,73063,1,0,0:0:0:0:
64,192,73270,128,2,73477:0:2:0:0:
192,192,73477,1,2,0:0:0:0:
448,192,73477,1,8,0:0:0:0:
320,192,73581,1,0,0:0:0:0:
192,192,73684,1,2,0:2:0:0:
64,192,73684,1,0,0:0:0:0:
320,192,73787,1,0,0:0:0:0:
448,192,73891,1,8,0:2:0:0:
64,192,73891,1,2,0:2:0:0:
192,192,73891,128,0,74098:0:0:0:0:
320,192,74098,128,2,74201:0:0:0:0:
64,192,74201,128,2,74718:0:0:0:0:
192,192,74305,1,2,0:2:0:0:
448,192,74305,1,8,0:0:0:0:
320,192,74408,1,0,0:0:0:0:
192,192,74512,1,0,0:0:0:0:
448,192,74615,1,0,0:0:0:0:
320,192,74718,1,8,0:2:0:0:
192,192,74718,1,0,0:0:0:0:
448,192,74822,1,0,0:0:0:0:
320,192,74925,1,0,0:0:0:0:
64,192,75029,128,2,75132:0:0:0:0:
448,192,75132,128,0,75339:0:0:0:0:
320,192,75132,1,8,0:0:0:0:
192,192,75132,1,2,0:0:0:0:
64,192,75339,1,0,0:0:0:0:
192,192,75443,1,0,0:2:0:0:
320,192,75546,1,8,0:2:0:0:
448,192,75546,1,0,0:2:0:0:
64,192,75546,128,2,75753:0:2:0:0:
192,192,75753,1,0,0:2:0:0:
320,192,75856,1,2,0:0:0:0:
64,192,75960,1,8,0:2:0:0:
448,192,75960,1,0,0:0:0:0:
192,192,76063,1,2,0:0:0:0:
320,192,76167,1,2,0:0:0:0:
448,192,76167,1,0,0:0:0:0:
64,192,76270,1,0,0:0:0:0:
192,192,76374,1,8,0:2:0:0:
448,192,76374,1,0,0:2:0:0:
320,192,76374,1,0,0:0:0:0:
64,192,76581,1,0,0:2:0:0:
192,192,76581,1,8,0:2:0:0:
448,192,76787,1,2,0:2:0:0:
320,192,76787,1,8,0:0:0:0:
64,192,76787,1,0,0:0:0:0:
192,192,76994,1,2,0:2:0:0:
64,192,77201,1,8,0:2:0:0:
320,192,77201,128,2,77408:0:2:0:0:
448,192,77201,1,0,0:2:0:0:
192,192,77408,128,2,77512:0:0:0:0:
448,192,77512,128,0,78029:0:0:0:0:
320,192,77615,1,2,0:0:0:0:
64,192,77615,1,8,0:0:0:0:
192,192,77718,1,0,0:0:0:0:
320,192,77822,1,0,0:0:0:0:
64,192,77925,1,0,0:0:0:0:
192,192,78029,1,8,0:0:0:0:
320,192,78029,1,0,0:0:0:0:
64,192,78132,1,0,0:0:0:0:
192,192,78236,128,0,78443:0:0:0:0:
320,192,78339,1,2,0:0:0:0:
64,192,78443,1,2,0:0:0:0:
448,192,78443,1,8,0:0:0:0:
320,192,78546,1,0,0:0:0:0:
64,192,78650,1,0,0:0:0:0:
192,192,78650,1,2,0:0:0:0:
448,192,78753,1,0,0:0:0:0:
64,192,78856,128,2,79063:0:0:0:0:
192,192,78856,1,0,0:2:0:0:
320,192,78856,1,8,0:0:0:0:
448,192,78960,1,0,0:0:0:0:
192,192,79063,1,2,0:2:0:0:
320,192,79167,1,2,0:2:0:0:
448,192,79270,1,0,0:2:0:0:
64,192,79270,1,8,0:2:0:0:
192,192,79374,1,2,0:2:0:0:
448,192,79477,1,2,0:0:0:0:
320,192,79581,1,0,0:0:0:0:
448,192,79684,1,0,0:0:0:0:
64,192,79684,128,2,79891:0:2:0:0:
192,192,79684,1,8,0:2:0:0:
320,192,79891,128,2,80098:0:0:0:0:
64,192,80098,1,2,0:0:0:0:
448,192,80098,1,8,0:0:0:0:
192,192,80201,1,0,0:0:0:0:
320,192,80305,1,2,0:2:0:0:
448,192,80305,1,0,0:0:0:0:
192,192,80408,1,0,0:0:0:0:
320,192,80512,128,0,80718:0:0:0:0:
64,192,80512,1,8,0:2:0:0:
448,192,80512,1,2,0:2:0:0:
192,192,80718,128,2,80822:0:0:0:0:
448,192,80822,128,0,81339:0:0:0:0:
64,192,80925,1,8,0:0:0:0:
320,192,80925,1,2,0:2:0:0:
192,192,81029,1,0,0:0:0:0:
320,192,81132,1,0,0:0:0:0:
64,192,81236,1,0,0:0:0:0:
320,192,81339,1,0,0:0:0:0:
192,192,81339,1,8,0:2:0:0:
64,192,81443,1,0,0:0:0:0:
192,192,81546,1,0,0:0:0:0:
448,192,81650,128,2,81753:0:0:0:0:
64,192,81753,128,0,81960:0:0:0:0:
320,192,81753,1,8,0:0:0:0:
192,192,81753,1,2,0:0:0:0:
448,192,81960,1,0,0:0:0:0:
320,192,82063,1,0,0:2:0:0:
448,192,82167,128,2,82374:0:2:0:0:
192,192,82167,1,8,0:2:0:0:
64,192,82167,1,0,0:2:0:0:
320,192,82374,1,0,0:2:0:0:
192,192,82477,1,2,0:0:0:0:
448,192,82581,1,8,0:2:0:0:
64,192,82581,1,0,0:0:0:0:
320,192,82684,1,2,0:0:0:0:
192,192,82787,1,2,0:0:0:0:
64,192,82787,1,8,0:0:0:0:
448,192,82891,1,0,0:0:0:0:
192,192,82994,1,2,0:0:0:0:
320,192,82994,1,8,0:0:0:0:
64,192,82994,1,0,0:0:0:0:
448,192,83098,1,0,0:0:0:0:
192,192,83201,1,8,0:0:0:0:
64,192,83201,1,4,0:0:0:0:
64,192,83305,1,8,0:0:0:0:
192,192,83305,1,4,0:0:0:0:
320,192,83408,1,8,0:0:0:0:
448,192,83408,1,4,0:0:0:0:
64,192,83408,1,2,0:0:0:0:
192,192,83615,1,0,0:0:0:0:
320,192,83718,1,0,0:0:0:0:
448,192,83822,1,8,0:2:0:0:
64,192,83822,1,0,0:0:0:0:
192,192,83925,1,0,0:0:0:0:
320,192,84029,1,4,0:0:0:0:
448,192,84029,1,0,0:0:0:0:
192,192,84132,1,4,0:2:0:0:
64,192,84132,1,0,0:0:0:0:
448,192,84236,1,0,0:0:0:0:
192,192,84339,1,4,0:2:0:0:
64,192,84339,1,0,0:0:0:0:
320,192,84443,1,4,0:2:0:0:
448,192,84443,1,0,0:0:0:0:
64,192,84546,1,0,0:0:0:0:
192,192,84650,1,8,0:0:0:0:
320,192,84650,1,0,0:0:0:0:
448,192,84753,1,0,0:0:0:0:
64,192,84856,1,0,0:0:0:0:
192,192,84960,1,0,0:0:0:0:
320,192,85063,1,4,0:2:0:0:
448,192,85063,1,2,0:0:0:0:
192,192,85270,1,0,0:0:0:0:
320,192,85374,1,0,0:0:0:0:
448,192,85477,1,8,0:0:0:0:
64,192,85477,1,0,0:0:0:0:
192,192,85581,1,0,0:0:0:0:
320,192,85684,1,4,0:0:0:0:
448,192,85684,1,0,0:0:0:0:
192,192,85787,1,4,0:0:0:0:
64,192,85787,1,0,0:0:0:0:
448,192,85891,1,0,0:0:0:0:
64,192,85994,1,0,0:2:0:0:
192,192,85994,1,4,0:0:0:0:
320,192,86098,1,4,0:2:0:0:
448,192,86098,1,0,0:0:0:0:
64,192,86201,1,0,0:2:0:0:
192,192,86305,1,8,0:0:0:0:
448,192,86408,1,0,0:0:0:0:
64,192,86512,1,0,0:2:0:0:
320,192,86512,1,4,0:0:0:0:
192,192,86615,1,0,0:0:0:0:
320,192,86718,1,4,0:0:0:0:
448,192,86718,1,8,0:0:0:0:
64,192,86822,1,0,0:0:0:0:
192,192,86925,1,0,0:0:0:0:
64,192,87029,1,0,0:0:0:0:
320,192,87132,1,0,0:0:0:0:
448,192,87132,1,8,0:0:0:0:
192,192,87236,1,0,0:2:0:0:
448,192,87339,1,0,0:0:0:0:
320,192,87339,1,4,0:0:0:0:
192,192,87443,1,4,0:2:0:0:
64,192,87443,1,0,0:0:0:0:
320,192,87546,1,0,0:0:0:0:
448,192,87650,1,0,0:0:0:0:
192,192,87650,1,4,0:0:0:0:
64,192,87753,1,4,0:2:0:0:
320,192,87753,1,0,0:0:0:0:
192,192,87856,1,0,0:0:0:0:
448,192,87960,1,8,0:2:0:0:
64,192,87960,1,0,0:0:0:0:
320,192,88063,1,0,0:0:0:0:
192,192,88167,1,0,0:2:0:0:
64,192,88270,1,0,0:2:0:0:
320,192,88374,1,4,0:2:0:0:
448,192,88374,1,8,0:2:0:0:
192,192,88477,1,0,0:0:0:0:
64,192,88581,1,0,0:0:0:0:
320,192,88684,1,0,0:0:0:0:
192,192,88787,1,8,0:0:0:0:
448,192,88787,1,0,0:0:0:0:
64,192,88891,1,0,0:0:0:0:
320,192,88994,1,4,0:2:0:0:
448,192,88994,1,0,0:0:0:0:
192,192,89098,1,4,0:2:0:0:
64,192,89098,1,0,0:2:0:0:
448,192,89201,1,0,0:0:0:0:
320,192,89305,1,0,0:0:0:0:
192,192,89305,1,4,0:0:0:0:
448,192,89408,1,0,0:2:0:0:
64,192,89408,1,4,0:0:0:0:
320,192,89512,1,0,0:0:0:0:
192,192,89615,1,8,0:2:0:0:
448,192,89615,1,0,0:0:0:0:
64,192,89718,1,0,0:0:0:0:
448,192,89822,1,8,0:2:0:0:
320,192,89822,1,4,0:2:0:0:
320,192,89925,1,8,0:0:0:0:
448,192,89925,1,4,0:0:0:0:
320,192,90029,1,4,0:2:0:0:
448,192,90029,1,8,0:2:0:0:
64,192,90029,1,2,0:0:0:0:
192,192,90132,1,0,0:0:0:0:
64,192,90236,1,2,0:2:0:0:
448,192,90236,1,0,0:0:0:0:
320,192,90339,1,0,0:2:0:0:
192,192,90443,1,8,0:0:0:0:
64,192,90443,1,0,0:0:0:0:
320,192,90546,1,0,0:0:0:0:
64,192,90650,1,0,0:2:0:0:
448,192,90650,1,4,0:0:0:0:
192,192,90753,1,4,0:2:0:0:
320,192,90753,1,0,0:0:0:0:
448,192,90856,1,2,0:0:0:0:
192,192,90960,1,4,0:2:0:0:
64,192,90960,1,0,0:0:0:0:
320,192,91063,1,4,0:2:0:0:
448,192,91063,1,0,0:0:0:0:
192,192,91167,1,2,0:0:0:0:
448,192,91270,1,0,0:0:0:0:
64,192,91270,1,8,0:0:0:0:
320,192,91374,1,0,0:0:0:0:
192,192,91477,1,2,0:2:0:0:
64,192,91581,1,0,0:2:0:0:
448,192,91684,1,0,0:2:0:0:
192,192,91684,1,8,0:0:0:0:
320,192,91787,1,0,0:0:0:0:
448,192,91891,1,0,0:0:0:0:
64,192,91891,1,2,0:0:0:0:
192,192,91994,1,0,0:2:0:0:
320,192,92098,1,8,0:0:0:0:
448,192,92098,1,0,0:0:0:0:
192,192,92201,1,2,0:2:0:0:
64,192,92305,1,4,0:2:0:0:
320,192,92305,1,0,0:0:0:0:
448,192,92408,1,0,0:2:0:0:
192,192,92408,1,4,0:2:0:0:
320,192,92512,1,2,0:2:0:0:
448,192,92615,1,4,0:0:0:0:
192,192,92615,1,0,0:0:0:0:
64,192,92718,1,0,0:0:0:0:
320,192,92718,1,4,0:0:0:0:
192,192,92822,1,2,0:0:0:0:
448,192,92925,1,8,0:0:0:0:
320,192,92925,1,0,0:0:0:0:
192,192,93029,1,0,0:0:0:0:
64,192,93132,1,4,0:2:0:0:
448,192,93132,1,2,0:0:0:0:
320,192,93236,1,0,0:0:0:0:
64,192,93339,1,4,0:2:0:0:
192,192,93339,1,8,0:0:0:0:
448,192,93443,1,0,0:0:0:0:
320,192,93546,1,2,0:0:0:0:
192,192,93546,1,0,0:0:0:0:
448,192,93650,1,0,0:2:0:0:
64,192,93753,1,0,0:0:0:0:
320,192,93856,1,0,0:0:0:0:
192,192,93856,1,2,0:0:0:0:
64,192,93960,1,0,0:0:0:0:
448,192,94063,1,0,0:0:0:0:
320,192,94167,1,2,0:0:0:0:
192,192,94167,1,0,0:0:0:0:
448,192,94270,1,0,0:0:0:0:
64,192,94374,1,0,0:0:0:0:
320,192,94477,1,2,0:0:0:0:
448,192,94477,1,0,0:0:0:0:
192,192,94581,1,0,0:0:0:0:
64,192,94684,1,0,0:0:0:0:
448,192,94787,1,0,0:0:0:0:
320,192,94787,1,2,0:0:0:0:
192,192,94891,1,0,0:2:0:0:
64,192,94891,1,0,0:0:0:0:
320,192,94994,1,2,0:0:0:0:
448,192,94994,1,0,0:0:0:0:
192,192,95098,1,2,0:0:0:0:
64,192,95098,1,0,0:0:0:0:
320,192,95201,1,2,0:0:0:0:
448,192,95201,1,0,0:0:0:0:
192,192,95305,1,2,0:0:0:0:
64,192,95408,1,8,0:2:0:0:
448,192,95408,1,4,0:2:0:0:
192,192,95512,1,2,0:0:0:0:
320,192,95512,1,0,0:0:0:0:
64,192,95615,1,8,0:0:0:0:
448,192,95615,1,4,0:0:0:0:
192,192,95718,1,2,0:0:0:0:
320,192,95718,1,0,0:0:0:0:
448,192,95822,1,4,0:2:0:0:
64,192,95822,1,8,0:2:0:0:
192,192,95925,1,2,0:0:0:0:
320,192,95925,1,0,0:0:0:0:
448,192,96029,1,4,0:0:0:0:
64,192,96029,1,8,0:0:0:0:
192,192,96132,1,2,0:0:0:0:
320,192,96132,1,0,0:0:0:0:
64,192,96236,1,8,0:0:0:0:
448,192,96236,1,4,0:0:0:0:
192,192,96339,1,2,0:0:0:0:
320,192,96339,1,0,0:0:0:0:
64,192,96443,1,8,0:0:0:0:
448,192,96443,1,4,0:0:0:0:
192,192,96546,1,2,0:0:0:0:
320,192,96546,1,0,0:0:0:0:
64,192,96650,1,4,0:2:0:0:
320,192,96650,1,2,0:0:0:0:
448,192,96650,1,8,0:0:0:0:
192,192,96856,128,2,96960:0:0:0:0:
320,192,96960,1,0,0:0:0:0:
64,192,97063,1,4,0:0:0:0:
448,192,97063,1,8,0:0:0:0:
192,192,97167,1,0,0:0:0:0:
320,192,97270,128,2,97374:0:0:0:0:
64,192,97374,1,0,0:0:0:0:
192,192,97477,1,8,0:0:0:0:
448,192,97477,1,0,0:0:0:0:
320,192,97581,1,0,0:0:0:0:
64,192,97684,128,2,97787:0:0:0:0:
448,192,97787,1,0,0:0:0:0:
192,192,97891,1,8,0:0:0:0:
320,192,97891,1,4,0:0:0:0:
64,192,97994,1,0,0:0:0:0:
448,192,98098,128,2,98201:0:0:0:0:
320,192,98201,1,0,0:0:0:0:
192,192,98305,1,8,0:0:0:0:
64,192,98305,1,0,0:0:0:0:
448,192,98408,1,0,0:0:0:0:
320,192,98512,128,2,98615:0:0:0:0:
64,192,98615,1,0,0:0:0:0:
192,192,98718,1,4,0:0:0:0:
448,192,98718,1,8,0:0:0:0:
320,192,98822,1,0,0:0:0:0:
64,192,98925,128,2,99029:0:0:0:0:
192,192,99029,1,0,0:0:0:0:
320,192,99132,1,8,0:0:0:0:
448,192,99132,1,0,0:0:0:0:
64,192,99236,1,0,0:0:0:0:
192,192,99339,128,2,99443:0:0:0:0:
448,192,99443,1,0,0:0:0:0:
320,192,99546,1,4,0:0:0:0:
64,192,99546,1,8,0:0:0:0:
192,192,99650,1,0,0:0:0:0:
448,192,99753,128,2,99856:0:0:0:0:
64,192,99856,1,0,0:0:0:0:
192,192,99960,1,8,0:0:0:0:
320,192,99960,1,0,0:0:0:0:
448,192,100063,1,0,0:0:0:0:
64,192,100167,128,2,100270:0:0:0:0:
320,192,100270,1,0,0:0:0:0:
192,192,100374,1,4,0:0:0:0:
448,192,100374,1,8,0:0:0:0:
64,192,100477,1,0,0:0:0:0:
320,192,100581,128,2,100684:0:0:0:0:
192,192,100684,1,0,0:0:0:0:
448,192,100787,1,0,0:0:0:0:
64,192,100787,1,8,0:0:0:0:
320,192,100891,1,0,0:0:0:0:
192,192,100994,128,2,101098:0:0:0:0:
64,192,101098,1,0,0:0:0:0:
320,192,101201,1,8,0:0:0:0:
448,192,101201,1,4,0:0:0:0:
192,192,101305,1,0,0:0:0:0:
64,192,101408,128,2,101512:0:0:0:0:
448,192,101512,1,0,0:0:0:0:
320,192,101615,1,8,0:0:0:0:
192,192,101615,1,0,0:0:0:0:
64,192,101718,1,0,0:0:0:0:
448,192,101822,128,2,101925:0:0:0:0:
192,192,101925,1,0,0:0:0:0:
320,192,102029,1,4,0:0:0:0:
64,192,102029,1,8,0:0:0:0:
448,192,102132,1,0,0:0:0:0:
192,192,102236,128,2,102339:0:0:0:0:
64,192,102339,1,0,0:0:0:0:
320,192,102443,1,8,0:0:0:0:
448,192,102443,1,0,0:0:0:0:
192,192,102546,1,0,0:0:0:0:
64,192,102650,128,2,102753:0:0:0:0:
448,192,102753,1,0,0:0:0:0:
320,192,102856,1,4,0:0:0:0:
192,192,102856,1,8,0:0:0:0:
64,192,102960,1,0,0:0:0:0:
192,192,103063,1,8,0:0:0:0:
448,192,103063,1,4,0:0:0:0:
320,192,103167,1,0,0:0:0:0:
64,192,103270,1,2,0:0:0:0:
192,192,103270,1,4,0:0:0:0:
448,192,103270,1,8,0:0:0:0:
320,192,103477,128,0,103581:0:0:0:0:
448,192,103581,1,0,0:0:0:0:
64,192,103684,1,4,0:0:0:0:
192,192,103684,1,8,0:0:0:0:
320,192,103787,1,0,0:0:0:0:
448,192,103891,128,2,103994:0:0:0:0:
192,192,103994,1,0,0:0:0:0:
320,192,104098,1,8,0:0:0:0:
64,192,104098,1,0,0:0:0:0:
448,192,104201,1,0,0:0:0:0:
192,192,104305,128,2,104408:0:0:0:0:
320,192,104408,1,0,0:0:0:0:
64,192,104512,1,4,0:0:0:0:
448,192,104512,1,8,0:0:0:0:
192,192,104615,1,0,0:0:0:0:
320,192,104718,128,2,104822:0:0:0:0:
64,192,104822,1,0,0:0:0:0:
192,192,104925,1,0,0:0:0:0:
448,192,104925,1,8,0:0:0:0:
320,192,105029,1,0,0:0:0:0:
64,192,105132,128,2,105236:0:0:0:0:
192,192,105236,1,0,0:0:0:0:
320,192,105339,1,4,0:0:0:0:
448,192,105339,1,8,0:0:0:0:
64,192,105443,1,0,0:0:0:0:
192,192,105546,128,2,105650:0:0:0:0:
320,192,105650,1,0,0:0:0:0:
64,192,105753,1,0,0:0:0:0:
448,192,105753,1,8,0:0:0:0:
192,192,105856,1,0,0:0:0:0:
320,192,105960,128,2,106063:0:0:0:0:
448,192,106063,1,0,0:0:0:0:
192,192,106167,1,4,0:0:0:0:
64,192,106167,1,8,0:0:0:0:
320,192,106270,1,0,0:0:0:0:
448,192,106374,128,2,106477:0:0:0:0:
192,192,106477,1,0,0:0:0:0:
320,192,106581,1,0,0:0:0:0:
64,192,106581,1,8,0:0:0:0:
448,192,106684,1,0,0:0:0:0:
192,192,106787,128,2,106891:0:0:0:0:
320,192,106891,1,0,0:0:0:0:
448,192,106994,1,8,0:0:0:0:
64,192,106994,1,4,0:0:0:0:
192,192,107098,1,0,0:0:0:0:
320,192,107201,128,2,107305:0:0:0:0:
64,192,107305,1,0,0:0:0:0:
192,192,107408,1,8,0:0:0:0:
448,192,107408,1,0,0:0:0:0:
320,192,107512,1,0,0:0:0:0:
64,192,107615,128,2,107718:0:0:0:0:
448,192,107718,1,0,0:0:0:0:
320,192,107822,1,8,0:0:0:0:
192,192,107822,1,4,0:0:0:0:
64,192,107925,1,0,0:0:0:0:
192,192,108029,128,2,108132:0:0:0:0:
320,192,108132,1,0,0:0:0:0:
64,192,108236,1,2,0:2:0:0:
448,192,108236,1,8,0:2:0:0:
320,192,108339,1,0,0:0:0:0:
64,192,108443,1,8,0:0:0:0:
192,192,108443,1,2,0:0:0:0:
448,192,108546,1,0,0:0:0:0:
192,192,108650,1,2,0:0:0:0:
320,192,108650,1,8,0:0:0:0:
64,192,108753,1,0,0:0:0:0:
320,192,108856,1,8,0:0:0:0:
448,192,108856,1,2,0:0:0:0:
192,192,108960,1,0,0:0:0:0:
64,192,109063,1,2,0:0:0:0:
448,192,109063,1,8,0:0:0:0:
320,192,109167,1,4,0:2:0:0:
192,192,109167,1,2,0:0:0:0:
448,192,109270,1,8,0:2:0:0:
64,192,109270,1,2,0:0:0:0:
320,192,109374,1,4,0:2:0:0:
192,192,109374,1,2,0:0:0:0:
64,192,109477,1,2,0:2:0:0:
448,192,109477,1,8,0:0:0:0:
320,192,109581,1,4,0:2:0:0:
192,192,109581,1,2,0:0:0:0:
448,192,109684,1,8,0:2:0:0:
64,192,109684,1,2,0:0:0:0:
192,192,109787,1,4,0:0:0:0:
320,192,109787,1,0,0:0:0:0:
448,192,109891,128,8,114029:0:0:0:0:
320,192,109891,128,4,114029:0:0:0:0:
64,192,109891,1,0,0:0:0:0:
