osu file format v14

[General]
AudioFilename: deltaMAX.mp3
AudioLeadIn: 1000
PreviewTime: 50149
Countdown: 1
SampleSet: Normal
StackLeniency: 0.7
Mode: 0
LetterboxInBreaks: 1
WidescreenStoryboard: 0

[Editor]
Bookmarks: 11850,28439,41420,52084,61137,75952,87824,97731,106231,113676,116246
DistanceSpacing: 1
BeatDivisor: 4
GridSize: 8
TimelineZoom: 2.6

[Metadata]
Title:deltaMAX
TitleUnicode:ΔMAX
Artist:DM Ashura
ArtistUnicode:DM Ashura
Creator:rustbell
Version:Challenge
Source:DDR Forever
Tags:stepmania ignorethis Doomsday
BeatmapID:106965
BeatmapSetID:18315

[Difficulty]
HPDrainRate:7
CircleSize:4
OverallDifficulty:7
ApproachRate:9.6
SliderMultiplier:2.5
SliderTickRate:0.5

[Events]
//Background and Video events
0,0,"deltaMAX-bg.png",0,0
Video,350,"deltaMAX.avi"
//Break Periods
//Storyboard Layer 0 (Background)
//Storyboard Layer 1 (Fail)
//Storyboard Layer 2 (Pass)
//Storyboard Layer 3 (Foreground)
//Storyboard Sound Samples

[TimingPoints]
308,600,4,1,0,80,1,0
9908,594.088816278034,4,1,0,40,1,0
10502,588.264130594637,4,1,0,40,1,0
11090,582.552551094713,4,1,0,40,1,0
11673,576.950814943026,4,1,0,40,1,0
12250,571.455783608743,4,1,0,40,1,0
12821,566.064437001745,4,1,0,40,1,0
13387,560.773867937754,4,1,0,40,1,0
13948,555.581276910968,4,1,0,40,1,0
14504,550.483967154457,4,1,0,40,1,0
15054,545.479339969999,4,1,0,40,1,0
15599,540.564890310374,4,1,0,40,1,0
16140,535.73820259833,4,1,0,40,1,0
16676,530.996946767556,4,1,0,40,1,0
17207,526.33887451204,4,1,0,40,1,0
17733,521.761815731119,4,1,0,40,1,0
18255,517.263675158412,4,1,0,40,1,0
18772,512.84242916364,4,1,0,40,1,0
19285,508.496122717064,4,1,0,40,1,0
19793,504.222866506996,4,1,0,40,1,0
20297,500.020834201425,4,1,0,40,1,0
20797,495.888259845448,4,1,0,40,1,0
21293,491.823435386696,4,1,0,40,1,0
21785,487.824708321476,4,1,0,40,1,0
22273,483.890479454817,4,1,0,40,1,0
22757,480.019200768031,4,1,0,40,1,0
23237,476.209373387833,4,1,0,40,1,0
23713,472.459545651404,4,1,0,40,1,0
24185,468.768311262159,4,1,0,40,1,0
24654,465.1343075313,4,1,0,40,1,0
25119,461.556213700527,4,1,0,40,1,0
25581,458.032749341578,4,1,0,40,1,0
26039,454.562672828516,4,1,0,40,1,0
26494,451.144779878943,4,1,0,45,1,0
26945,447.777902160528,4,1,0,45,1,0
27393,444.46090595948,4,1,0,45,1,0
27837,441.192690907754,4,1,0,45,1,0
28278,437.972188766013,4,1,0,45,1,0
28716,434.798362259502,4,1,0,45,1,0
29151,431.670203964171,4,1,0,45,1,0
29583,428.586735240544,4,1,0,45,1,0
30012,425.547005212951,4,1,0,45,1,0
30438,422.550089791894,4,1,0,45,1,0
30861,419.595090737438,4,1,0,45,1,0
31281,416.681134761624,4,1,0,45,1,0
31698,413.807372668023,4,1,0,45,1,0
32112,410.972978526662,4,1,0,45,1,0
32523,408.177148882615,4,1,0,45,1,0
32931,405.419101996689,4,1,0,45,1,0
33336,402.698077116682,4,1,0,45,1,0
33739,400.013333777793,4,1,0,45,1,0
34139,397.364151130832,4,1,0,45,1,0
34536,394.749827296951,4,1,0,45,1,0
34931,392.169678747671,4,1,0,45,1,0
35323,389.623039709081,4,1,0,45,1,0
35713,387.109261589084,4,1,0,45,1,0
36100,384.62771242668,4,1,0,45,1,0
36485,382.177776362305,4,1,0,45,1,0
36867,379.758853128264,4,1,0,45,1,0
37247,377.370357558414,4,1,0,45,1,0
37624,375.011719116222,4,1,0,45,1,0
37999,372.682381440417,4,1,0,45,1,0
38372,370.381801907466,4,1,0,45,1,0
38742,368.10945121016,4,1,0,45,1,0
39110,365.864812951614,4,1,0,45,1,0
39476,363.647383254038,4,1,0,50,1,0
39840,361.456670381638,4,1,0,50,1,0
40201,359.292194377077,4,1,0,50,1,0
40560,357.153486710914,4,1,0,50,1,0
40917,355.040089943489,4,1,0,50,1,0
41272,352.951557398747,4,1,0,50,1,0
41625,350.887452849499,4,1,0,50,1,0
41976,348.847350213669,4,1,0,50,1,0
42325,346.830833261077,4,1,0,50,1,0
42672,344.837495330326,4,1,0,50,1,0
43017,342.866939055402,4,1,0,50,1,0
43360,340.918776101594,4,1,0,50,1,0
43701,338.992626910365,4,1,0,50,1,0
44040,337.088120452822,4,1,0,50,1,0
44377,335.204893991452,4,1,0,50,1,0
44712,333.342592849801,4,1,0,50,1,0
45045,331.500870189784,4,1,0,50,1,0
45377,329.679386796341,4,1,0,50,1,0
45707,327.877810869149,4,1,0,50,1,0
46035,326.095817821136,4,1,0,50,1,0
46361,324.333090083516,4,1,0,50,1,0
46685,322.589316917121,4,1,0,50,1,0
47008,320.864194229792,4,1,0,50,1,0
47329,319.157424399585,4,1,0,50,1,0
47648,317.468716103601,4,1,0,50,1,0
47965,315.797784152215,4,1,0,50,1,0
48281,314.144349328516,4,1,0,50,1,0
48595,312.508138232766,4,1,0,50,1,0
48908,310.888883131687,4,1,0,50,1,0
49219,309.286321812418,4,1,0,50,1,0
49528,307.70019744096,4,1,0,50,1,0
49836,306.13025842496,4,1,0,50,1,0
50142,304.576258280667,4,1,0,55,1,1
50447,303.037955503927,4,1,0,55,1,1
50750,301.515113445061,4,1,0,55,1,1
51052,300.007500187505,4,1,0,55,1,1
51352,298.51488843006,4,1,0,55,1,1
51651,297.037055372658,4,1,0,55,1,1
51948,295.573782605483,4,1,0,55,1,1
52244,294.124856001373,4,1,0,55,1,1
52538,292.690065611356,4,1,0,55,1,1
52831,291.269205563242,4,1,0,55,1,1
53122,289.862073963139,4,1,0,55,1,1
53412,288.468472799827,4,1,0,55,1,1
53700,287.088207851862,4,1,0,55,1,1
53987,285.721088597348,4,1,0,55,1,1
54273,284.366928126259,4,1,0,55,1,1
54557,283.025543055261,4,1,0,55,1,1
54840,281.696753444917,4,1,0,55,1,1
55122,280.380382719222,4,1,0,55,1,1
55402,279.076257587386,4,1,0,55,1,1
55681,277.784207967777,4,1,0,55,1,1
55959,276.504066913984,4,1,0,55,1,1
56236,275.235670542902,4,1,0,55,1,1
56511,273.978857964794,4,1,0,55,1,1
56785,272.733471215255,4,1,0,55,1,1
57058,271.499355189031,4,1,0,55,1,1
57329,270.276357575621,4,1,0,55,1,1
57599,269.06432879661,4,1,0,55,1,1
57868,267.863121944686,4,1,0,55,1,1
58136,266.672592724283,4,1,0,55,1,1
58403,265.492599393792,4,1,0,55,1,1
58668,264.323002709311,4,1,0,55,1,1
58932,263.163665869866,4,1,0,55,1,1
59195,262.014454464071,4,1,0,60,1,1
59457,260.875236418183,4,1,0,60,1,0
59718,259.745881945497,4,1,0,60,1,0
59978,258.626263497058,4,1,0,60,1,0
60237,257.516255713642,4,1,0,60,1,0
60495,256.415735378961,4,1,0,60,1,0
60751,255.324581374072,4,1,0,60,1,0
61006,254.242674632937,4,1,0,60,1,0
61260,253.169898099116,4,1,0,60,1,0
61513,252.106136683544,4,1,0,60,1,0
61765,251.051277223373,4,1,0,60,1,0
62016,250.005208441843,4,1,0,60,1,0
62266,248.967820909147,4,1,0,60,1,0
62515,247.939007004277,4,1,0,60,1,0
62762,246.918660877796,4,1,0,60,1,0
63010,245.906678415541,4,1,0,60,1,0
63256,244.902957203208,4,1,0,60,1,0
63501,243.907396491799,4,1,0,60,1,0
63745,242.91989716391,4,1,0,60,1,0
63988,241.940361700841,4,1,0,60,1,0
64230,240.968694150485,4,1,0,60,1,0
64471,240.004800096002,4,1,0,60,1,0
64711,239.048586625232,4,1,0,60,1,0
64950,238.099962300839,4,1,0,60,1,0
65188,237.158837131169,4,1,0,60,1,0
65425,236.225122541782,4,1,0,60,1,0
65661,235.298731347673,4,1,0,60,1,0
65896,234.379577726127,4,1,0,60,1,0
66130,233.467577190218,4,1,0,60,1,0
66363,232.562646562918,4,1,0,60,1,0
66595,231.664703951814,4,1,0,60,1,0
66828,230.773668724399,4,1,0,60,1,0
67059,229.889461483936,4,1,0,60,1,0
67289,229.012004045879,4,1,0,60,1,0
67518,228.141219414818,4,1,0,60,1,0
67746,227.277031761965,4,1,0,60,1,0
67973,226.41936640314,4,1,0,60,1,0
68199,225.568149777251,4,1,0,60,1,0
68425,224.72330942527,4,1,0,60,1,0
68650,223.884773969664,4,1,0,60,1,0
68874,223.052473094295,4,1,0,60,1,0
69097,222.226337524769,4,1,0,60,1,0
69319,221.406299009207,4,1,0,60,1,0
69540,220.592290299454,4,1,0,60,1,0
69761,219.784245132695,4,1,0,60,1,0
69981,218.982098213471,4,1,0,60,1,0
70200,218.185785196094,4,1,0,60,1,0
70418,217.39524266744,4,1,0,60,1,0
70635,216.610408130111,4,1,0,60,1,0
70852,215.831219985971,4,1,0,60,1,0
71068,215.057617520027,4,1,0,60,1,0
71283,214.289540884659,4,1,0,60,1,0
71497,213.526931084183,4,1,0,60,1,0
71711,212.769729959751,4,1,0,60,1,0
71924,212.017880174561,4,1,0,60,1,0
72136,211.271325199387,4,1,0,60,1,0
72347,210.530009298409,4,1,0,60,1,0
72558,209.793877515341,4,1,0,60,1,0
72768,209.062875659855,4,1,0,60,1,0
72977,208.336950294276,4,1,0,60,1,0
73185,207.616048720566,4,1,0,60,1,0
73393,206.900118967568,4,1,0,60,1,0
73600,206.189109778519,4,1,0,60,1,0
73806,205.482970598812,4,1,0,60,1,0
74011,204.78165156402,4,1,0,65,1,0
74216,204.085103488155,4,1,1,65,1,0
74420,203.393277852167,4,1,1,65,1,0
74623,202.706126792682,4,1,1,65,1,0
74826,202.023603090961,4,1,1,65,1,0
75028,201.345660162083,4,1,1,65,1,0
75229,200.672252044349,4,1,1,65,1,0
75430,200.00333338889,4,1,1,65,1,0
75630,199.338859449493,4,1,1,65,1,0
75829,198.678786072617,4,1,1,65,1,0
76028,198.023069687619,4,1,1,65,1,0
76226,197.371667297159,4,1,1,65,1,0
76423,196.724536467811,4,1,1,65,1,0
76620,196.081635320839,4,1,1,65,1,0
76816,195.442922523168,4,1,1,65,1,0
77011,194.808357278527,4,1,1,65,1,0
77206,194.177899318759,4,1,1,65,1,0
77400,193.551508895305,4,1,1,65,1,0
77594,192.929146770848,4,1,1,65,1,0
77787,192.310774211125,4,1,1,65,1,0
77979,191.696352976885,4,1,1,65,1,0
78171,191.085845316008,4,1,1,65,1,0
78362,190.479213955777,4,1,1,65,1,0
78552,189.876422095286,4,1,1,65,1,0
78742,189.277433398003,4,1,1,65,1,0
78931,188.682211984465,4,1,1,65,1,0
79120,188.090722425116,4,1,1,65,1,0
79308,187.502929733277,4,1,1,65,1,0
79496,186.918799358245,4,1,1,65,1,0
79683,186.338297178528,4,1,1,65,1,0
79869,185.761389495193,4,1,1,65,1,0
80055,185.188043025355,4,1,1,65,1,0
80240,184.618224895768,4,1,1,65,1,0
80424,184.051902636544,4,1,1,65,1,0
80609,183.489044174987,4,1,1,65,1,0
80791,182.92961782954,4,1,1,65,1,0
80975,182.373592303834,4,1,1,65,1,0
81157,181.820936680859,4,1,1,65,1,0
81339,181.271620417227,4,1,1,65,1,0
81520,180.72561333755,4,1,1,65,1,0
81701,180.182885628913,4,1,1,65,1,0
81881,179.643407835447,4,1,1,65,1,0
82061,179.107150852998,4,1,1,65,1,0
82240,178.574085923898,4,1,1,65,1,0
82419,178.044184631819,4,1,1,65,1,0
82597,177.517418896729,4,1,1,65,1,0
82775,176.993760969926,4,1,1,65,1,0
82952,176.473183429168,4,1,1,65,1,0
83128,175.955659173888,4,1,1,65,1,0
83304,175.441161420489,4,1,1,65,1,0
83479,174.929663697722,4,1,1,65,1,0
83654,174.421139842149,4,1,1,65,1,0
83828,173.915563993681,4,1,1,65,1,0
84002,173.412910591194,4,1,1,65,1,0
84175,172.913154368219,4,1,1,65,1,0
84348,172.416270348712,4,1,1,65,1,0
84520,171.922233842892,4,1,1,65,1,0
84692,171.431020443149,4,1,1,65,1,0
84863,170.942606020029,4,1,1,65,1,0
85034,170.456966718277,4,1,1,65,1,0
85204,169.97407895296,4,1,1,65,1,0
85374,169.493919405641,4,1,1,65,1,0
85543,169.016465020634,4,1,1,65,1,0
85712,168.541693001306,4,1,1,65,1,0
85881,168.069580806454,4,1,1,70,1,0
86049,167.600106146734,4,1,1,70,1,0
86217,167.133246981156,4,1,1,70,1,0
86384,166.668981513632,4,1,1,70,1,0
86551,166.207288189587,4,1,1,70,1,0
86717,165.74814569262,4,1,1,70,1,0
86883,165.291532941225,4,1,1,70,1,0
87048,164.837429085564,4,1,1,70,1,0
87213,164.385813504295,4,1,1,70,1,0
87377,163.936665801445,4,1,1,70,1,0
87541,163.489965803349,4,1,1,70,1,0
87704,163.045693555619,4,1,1,70,1,0
87867,162.60382932018,4,1,1,70,1,0
88030,162.164353572346,4,1,1,70,1,0
88192,161.727246997938,4,1,1,70,1,0
88354,161.292490490464,4,1,1,70,1,0
88515,160.860065148326,4,1,1,70,1,0
88676,160.429952272089,4,1,1,70,1,0
88836,160.002133361778,4,1,1,70,1,0
88996,159.57659011423,4,1,1,70,1,0
89156,159.153304420483,4,1,1,70,1,0
89315,158.732258363206,4,1,1,70,1,0
89474,158.313434214172,4,1,1,70,1,0
89632,157.896814431769,4,1,1,70,1,0
89790,157.482381658552,4,1,1,70,1,0
89947,157.070118718831,4,1,1,70,1,0
90104,156.6600086163,4,1,1,70,1,0
90261,156.2520345317,4,1,1,70,1,0
90417,155.846179820517,4,1,1,70,1,0
90573,155.442428010726,4,1,1,70,1,0
90728,155.040762800553,4,1,1,70,1,0
90883,154.641168056289,4,1,1,70,1,0
91038,154.243627810126,4,1,1,70,1,0
91192,153.848126258029,4,1,1,70,1,0
91346,153.454647757644,4,1,1,70,1,0
91499,153.063176826235,4,1,1,70,1,0
91652,152.673698138653,4,1,1,70,1,0
91805,152.286196525337,4,1,1,70,1,0
91957,151.900656970341,4,1,1,70,1,0
92109,151.517064609402,4,1,1,70,1,0
92261,151.135404728019,4,1,1,70,1,0
92412,150.755662759582,4,1,1,70,1,0
92563,150.377824283512,4,1,1,70,1,0
92713,150.001875023438,4,1,1,70,1,0
92863,149.627800845397,4,1,1,70,1,0
93013,149.255587756067,4,1,1,70,1,0
93162,148.885221901016,4,1,1,70,1,0
93311,148.51668956299,4,1,1,70,1,0
93460,148.149977160212,4,1,1,70,1,0
93608,147.78507124472,4,1,1,70,1,0
93756,147.421958500719,4,1,1,70,1,0
93903,147.060625742963,4,1,1,70,1,0
94050,146.701059915158,4,1,1,70,1,0
94197,146.343248088391,4,1,1,70,1,0
94343,145.98717745958,4,1,1,70,1,0
94489,145.632835349944,4,1,1,70,1,0
94635,145.280209203501,4,1,1,70,1,0
94780,144.929286585587,4,1,1,70,1,0
94925,144.580055181388,4,1,1,70,1,0
95070,144.232502794505,4,1,1,70,1,0
95214,143.886617345532,4,1,1,70,1,0
95358,143.542386870656,4,1,1,70,1,0
95502,143.199799520281,4,1,1,70,1,0
95645,142.858843557661,4,1,1,70,1,0
95788,142.51950735757,4,1,1,75,1,0
95931,142.181779404969,4,1,1,75,1,0
96073,141.845648293715,4,1,1,75,1,0
96215,141.511102725268,4,1,1,75,1,0
96357,141.178131507429,4,1,1,75,1,0
96498,140.846723553093,4,1,1,75,1,0
96639,140.516867879015,4,1,1,75,1,0
96780,140.188553604598,4,1,1,75,1,0
96920,139.861769950699,4,1,1,75,1,0
97060,139.536506238445,4,1,1,75,1,0
97200,139.212751888073,4,1,1,75,1,0
97339,138.890496417783,4,1,1,75,1,0
97478,138.569729442603,4,1,1,75,1,0
97617,138.25044067328,4,1,1,75,1,0
97755,137.932619915171,4,1,1,75,1,0
97893,137.616257067168,4,1,1,75,1,0
98031,137.301342120619,4,1,1,75,1,0
98168,136.987865158278,4,1,1,75,1,0
98305,136.675816353261,4,1,1,75,1,0
98442,136.365185968022,4,1,1,75,1,0
98578,136.055964353337,4,1,1,75,1,0
98714,135.748141947307,4,1,1,75,1,0
98850,135.441709274371,4,1,1,75,1,0
98985,135.136656944335,4,1,1,75,1,0
99120,134.832975651412,4,1,1,75,1,0
99255,134.530656173275,4,1,1,75,1,0
99390,134.229689370127,4,1,1,75,1,0
99524,133.930066183774,4,1,1,75,1,0
99658,133.631777636722,4,1,1,75,1,0
99792,133.334814831276,4,1,1,75,1,0
99925,133.039168948658,4,1,1,75,1,0
100058,132.744831248133,4,1,1,75,1,0
100191,132.451793066149,4,1,1,75,1,0
100323,132.160045815483,4,1,1,75,1,0
100455,131.869580984406,4,1,1,75,1,0
100587,131.580390135857,4,1,1,75,1,0
100719,131.292464906618,4,1,1,75,1,0
100850,131.005797006518,4,1,1,75,1,0
100981,130.720378217628,4,1,1,75,1,0
101112,130.436200393483,4,1,1,75,1,0
101242,130.153255458302,4,1,1,75,1,0
101372,129.871535406227,4,1,1,75,1,0
101502,129.591032300565,4,1,1,75,1,0
101632,129.311738273042,4,1,1,75,1,0
101761,129.03364552307,4,1,1,75,1,0
101890,128.756746317021,4,1,1,75,1,0
102019,128.481032987505,4,1,1,75,1,0
102147,128.20649793267,4,1,1,75,1,0
102275,127.933133615497,4,1,1,75,1,0
102403,127.660932563112,4,1,1,75,1,0
102531,127.389887366108,4,1,1,75,1,0
102658,127.119990677867,4,1,1,75,1,0
102785,126.851235213903,4,1,1,75,1,0
102912,126.5836137512,4,1,1,75,1,0
103039,126.31711912757,4,1,1,75,1,0
103165,126.051744241011,4,1,1,75,1,0
103291,125.787482049078,4,1,1,75,1,0
103417,125.524325568259,4,1,1,75,1,0
103543,125.26226787336,4,1,1,75,1,0
103668,125.001302096897,4,1,1,75,1,0
103793,124.741421428497,4,1,1,75,1,0
103918,124.482619114306,4,1,1,75,1,0
104042,124.224888456402,4,1,1,75,1,0
104166,123.968222812219,4,1,1,75,1,0
104290,123.712615593975,4,1,1,80,1,0
104414,123.45806026811,4,1,1,80,1,0
104537,123.204550354726,4,1,1,80,1,0
104660,122.952079427043,4,1,1,80,1,0
104783,122.70064111085,4,1,1,80,1,0
104906,122.45022908397,4,1,1,80,1,0
105028,122.200837075734,4,1,1,80,1,0
105150,121.952458866452,4,1,1,80,1,0
105272,121.705088286899,4,1,1,80,1,0
105394,121.458719217806,4,1,1,80,1,0
105515,121.213345589349,4,1,1,80,1,0
105636,120.968961380659,4,1,1,80,1,0
105757,120.725560619322,4,1,1,80,1,0
105878,120.483137380897,4,1,1,80,1,0
105998,120.241685788435,4,1,1,80,1,0
106118,120.001200012,4,1,1,80,1,0
106238,119.761674268206,4,1,1,80,1,0
106358,119.523102819749,4,1,1,80,1,0
106478,119.28547997495,4,1,1,80,1,0
106597,119.048800087302,4,1,1,80,1,0
106716,118.813057555025,4,1,1,80,1,0
106835,118.578246820621,4,1,1,80,1,0
106954,118.344362370438,4,1,1,80,1,0
107072,118.11139873424,4,1,1,80,1,0
107190,117.879350484779,4,1,1,80,1,0
107308,117.648212237375,4,1,1,80,1,0
107426,117.417978649498,4,1,1,80,1,0
107543,117.188644420356,4,1,1,80,1,0
107660,116.96020429049,4,1,1,80,1,0
107777,116.732653041372,4,1,1,80,1,0
107894,116.505985495005,4,1,1,80,1,0
108011,116.280196513532,4,1,1,80,1,0
108127,116.055280998849,4,1,1,80,1,0
108243,115.831233892219,4,1,1,80,1,0
108359,115.608050173894,4,1,1,80,1,0
108475,115.385724862739,4,1,1,80,1,0
108590,115.164253015864,4,1,1,80,1,0
108705,114.943629728254,4,1,1,80,1,0
108820,114.72385013241,4,1,1,80,1,0
108935,114.50490939799,4,1,1,80,1,0
109050,114.286802731455,4,1,1,80,1,0
109164,114.069525375716,4,1,1,80,1,0
109278,113.853072609797,4,1,1,80,1,0
109392,113.637439748482,4,1,1,80,1,0
109506,113.422622141986,4,1,1,80,1,0
109619,113.208615175615,4,1,1,80,1,0
109732,112.995414269438,4,1,1,80,1,0
109845,112.783014877959,4,1,1,80,1,0
109958,112.571412489798,4,1,1,80,1,0
110071,112.360602627365,4,1,1,80,1,0
110183,112.15058084655,4,1,1,80,1,0
110295,111.941342736406,4,1,1,80,1,0
110407,111.732883918845,4,1,1,80,1,0
110519,111.525200048328,4,1,1,80,1,0
110631,111.318286811566,4,1,1,80,1,0
110742,111.112139927222,4,1,1,80,1,0
110853,110.906755145611,4,1,1,80,1,0
110964,110.702128248416,4,1,1,80,1,0
111075,110.498255048389,4,1,1,80,1,0
111185,110.295131389075,4,1,1,80,1,0
111295,110.092753144524,4,1,1,80,1,0
111405,109.891116219013,4,1,1,80,1,0
111515,109.690216546769,4,1,1,80,1,0
111625,109.490050091698,4,1,1,80,1,0
111734,109.290612847112,4,1,1,90,1,0
111843,109.091900835462,4,1,1,90,1,0
111952,108.893910108077,4,1,1,90,1,0
112061,108.696636744898,4,1,1,90,1,0
112170,108.500076854221,4,1,1,90,1,0
112279,108.304226572442,4,1,1,90,1,0
112387,108.109082063802,4,1,1,90,1,0
112495,107.91463952014,4,1,1,90,1,0
112603,107.720895160639,4,1,1,90,1,0
112711,107.527845231588,4,1,1,90,1,0
112819,107.335486006136,4,1,1,90,1,0
112926,107.143813784052,4,1,1,90,1,0
113033,106.952824891487,4,1,1,90,1,0
113140,106.762515680744,4,1,1,90,1,0
113247,106.57288253004,4,1,1,90,1,0
113354,106.383921843279,4,1,1,90,1,0
113460,106.195630049823,4,1,0,90,1,0
113566,106.008003604272,4,1,0,90,1,0
113672,105.821038986234,4,1,0,90,1,0
113778,105.634732700112,4,1,0,90,1,0
113884,105.449081274879,4,1,0,90,1,0
113989,105.264081263871,4,1,0,90,1,0
114094,105.079729244564,4,1,0,90,1,0
114199,104.896021818373,4,1,0,90,1,0
114304,104.712041884817,4,1,0,100,1,1
114408,-100,4,1,1,100,0,0

[HitObjects]
128,304,9908,6,2,B|216:256|320:288,1,187.5,6|2,0:0|0:0,0:0:0:0:
309,285,10502,2,0,B|344:160,1,125,8|0,0:0|0:0,0:0:0:0:
368,80,11090,1,0,0:0:0:0:
144,80,11381,1,0,0:0:0:0:
184,88,11526,1,0,0:0:0:0:
224,80,11672,1,8,0:0:0:0:
96,160,11961,5,2,0:0:0:0:
96,160,12249,2,2,B|58:240|120:303|192:256,1,187.5
224,280,12821,2,0,B|352:280,1,125,8|2,0:0|0:0,0:0:0:0:
392,296,13245,1,0,0:0:0:0:
432,279,13387,2,2,B|480:173|399:93|307:154,1,250,2|10,0:0|0:0,0:0:0:0:
314,149,14225,1,0,0:0:0:0:
264,72,14503,6,2,B|72:112,1,187.5
8,96,15054,2,0,P|72:136|80:184,1,125,8|0,0:0|0:0,0:0:0:0:
32,344,15599,1,0,0:0:0:0:
112,288,15869,1,0,0:0:0:0:
144,208,16139,1,10,0:0:0:0:
144,208,16273,1,2,0:0:0:0:
144,208,16407,1,2,0:0:0:0:
224,240,16676,6,2,B|328:232|384:320,1,187.5
424,384,17207,2,0,B|440:248,1,125,8|0,0:0|0:0,0:0:0:0:
312,88,17733,2,2,B|208:80|152:168,1,187.5
112,232,18255,2,0,B|96:96,1,125,8|0,0:0|0:0,0:0:0:0:
64,312,18772,6,2,B|160:336|248:280,1,187.5
243,282,19285,2,0,B|368:328,1,125,8|0,0:0|0:0,0:0:0:0:
480,368,19793,5,0,0:0:0:0:
480,368,19919,1,2,0:0:0:0:
376,192,20297,1,10,0:0:0:0:
256,40,20547,1,2,0:0:0:0:
136,192,20797,2,2,B|-16:240|64:96,1,187.5
192,240,21292,2,0,L|176:368,1,125,8|0,0:0|0:0,0:0:0:0:
376,192,21784,2,2,B|528:240|448:96,1,187.5
320,240,22272,2,0,L|336:368,1,125,8|0,0:0|0:0,0:0:0:0:
368,64,22757,6,0,B|176:64,1,187.5,2|2,0:0|0:0,0:0:0:0:
112,72,23237,1,8,0:0:0:0:
48,192,23475,1,0,0:0:0:0:
88,328,23713,6,0,B|280:328,1,187.5,2|2,0:0|0:0,0:0:0:0:
344,320,24185,1,8,0:0:0:0:
408,200,24419,1,0,0:0:0:0:
368,64,24654,6,0,P|272:56|168:88,1,187.5,2|2,0:0|0:0,0:0:0:0:
120,120,25119,1,8,0:0:0:0:
400,168,25349,1,2,0:0:0:0:
120,232,25581,1,0,0:0:0:0:
120,232,25695,1,2,0:0:0:0:
120,232,25810,1,0,0:0:0:0:
400,280,26039,1,10,0:0:0:0:
120,328,26266,1,2,0:0:0:0:
64,88,26494,6,2,B|120:168|72:288,1,187.5,2|2,0:0|0:0,0:0:0:0:
56,336,26945,1,8,0:0:0:0:
464,96,27393,1,0,0:0:0:0:
448,192,27615,1,0,0:0:0:0:
448,192,27726,1,0,0:0:0:0:
448,192,27837,1,8,0:0:0:0:
456,288,28057,1,2,0:0:0:0:
384,256,28278,6,2,P|280:236|184:244,1,187.5
128,264,28716,1,8,0:0:0:0:
40,168,28933,1,2,0:0:0:0:
132,84,29150,2,2,B|256:44|380:84,1,250,2|10,0:0|0:0,0:0:0:0:
377,83,29797,1,0,0:0:0:0:
424,320,30011,6,2,B|480:240|432:136,1,187.5,2|2,0:0|0:0,0:0:0:0:
434,141,30437,1,8,0:0:0:0:
256,192,30649,1,0,0:0:0:0:
80,248,30861,2,0,P|64:184|72:120,1,125
200,312,31281,5,10,0:0:0:0:
200,312,31385,1,2,0:0:0:0:
200,312,31489,1,2,0:0:0:0:
200,312,31698,6,2,B|272:240|376:272,1,187.5
372,271,32111,2,0,B|432:160,1,125,8|0,0:0|0:0,0:0:0:0:
312,72,32523,6,2,B|240:144|136:112,1,187.5
139,112,32931,2,0,B|80:224,1,125,8|0,0:0|0:0,0:0:0:0:
139,112,33336,6,2,B|240:104|304:200,1,187.5
298,192,33739,1,8,0:0:0:0:
80,320,34139,5,0,0:0:0:0:
136,280,34238,1,2,0:0:0:0:
204,288,34337,1,0,0:0:0:0:
432,232,34536,1,10,0:0:0:0:
432,232,34733,1,2,0:0:0:0:
472,96,34931,6,2,B|280:72,1,187.5
216,88,35323,2,0,B|80:96,1,125,8|0,0:0|0:0,0:0:0:0:
40,320,35713,6,2,B|232:304,1,187.5
296,320,36100,1,8,0:0:0:0:
360,296,36196,1,0,0:0:0:0:
424,328,36292,1,0,0:0:0:0:
472,104,36484,6,0,B|384:136|384:136|280:120,1,187.5,2|2,0:0|0:0,0:0:0:0:
256,96,36867,2,0,B|163:81|163:81|75:113,1,187.5,10|2,0:0|0:0,0:0:0:0:
96,72,37247,6,0,B|110:164|110:164|78:252,1,187.5,2|2,0:0|0:0,0:0:0:0:
40,232,37624,2,0,B|168:216,1,125,10|0,0:0|0:0,0:0:0:0:
232,204,37906,1,2,0:0:0:0:
232,204,37999,6,0,B|344:176|392:288,1,187.5,2|2,0:0|0:0,0:0:0:0:
440,232,38371,2,0,B|384:112,1,125,10|0,0:0|0:0,0:0:0:0:
352,56,38649,1,2,0:0:0:0:
312,64,38742,5,10,0:0:0:0:
272,56,38834,1,8,0:0:0:0:
240,64,38926,1,8,0:0:0:0:
200,56,39018,1,2,0:0:0:0:
160,64,39110,1,10,0:0:0:0:
120,56,39201,1,0,0:0:0:0:
80,64,39292,1,8,0:0:0:0:
40,56,39384,1,10,0:0:0:0:
0,64,39475,1,4,0:0:0:0:
8,192,39657,6,0,B|144:192|240:288,1,250
312,384,40201,2,0,B|432:336,2,125,0|0|8,0:0|0:0|0:0,0:0:0:0:
456,224,40738,1,0,0:0:0:0:
456,224,40917,6,0,B|320:224|224:128,1,250,0|8,0:0|0:0,0:0:0:0:
152,40,41448,1,0,0:0:0:0:
152,40,41536,1,0,0:0:0:0:
152,40,41624,2,0,B|72:72|16:184,2,187.5
272,64,42324,5,0,0:0:0:0:
320,176,42498,1,0,0:0:0:0:
320,176,42585,1,0,0:0:0:0:
320,176,42671,2,0,B|264:144|192:152,1,125,8|0,0:0|0:0,0:0:0:0:
272,256,43017,2,0,B|383:319|512:305,1,250,0|8,0:0|0:0,0:0:0:0:
176,264,43530,1,0,0:0:0:0:
176,264,43701,2,0,B|48:272,2,125,0|0|8,0:0|0:0|0:0,0:0:0:0:
464,48,44377,6,0,B|384:104|272:80,1,187.5
216,64,44712,2,0,B|88:72,1,125,8|0,0:0|0:0,0:0:0:0:
91,71,45045,1,0,0:0:0:0:
91,71,45210,6,0,B|120:136|88:192,1,125,0|8,0:0|0:0,0:0:0:0:
192,280,45541,1,0,0:0:0:0:
192,280,45706,2,0,B|163:215|195:159,1,125,0|0,0:0|0:0,0:0:0:0:
264,224,46035,1,8,0:0:0:0:
389,224,46198,2,0,B|264:224,1,125
389,224,46523,1,0,0:0:0:0:
389,224,46604,1,0,0:0:0:0:
389,224,46685,2,0,B|416:160|384:104,1,125,8|0,0:0|0:0,0:0:0:0:
496,40,47008,2,0,B|384:112|248:80,1,250,0|8,0:0|0:0,0:0:0:0:
136,48,47488,1,0,0:0:0:0:
32,120,47648,5,0,0:0:0:0:
72,240,47806,1,0,0:0:0:0:
72,240,47886,1,0,0:0:0:0:
72,240,47965,1,8,0:0:0:0:
32,120,48121,1,0,0:0:0:0:
152,152,48281,1,0,0:0:0:0:
200,272,48438,1,0,0:0:0:0:
200,272,48595,2,0,B|320:304,1,125,8|0,0:0|0:0,0:0:0:0:
440,336,48908,1,0,0:0:0:0:
488,216,49063,1,0,0:0:0:0:
440,336,49218,1,8,0:0:0:0:
392,216,49373,1,0,0:0:0:0:
392,216,49450,1,0,0:0:0:0:
392,216,49528,2,0,B|312:152|352:48,1,187.5
352,47,49836,2,0,B|224:64,1,125,8|0,0:0|0:0,0:0:0:0:
0,96,50142,5,4,0:0:0:0:
136,76,50294,2,0,B|172:132|148:196,1,125,0|8,0:0|0:0,0:0:0:0:
88,320,50598,1,0,0:0:0:0:
148,195,50750,2,0,B|224:200|240:272,1,125
376,256,51052,1,12,0:0:0:0:
376,256,51202,2,0,B|300:251|284:179,1,125
272,48,51501,1,0,0:0:0:0:
285,184,51650,2,0,B|376:80,1,125,8|0,0:0|0:0,0:0:0:0:
285,184,51948,2,0,B|152:160|72:296,1,250,0|8,0:0|0:0,0:0:0:0:
76,288,52391,1,0,0:0:0:0:
76,288,52538,1,0,0:0:0:0:
32,48,52684,5,0,0:0:0:0:
32,48,52757,1,0,0:0:0:0:
32,48,52830,1,8,0:0:0:0:
128,144,52976,1,0,0:0:0:0:
128,144,53122,2,0,B|224:88|328:116|368:160,1,250,0|8,0:0|0:0,0:0:0:0:
362,154,53556,2,0,B|472:88,1,125
368,320,53843,1,0,0:0:0:0:
368,320,53987,2,0,B|258:253,1,125,8|0,0:0|0:0,0:0:0:0:
261,255,54273,2,0,B|192:328|80:304,1,187.5
89,305,54557,2,0,B|-32:344,2,125,8|0|0,0:0|0:0|0:0,0:0:0:0:
144,176,54980,6,0,B|112:120|144:56,1,125,0|8,0:0|0:0,0:0:0:0:
248,112,55262,1,0,0:0:0:0:
248,112,55402,2,0,B|316:108|376:128|420:176|432:256,1,250,0|8,0:0|0:0,0:0:0:0:
447,366,55819,2,0,B|416:312|430:245,1,125
312,320,56097,1,0,0:0:0:0:
312,320,56166,1,0,0:0:0:0:
312,320,56235,2,0,B|184:312,1,125,8|0,0:0|0:0,0:0:0:0:
62,303,56511,2,0,B|187:312,1,125
192,176,56785,1,8,0:0:0:0:
196,44,56921,1,0,0:0:0:0:
192,176,57058,6,0,B|128:160|104:88,1,125
192,176,57329,1,8,0:0:0:0:
272,128,57464,6,0,B|338:105|354:41,1,125
480,96,57733,1,0,0:0:0:0:
354,41,57868,2,0,B|288:64|272:128,1,125,8|0,0:0|0:0,0:0:0:0:
320,208,58136,5,0,0:0:0:0:
320,208,58268,2,0,B|384:224|406:290,1,125,0|8,0:0|0:0,0:0:0:0:
240,256,58535,5,0,0:0:0:0:
240,256,58602,1,0,0:0:0:0:
240,256,58668,2,0,B|224:320|152:344,1,125,4|0,0:0|0:0,0:0:0:0:
157,342,58866,1,0,0:0:0:0:
157,341,58932,2,0,B|173:278|240:256,1,125,4|0,0:0|0:0,0:0:0:0:
64,312,59195,6,2,B|24:56,1,250,6|10,0:0|0:0,0:0:0:0:
448,80,59717,2,0,B|392:112|328:104,1,125,0|2,0:0|0:0,0:0:0:0:
240,216,59978,2,0,B|296:184|360:192,1,125,0|2,0:0|0:0,0:0:0:0:
296,312,60236,2,0,B|184:376|48:352,3,250,2|10|2|2,0:0|0:0|0:0|0:0,0:0:0:0:
400,336,61260,6,2,B|464:96,1,250,2|10,0:0|0:0,0:0:0:0:
80,48,61765,1,0,0:0:0:0:
208,88,61890,1,2,0:0:0:0:
200,224,62016,1,0,0:0:0:0:
72,184,62141,1,2,0:0:0:0:
200,224,62266,5,2,0:0:0:0:
336,200,62390,1,2,0:0:0:0:
440,288,62514,1,10,0:0:0:0:
440,288,62762,1,6,0:0:0:0:
48,336,63255,6,2,B|304:320,1,250,6|10,0:0|0:0,0:0:0:0:
432,80,63744,2,0,B|376:48|304:72,1,125,0|2,0:0|0:0,0:0:0:0:
184,96,63988,2,0,B|120:120|56:96,1,125,0|2,0:0|0:0,0:0:0:0:
136,200,64230,2,0,B|264:168|376:248,3,250,2|10|2|2,0:0|0:0|0:0|0:0,0:0:0:0:
136,200,65188,6,2,B|264:232|376:152,1,250,2|10,0:0|0:0,0:0:0:0:
176,312,65661,1,0,0:0:0:0:
56,288,65778,1,2,0:0:0:0:
136,200,65896,1,0,0:0:0:0:
96,88,66014,1,2,0:0:0:0:
216,112,66130,5,2,0:0:0:0:
416,144,66246,1,2,0:0:0:0:
239,232,66363,1,10,0:0:0:0:
328,56,66479,1,2,0:0:0:0:
360,256,66595,1,6,0:0:0:0:
360,256,66828,1,8,0:0:0:0:
24,328,67059,6,2,B|96:208|0:80,1,250,6|10,0:0|0:0,0:0:0:0:
456,56,67518,1,0,0:0:0:0:
456,56,67632,2,2,B|384:176|480:304,1,250
352,264,67973,2,0,B|216:224|104:296,1,250,2|10,0:0|0:0,0:0:0:0:
120,120,68424,2,0,B|256:160|368:88,1,250,2|2,0:0|0:0,0:0:0:0:
360,92,68873,5,2,0:0:0:0:
40,56,69097,2,0,B|112:176|40:292,1,250,10|0,0:0|0:0,0:0:0:0:
40,292,69430,2,0,B|159:220|275:293,1,250,2|2,0:0|0:0,0:0:0:0:
376,368,69761,1,2,0:0:0:0:
472,296,69870,1,2,0:0:0:0:
472,176,69980,1,10,0:0:0:0:
17,104,70200,2,0,B|264:144,1,250,6|8,0:0|0:0,0:0:0:0:
488,32,70635,6,2,B|240:64,1,250,6|10,0:0|0:0,0:0:0:0:
280,312,71068,1,0,0:0:0:0:
264,192,71175,1,2,0:0:0:0:
136,208,71283,1,0,0:0:0:0:
152,328,71390,1,2,0:0:0:0:
280,312,71497,5,2,0:0:0:0:
334,67,71710,1,10,0:0:0:0:
89,11,71923,1,2,0:0:0:0:
34,256,72136,1,2,0:0:0:0:
280,312,72347,5,2,0:0:0:0:
416,112,72558,2,0,B|392:248|280:312,1,250,10|0,0:0|0:0,0:0:0:0:
176,240,72872,2,0,B|200:104|312:40,1,250,2|2,0:0|0:0,0:0:0:0:
168,72,73185,5,6,0:0:0:0:
98,196,73288,1,2,0:0:0:0:
40,84,73392,1,10,0:0:0:0:
226,184,73496,1,2,0:0:0:0:
384,64,73599,5,6,0:0:0:0:
448,268,73703,1,2,0:0:0:0:
512,128,73806,1,10,0:0:0:0:
320,208,73908,1,2,0:0:0:0:
256,384,74011,5,4,0:0:0:0:
256,384,74216,1,8,0:0:0:0:
256,384,74420,1,0,0:0:0:0:
256,384,74623,1,8,0:0:0:0:
256,384,74825,1,0,0:0:0:0:
256,384,75028,1,8,0:0:0:0:
256,384,75229,1,0,0:0:0:0:
256,384,75429,1,12,0:0:0:0:
256,384,75630,1,0,0:0:0:0:
256,384,75829,1,8,0:0:0:0:
256,384,76027,1,0,0:0:0:0:
256,384,76226,1,10,0:0:0:0:
256,384,76423,2,2,B|224:136,1,250,2|8,0:0|0:0,0:0:0:0:
168,80,76718,2,2,P|168:192|281:192,1,250,2|0,0:0|0:0,0:0:0:0:
300,112,77011,1,10,0:0:0:0:
16,48,77206,5,2,0:0:0:0:
64,56,77400,1,8,0:0:0:0:
112,48,77593,1,0,0:0:0:0:
160,56,77787,1,8,0:0:0:0:
208,48,77979,1,0,0:0:0:0:
256,56,78170,1,8,0:0:0:0:
304,48,78362,1,0,0:0:0:0:
352,56,78552,1,8,0:0:0:0:
400,48,78741,1,0,0:0:0:0:
448,56,78931,1,8,0:0:0:0:
496,48,79120,1,0,0:0:0:0:
496,48,79308,1,10,0:0:0:0:
393,328,79496,6,2,B|137:292,1,250,2|10,0:0|0:0,0:0:0:0:
63,198,79776,2,2,B|311:231,1,250
435,248,80055,1,10,0:0:0:0:
152,64,80240,5,2,0:0:0:0:
48,104,80424,1,8,0:0:0:0:
80,32,80609,1,0,0:0:0:0:
120,136,80791,1,8,0:0:0:0:
256,72,80975,1,0,0:0:0:0:
256,184,81157,1,8,0:0:0:0:
312,128,81339,1,0,0:0:0:0:
200,128,81520,1,8,0:0:0:0:
392,136,81701,1,0,0:0:0:0:
432,32,81881,1,8,0:0:0:0:
360,64,82061,1,0,0:0:0:0:
464,104,82240,1,10,0:0:0:0:
432,208,82419,6,0,B|312:192|208:344|80:320,2,375,2|10|2,0:0|0:0|0:0,0:0:0:0:
360,312,83128,5,2,0:0:0:0:
288,248,83303,1,8,0:0:0:0:
200,200,83479,1,0,0:0:0:0:
104,184,83653,1,8,0:0:0:0:
200,200,83828,5,0,0:0:0:0:
296,184,84002,1,8,0:0:0:0:
384,136,84175,1,0,0:0:0:0:
456,72,84348,1,8,0:0:0:0:
384,136,84520,5,0,0:0:0:0:
384,136,84605,1,0,0:0:0:0:
384,136,84691,1,8,0:0:0:0:
288,120,84863,1,0,0:0:0:0:
288,120,84948,1,0,0:0:0:0:
288,120,85033,1,10,0:0:0:0:
200,72,85204,1,2,0:0:0:0:
200,72,85288,1,2,0:0:0:0:
200,72,85373,1,10,0:0:0:0:
200,72,85458,1,2,0:0:0:0:
128,8,85627,1,2,0:0:0:0:
128,8,85712,1,10,0:0:0:0:
48,72,85881,5,6,0:0:0:0:
48,72,85965,1,0,0:0:0:0:
48,72,86049,1,0,0:0:0:0:
16,320,86216,2,0,B|120:240|256:256,1,250,10|0,0:0|0:0,0:0:0:0:
496,344,86551,1,0,0:0:0:0:
424,104,86717,1,2,0:0:0:0:
424,104,86799,1,0,0:0:0:0:
424,104,86883,2,0,B|320:184|184:152,1,250,8|0,0:0|0:0,0:0:0:0:
16,32,87213,5,2,0:0:0:0:
16,32,87295,1,0,0:0:0:0:
16,32,87377,1,0,0:0:0:0:
152,296,87539,1,8,0:0:0:0:
320,48,87703,1,2,0:0:0:0:
480,304,87867,2,0,B|384:288|384:288|208:208|208:208|112:192,2,375,6|6|6,0:0|0:0|0:0,0:0:0:0:
56,328,88515,5,6,0:0:0:0:
56,328,88595,1,0,0:0:0:0:
56,328,88675,1,0,0:0:0:0:
105,89,88836,2,2,B|128:224|56:328,1,250,10|0,0:0|0:0,0:0:0:0:
406,294,89155,1,0,0:0:0:0:
456,56,89316,2,2,B|384:160|407:295,1,250,2|8,0:0|0:0,0:0:0:0:
276,42,89632,1,0,0:0:0:0:
440,224,89789,6,2,B|324:162|276:42,1,250,2|0,0:0|0:0,0:0:0:0:
71,159,90104,2,0,B|187:221|235:341,1,250,8|2,0:0|0:0,0:0:0:0:
304,256,90417,5,6,0:0:0:0:
308,132,90494,1,2,0:0:0:0:
384,232,90572,1,6,0:0:0:0:
260,192,90650,1,2,0:0:0:0:
380,156,90728,1,14,0:0:0:0:
136,152,90883,1,6,0:0:0:0:
16,376,91038,5,6,0:0:0:0:
16,376,91115,1,0,0:0:0:0:
16,376,91192,1,0,0:0:0:0:
32,128,91346,2,2,B|168:160|264:56,1,250,10|0,0:0|0:0,0:0:0:0:
32,128,91652,1,0,0:0:0:0:
480,256,91804,2,2,B|344:224|248:328,1,250,2|8,0:0|0:0,0:0:0:0:
480,256,92110,1,0,0:0:0:0:
124,156,92261,6,2,B|223:248|192:384,1,250,2|0,0:0|0:0,0:0:0:0:
387,227,92562,2,0,B|288:135|320:0,1,250,8|6,0:0|0:0,0:0:0:0:
48,304,92863,1,6,0:0:0:0:
464,80,93087,1,6,0:0:0:0:
256,192,93311,1,6,0:0:0:0:
40,64,93460,6,2,B|296:72,1,250,6|0,0:0|0:0,0:0:0:0:
472,320,93756,2,0,B|216:312,2,250,10|0|0,0:0|0:0|0:0,0:0:0:0:
16,136,94197,2,0,B|136:224|112:352,2,250,2|8|0,0:0|0:0|0:0,0:0:0:0:
495,247,94634,2,0,B|376:160|400:32,2,250,2|0|8,0:0|0:0|0:0,0:0:0:0:
0,288,95070,5,2,0:0:0:0:
384,144,95214,1,6,0:0:0:0:
128,240,95359,1,6,0:0:0:0:
512,96,95502,1,2,0:0:0:0:
256,192,95646,1,6,0:0:0:0:
416,288,95788,5,6,0:0:0:0:
96,96,95931,1,2,0:0:0:0:
160,352,96073,1,10,0:0:0:0:
352,32,96216,1,2,0:0:0:0:
92,282,96498,5,2,0:0:0:0:
346,355,96638,1,8,0:0:0:0:
419,101,96779,1,2,0:0:0:0:
165,28,96920,1,6,0:0:0:0:
346,355,97060,1,2,0:0:0:0:
419,101,97199,1,10,0:0:0:0:
92,282,97339,1,2,0:0:0:0:
464,256,97616,5,6,0:0:0:0:
48,128,97755,1,14,0:0:0:0:
248,96,98030,5,6,0:0:0:0:
264,288,98169,1,2,0:0:0:0:
32,216,98304,1,10,0:0:0:0:
480,168,98442,1,2,0:0:0:0:
132,176,98714,6,0,B|256:192|376:240,2,250,2|8|2,0:0|0:0|0:0,0:0:0:0:
352,304,99120,6,2,B|352:160|456:88,1,250,6|2,0:0|0:0,0:0:0:0:
160,80,99389,2,2,B|160:224|56:296,1,250,10|2,0:0|0:0,0:0:0:0:
448,32,99658,1,6,0:0:0:0:
224,192,99791,1,2,0:0:0:0:
512,384,99925,1,14,0:0:0:0:
80,96,100190,5,6,0:0:0:0:
328,144,100323,1,2,0:0:0:0:
184,240,100455,1,10,0:0:0:0:
432,288,100588,1,2,0:0:0:0:
80,96,100850,2,0,B|24:344,2,250,2|8|2,0:0|0:0|0:0,0:0:0:0:
384,56,101242,5,6,0:0:0:0:
128,216,101372,1,2,0:0:0:0:
392,360,101501,1,10,0:0:0:0:
128,216,101631,1,2,0:0:0:0:
464,128,101890,5,6,0:0:0:0:
48,256,102018,1,14,0:0:0:0:
384,128,102275,6,2,B|336:256|465:346,1,250,6|2,0:0|0:0,0:0:0:0:
128,256,102530,2,2,B|160:119|46:38,1,250,10|2,0:0|0:0,0:0:0:0:
288,288,102911,2,0,B|209:51,2,250,2|8|2,0:0|0:0|0:0,0:0:0:0:
112,80,103291,5,6,0:0:0:0:
184,320,103417,1,2,0:0:0:0:
448,128,103543,5,14,0:0:0:0:
376,368,103668,1,6,0:0:0:0:
96,288,103793,5,6,0:0:0:0:
304,40,103917,1,2,0:0:0:0:
512,352,104042,1,14,0:0:0:0:
160,16,104289,5,6,0:0:0:0:
160,16,104351,1,0,0:0:0:0:
160,16,104413,1,6,0:0:0:0:
32,352,104537,2,2,B|134:243|78:123,1,250,10|2,0:0|0:0,0:0:0:0:
434,261,104905,6,0,B|379:142|480:32,2,250,2|8|2,0:0|0:0|0:0,0:0:0:0:
296,96,105272,5,6,0:0:0:0:
216,288,105393,1,2,0:0:0:0:
144,48,105515,1,10,0:0:0:0:
368,336,105636,1,2,0:0:0:0:
368,336,105696,1,0,0:0:0:0:
368,336,105756,1,4,0:0:0:0:
64,312,105878,5,6,0:0:0:0:
448,72,105998,1,14,0:0:0:0:
64,144,106238,5,6,0:0:0:0:
64,144,106297,1,4,0:0:0:0:
64,144,106357,1,6,0:0:0:0:
496,192,106477,2,2,B|400:160|336:256|240:240,1,250,10|2,0:0|0:0,0:0:0:0:
16,112,106834,6,2,B|104:96|168:184|264:160,2,250,2|10|0,0:0|0:0|0:0,0:0:0:0:
136,312,107190,5,6,0:0:0:0:
136,312,107248,1,0,0:0:0:0:
136,312,107307,1,2,0:0:0:0:
88,40,107425,1,10,0:0:0:0:
320,352,107543,5,2,0:0:0:0:
416,0,107660,1,6,0:0:0:0:
416,0,107718,1,0,0:0:0:0:
416,0,107777,1,6,0:0:0:0:
416,0,107835,1,0,0:0:0:0:
416,0,107893,1,10,0:0:0:0:
272,368,108127,5,6,0:0:0:0:
272,368,108185,1,0,0:0:0:0:
272,368,108243,1,2,0:0:0:0:
312,96,108358,2,2,B|448:136|480:272,1,250,10|2,0:0|0:0,0:0:0:0:
200,288,108705,6,2,B|64:248|33:118,2,250,2|8|2,0:0|0:0|0:0,0:0:0:0:
256,192,109050,5,6,0:0:0:0:
256,192,109107,1,0,0:0:0:0:
256,192,109164,1,6,0:0:0:0:
28,164,109278,5,10,0:0:0:0:
484,220,109392,2,2,B|408:320|264:344,1,250,2|0,0:0|0:0,0:0:0:0:
28,164,109619,5,6,0:0:0:0:
239,41,109732,1,14,0:0:0:0:
288,384,109957,5,6,0:0:0:0:
288,384,110014,1,0,0:0:0:0:
288,384,110071,1,6,0:0:0:0:
32,336,110183,2,2,B|176:304|184:160,1,250,10|2,0:0|0:0,0:0:0:0:
480,48,110518,6,0,B|336:80|328:224,2,250,2|8|2,0:0|0:0|0:0,0:0:0:0:
0,160,110853,5,6,0:0:0:0:
0,160,110908,1,0,0:0:0:0:
0,160,110963,1,2,0:0:0:0:
480,384,111075,5,14,0:0:0:0:
480,384,111130,1,0,0:0:0:0:
480,384,111185,1,2,0:0:0:0:
264,64,111295,5,6,0:0:0:0:
260,56,111350,1,0,0:0:0:0:
256,48,111405,1,6,0:0:0:0:
252,40,111459,1,0,0:0:0:0:
248,32,111514,1,14,0:0:0:0:
192,224,111733,5,6,0:0:0:0:
192,224,111788,1,0,0:0:0:0:
192,224,111842,1,2,0:0:0:0:
144,80,111952,5,10,0:0:0:0:
0,256,112061,1,2,0:0:0:0:
224,384,112169,1,6,0:0:0:0:
256,136,112603,5,6,0:0:0:0:
256,136,112656,1,0,0:0:0:0:
256,136,112710,1,2,0:0:0:0:
512,320,112818,5,10,0:0:0:0:
512,320,112872,1,0,0:0:0:0:
512,320,112926,1,2,0:0:0:0:
512,320,112979,1,0,0:0:0:0:
512,320,113033,1,6,0:0:0:0:
264,0,113460,5,6,0:0:0:0:
264,0,113513,1,0,0:0:0:0:
264,0,113566,1,2,0:0:0:0:
248,384,113672,5,14,0:0:0:0:
248,384,113725,1,0,0:0:0:0:
248,384,113778,1,2,0:0:0:0:
0,256,113884,5,6,0:0:0:0:
512,128,113989,1,2,0:0:0:0:
0,128,114094,5,2,0:0:0:0:
512,256,114199,1,2,0:0:0:0:
256,192,114304,5,4,0:0:0:0:
