osu file format v14

[General]
AudioFilename: audio.mp3
AudioLeadIn: 0
PreviewTime: 50079
Countdown: 0
SampleSet: Soft
StackLeniency: 0.5
Mode: 0
LetterboxInBreaks: 0
WidescreenStoryboard: 1

[Editor]
DistanceSpacing: 0.8
BeatDivisor: 4
GridSize: 32
TimelineZoom: 2.3

[Metadata]
Title:deltaMAX
TitleUnicode:ΔMAX
Artist:DM Ashura
ArtistUnicode:DM Ashura
Creator:Shmiklak
Version:SCHOOLBOY'S EXPERT
Source:DanceDanceRevolution UNIVERSE3
Tags:marvollo m_a_r_v_o_l_l_o schoolboy komore zadknus aphestra daycore -mikan bazz b bazz_b delette maruoko gordon123 electronic instrumental video game stepmania how fast can you go DDR Forever nm sequence unlimited naoki maeda
BeatmapID:2803275
BeatmapSetID:1352978

[Difficulty]
HPDrainRate:5.5
CircleSize:3.8
OverallDifficulty:8.6
ApproachRate:9.5
SliderMultiplier:1.6
SliderTickRate:1

[Events]
//Background and Video events
Video,350,"deltaMAX.avi"
0,0,"bg.jpg",0,0
//Break Periods
//Storyboard Layer 0 (Background)
//Storyboard Layer 1 (Fail)
//Storyboard Layer 2 (Pass)
//Storyboard Layer 3 (Foreground)
//Storyboard Layer 4 (Overlay)
//Storyboard Sound Samples

[TimingPoints]
322,600,4,2,1,50,1,0
9922,594.088816278034,4,2,1,75,1,0
10516,588.264130594637,4,2,1,75,1,0
11104,582.552551094713,4,2,1,75,1,0
11687,576.950814943026,4,2,1,75,1,0
12264,571.455783608743,4,2,1,75,1,0
12835,566.064437001745,4,2,1,75,1,0
13401,560.773867937754,4,2,1,75,1,0
13962,555.581276910968,4,2,1,75,1,0
14518,550.483967154457,4,2,1,75,1,0
15068,545.479339969999,4,2,1,75,1,0
15613,540.564890310374,4,2,1,75,1,0
16154,535.73820259833,4,2,1,75,1,0
16690,530.996946767556,4,2,1,75,1,0
17221,526.33887451204,4,2,1,75,1,0
17747,521.761815731119,4,2,1,75,1,0
18269,517.263675158412,4,2,1,75,1,0
18786,512.84242916364,4,2,1,75,1,0
19299,508.496122717064,4,2,1,75,1,0
19807,504.222866506996,4,2,1,75,1,0
20311,500.020834201425,4,2,1,75,1,0
20811,495.888259845448,4,2,1,75,1,0
21307,491.823435386696,4,2,1,75,1,0
21799,487.824708321476,4,2,1,75,1,0
22287,483.890479454817,4,2,1,75,1,0
22771,480.019200768031,4,2,1,75,1,0
23251,476.209373387833,4,2,1,75,1,0
23727,472.459545651404,4,2,1,75,1,0
24199,468.768311262159,4,2,1,75,1,0
24668,465.1343075313,4,2,1,75,1,0
25133,461.556213700527,4,2,1,75,1,0
25595,458.032749341578,4,2,1,75,1,0
26053,454.562672828516,4,2,1,75,1,0
26508,451.144779878943,4,2,1,75,1,0
26959,447.777902160528,4,2,1,75,1,0
27407,444.46090595948,4,2,1,75,1,0
27851,441.192690907754,4,2,1,75,1,0
28292,437.972188766013,4,2,1,75,1,0
28730,434.798362259502,4,2,1,75,1,0
29165,431.670203964171,4,2,1,75,1,0
29597,428.586735240544,4,2,1,75,1,0
30026,425.547005212951,4,2,1,75,1,0
30452,422.550089791894,4,2,1,75,1,0
30875,419.595090737438,4,2,1,75,1,0
31295,416.681134761624,4,2,1,75,1,0
31712,413.807372668023,4,2,1,75,1,0
32126,410.972978526662,4,2,1,75,1,0
32537,408.177148882615,4,2,1,75,1,0
32945,405.419101996689,4,2,1,75,1,0
33350,402.698077116682,4,2,1,75,1,0
33753,400.013333777793,4,2,1,75,1,0
34153,397.364151130832,4,2,1,75,1,0
34550,394.749827296951,4,2,1,75,1,0
34945,392.169678747671,4,2,1,75,1,0
35337,389.623039709081,4,2,1,75,1,0
35727,387.109261589084,4,2,1,75,1,0
36114,384.62771242668,4,2,1,75,1,0
36499,382.177776362305,4,2,1,75,1,0
36881,379.758853128264,4,2,1,75,1,0
37261,377.370357558414,4,2,1,75,1,0
37638,375.011719116222,4,2,1,75,1,0
38013,372.682381440417,4,2,1,75,1,0
38386,370.381801907466,4,2,1,75,1,0
38756,368.10945121016,4,2,1,75,1,0
39124,365.864812951614,4,2,1,75,1,0
39490,363.647383254038,4,2,1,80,1,0
39854,361.456670381638,4,2,1,80,1,0
40215,359.292194377077,4,2,1,80,1,0
40574,357.153486710914,4,2,1,80,1,0
40931,355.040089943489,4,2,1,80,1,0
41286,352.951557398747,4,2,1,80,1,0
41639,350.887452849499,4,2,1,80,1,0
41990,348.847350213669,4,2,1,80,1,0
42339,346.830833261077,4,2,1,80,1,0
42686,344.837495330326,4,2,1,80,1,0
43031,342.866939055402,4,2,1,80,1,0
43374,340.918776101594,4,2,1,80,1,0
43715,338.992626910365,4,2,1,80,1,0
44054,337.088120452822,4,2,1,80,1,0
44391,335.204893991452,4,2,1,80,1,0
44726,333.342592849801,4,2,1,80,1,0
45059,331.500870189784,4,2,1,80,1,0
45391,329.679386796341,4,2,1,80,1,0
45721,327.877810869149,4,2,1,80,1,0
46049,326.095817821136,4,2,1,80,1,0
46375,324.333090083516,4,2,1,80,1,0
46699,322.589316917121,4,2,1,80,1,0
47022,320.864194229792,4,2,1,80,1,0
47343,319.157424399585,4,2,1,80,1,0
47662,317.468716103601,4,2,1,80,1,0
47979,315.797784152215,4,2,1,80,1,0
48295,314.144349328516,4,2,1,80,1,0
48609,312.508138232766,4,2,1,80,1,0
48922,310.888883131687,4,2,1,80,1,0
49233,309.286321812418,4,2,1,80,1,0
49542,307.70019744096,4,2,1,80,1,0
49850,306.13025842496,4,2,1,80,1,0
50156,304.576258280667,4,2,1,90,1,1
50461,303.037955503927,4,2,1,90,1,1
50764,301.515113445061,4,2,1,90,1,1
51066,300.007500187505,4,2,1,90,1,1
51366,298.51488843006,4,2,1,90,1,1
51665,297.037055372658,4,2,1,90,1,1
51962,295.573782605483,4,2,1,90,1,1
52258,294.124856001373,4,2,1,90,1,1
52552,292.690065611356,4,2,1,90,1,1
52845,291.269205563242,4,2,1,90,1,1
53136,289.862073963139,4,2,1,90,1,1
53426,288.468472799827,4,2,1,90,1,1
53714,287.088207851862,4,2,1,90,1,1
54001,285.721088597348,4,2,1,90,1,1
54287,284.366928126259,4,2,1,90,1,1
54571,283.025543055261,4,2,1,90,1,1
54854,281.696753444917,4,2,1,90,1,1
55136,280.380382719222,4,2,1,90,1,1
55416,279.076257587386,4,2,1,90,1,1
55695,277.784207967777,4,2,1,90,1,1
55973,276.504066913984,4,2,1,90,1,1
56250,275.235670542902,4,2,1,90,1,1
56525,273.978857964794,4,2,1,90,1,1
56799,272.733471215255,4,2,1,90,1,1
57072,271.499355189031,4,2,1,90,1,1
57343,270.276357575621,4,2,1,90,1,1
57613,269.06432879661,4,2,1,90,1,1
57882,267.863121944686,4,2,1,90,1,1
58150,266.672592724283,4,2,1,90,1,1
58417,265.492599393792,4,2,1,90,1,1
58682,264.323002709311,4,2,1,90,1,1
58946,263.163665869866,4,2,1,90,1,1
59209,262.014454464071,4,2,1,80,1,0
59471,260.875236418183,4,2,1,80,1,0
59732,259.745881945497,4,2,1,80,1,0
59992,258.626263497058,4,2,1,80,1,0
60251,257.516255713642,4,2,1,80,1,0
60509,256.415735378961,4,2,1,80,1,0
60765,255.324581374072,4,2,1,80,1,0
61020,254.242674632937,4,2,1,80,1,0
61274,253.169898099116,4,2,1,80,1,0
61527,252.106136683544,4,2,1,80,1,0
61779,251.051277223373,4,2,1,80,1,0
62030,250.005208441843,4,2,1,80,1,0
62280,248.967820909147,4,2,1,80,1,0
62529,247.939007004277,4,2,1,80,1,0
62776,246.918660877796,4,2,1,80,1,0
63024,245.906678415541,4,2,1,80,1,0
63270,244.902957203208,4,2,1,80,1,0
63515,243.907396491799,4,2,1,80,1,0
63759,242.91989716391,4,2,1,80,1,0
64002,241.940361700841,4,2,1,80,1,0
64244,240.968694150485,4,2,1,80,1,0
64485,240.004800096002,4,2,1,80,1,0
64725,239.048586625232,4,2,1,80,1,0
64964,238.099962300839,4,2,1,80,1,0
65202,237.158837131169,4,2,1,80,1,0
65439,236.225122541782,4,2,1,80,1,0
65675,235.298731347673,4,2,1,80,1,0
65910,234.379577726127,4,2,1,80,1,0
66144,233.467577190218,4,2,1,80,1,0
66377,232.562646562918,4,2,1,80,1,0
66609,231.664703951814,4,2,1,80,1,0
66842,230.773668724399,4,2,1,80,1,0
67073,229.889461483936,4,2,1,80,1,0
67303,229.012004045879,4,2,1,80,1,0
67532,228.141219414818,4,2,1,80,1,0
67760,227.277031761965,4,2,1,80,1,0
67987,226.41936640314,4,2,1,80,1,0
68213,225.568149777251,4,2,1,80,1,0
68439,224.72330942527,4,2,1,80,1,0
68664,223.884773969664,4,2,1,80,1,0
68888,223.052473094295,4,2,1,80,1,0
69111,222.226337524769,4,2,1,80,1,0
69333,221.406299009207,4,2,1,80,1,0
69554,220.592290299454,4,2,1,80,1,0
69775,219.784245132695,4,2,1,80,1,0
69995,218.982098213471,4,2,1,80,1,0
70214,218.185785196094,4,2,1,80,1,0
70432,217.39524266744,4,2,1,80,1,0
70649,216.610408130111,4,2,1,80,1,0
70866,215.831219985971,4,2,1,80,1,0
71082,215.057617520027,4,2,1,80,1,0
71297,214.289540884659,4,2,1,80,1,0
71511,213.526931084183,4,2,1,80,1,0
71725,212.769729959751,4,2,1,80,1,0
71938,212.017880174561,4,2,1,80,1,0
72150,211.271325199387,4,2,1,80,1,0
72361,210.530009298409,4,2,1,80,1,0
72572,209.793877515341,4,2,1,80,1,0
72782,209.062875659855,4,2,1,80,1,0
72991,208.336950294276,4,2,1,80,1,0
73199,207.616048720566,4,2,1,80,1,0
73407,206.900118967568,4,2,1,80,1,0
73614,206.189109778519,4,2,1,80,1,0
73820,205.482970598812,4,2,1,80,1,0
74025,204.78165156402,4,2,1,70,1,0
74230,204.085103488155,4,2,1,70,1,0
74434,203.393277852167,4,2,1,70,1,0
74637,202.706126792682,4,2,1,70,1,0
74840,202.023603090961,4,2,1,70,1,0
75042,201.345660162083,4,2,1,70,1,0
75243,200.672252044349,4,2,1,70,1,0
75444,200.00333338889,4,2,1,70,1,0
75644,199.338859449493,4,2,1,70,1,0
75843,198.678786072617,4,2,1,70,1,0
76042,198.023069687619,4,2,1,70,1,0
76240,197.371667297159,4,2,1,70,1,0
76437,196.724536467811,4,2,1,70,1,0
76634,196.081635320839,4,2,1,70,1,0
76830,195.442922523168,4,2,1,70,1,0
77025,194.808357278527,4,2,1,70,1,0
77220,194.177899318759,4,2,1,70,1,0
77414,193.551508895305,4,2,1,70,1,0
77608,192.929146770848,4,2,1,70,1,0
77801,192.310774211125,4,2,1,70,1,0
77993,191.696352976885,4,2,1,70,1,0
78185,191.085845316008,4,2,1,70,1,0
78376,190.479213955777,4,2,1,70,1,0
78566,189.876422095286,4,2,1,70,1,0
78756,189.277433398003,4,2,1,70,1,0
78945,188.682211984465,4,2,1,70,1,0
79134,188.090722425116,4,2,1,70,1,0
79322,187.502929733277,4,2,1,70,1,0
79510,186.918799358245,4,2,1,70,1,0
79697,186.338297178528,4,2,1,70,1,0
79883,185.761389495193,4,2,1,70,1,0
80069,185.188043025355,4,2,1,70,1,0
80254,184.618224895768,4,2,1,70,1,0
80438,184.051902636544,4,2,1,70,1,0
80623,183.489044174987,4,2,1,70,1,0
80805,182.92961782954,4,2,1,70,1,0
80989,182.373592303834,4,2,1,70,1,0
81171,181.820936680859,4,2,1,70,1,0
81353,181.271620417227,4,2,1,70,1,0
81534,180.72561333755,4,2,1,70,1,0
81715,180.182885628913,4,2,1,70,1,0
81895,179.643407835447,4,2,1,70,1,0
82075,179.107150852998,4,2,1,70,1,0
82254,178.574085923898,4,2,1,70,1,0
82433,178.044184631819,4,2,1,70,1,0
82611,177.517418896729,4,2,1,70,1,0
82789,176.993760969926,4,2,1,70,1,0
82966,176.473183429168,4,2,1,70,1,0
83142,175.955659173888,4,2,1,70,1,0
83318,175.441161420489,4,2,1,70,1,0
83493,174.929663697722,4,2,1,70,1,0
83668,174.421139842149,4,2,1,70,1,0
83842,173.915563993681,4,2,1,70,1,0
84016,173.412910591194,4,2,1,70,1,0
84189,172.913154368219,4,2,1,70,1,0
84362,172.416270348712,4,2,1,70,1,0
84534,171.922233842892,4,2,1,70,1,0
84706,171.431020443149,4,2,1,70,1,0
84877,170.942606020029,4,2,1,70,1,0
85048,170.456966718277,4,2,1,70,1,0
85218,169.97407895296,4,2,1,70,1,0
85388,169.493919405641,4,2,1,70,1,0
85557,169.016465020634,4,2,1,70,1,0
85726,168.541693001306,4,2,1,70,1,0
85895,168.069580806454,4,2,1,80,1,0
86063,167.600106146734,4,2,1,80,1,0
86231,167.133246981156,4,2,1,80,1,0
86398,166.668981513632,4,2,1,80,1,0
86565,166.207288189587,4,2,1,80,1,0
86731,165.74814569262,4,2,1,80,1,0
86897,165.291532941225,4,2,1,80,1,0
87062,164.837429085564,4,2,1,80,1,0
87227,164.385813504295,4,2,1,80,1,0
87391,163.936665801445,4,2,1,80,1,0
87555,163.489965803349,4,2,1,80,1,0
87718,163.045693555619,4,2,1,80,1,0
87881,162.60382932018,4,2,1,80,1,0
88044,162.164353572346,4,2,1,80,1,0
88206,161.727246997938,4,2,1,80,1,0
88368,161.292490490464,4,2,1,80,1,0
88529,160.860065148326,4,2,1,80,1,0
88690,160.429952272089,4,2,1,80,1,0
88850,160.002133361778,4,2,1,80,1,0
89010,159.57659011423,4,2,1,80,1,0
89170,159.153304420483,4,2,1,80,1,0
89329,158.732258363206,4,2,1,80,1,0
89488,158.313434214172,4,2,1,80,1,0
89646,157.896814431769,4,2,1,80,1,0
89804,157.482381658552,4,2,1,80,1,0
89961,157.070118718831,4,2,1,80,1,0
90118,156.6600086163,4,2,1,80,1,0
90275,156.2520345317,4,2,1,80,1,0
90431,155.846179820517,4,2,1,80,1,0
90587,155.442428010726,4,2,1,80,1,0
90742,155.040762800553,4,2,1,80,1,0
90897,154.641168056289,4,2,1,80,1,0
91052,154.243627810126,4,2,1,80,1,0
91206,153.848126258029,4,2,1,80,1,0
91360,153.454647757644,4,2,1,80,1,0
91513,153.063176826235,4,2,1,80,1,0
91666,152.673698138653,4,2,1,80,1,0
91819,152.286196525337,4,2,1,80,1,0
91971,151.900656970341,4,2,1,80,1,0
92123,151.517064609402,4,2,1,80,1,0
92275,151.135404728019,4,2,1,80,1,0
92426,150.755662759582,4,2,1,80,1,0
92577,150.377824283512,4,2,1,80,1,0
92727,150.001875023438,4,2,1,80,1,0
92877,149.627800845397,4,2,1,80,1,0
93027,149.255587756067,4,2,1,80,1,0
93176,148.885221901016,4,2,1,80,1,0
93325,148.51668956299,4,2,1,80,1,0
93474,148.149977160212,4,2,1,80,1,0
93622,147.78507124472,4,2,1,80,1,0
93770,147.421958500719,4,2,1,80,1,0
93917,147.060625742963,4,2,1,80,1,0
94064,146.701059915158,4,2,1,80,1,0
94211,146.343248088391,4,2,1,80,1,0
94357,145.98717745958,4,2,1,80,1,0
94503,145.632835349944,4,2,1,80,1,0
94649,145.280209203501,4,2,1,80,1,0
94794,144.929286585587,4,2,1,80,1,0
94939,144.580055181388,4,2,1,80,1,0
95084,144.232502794505,4,2,1,80,1,0
95228,143.886617345532,4,2,1,80,1,0
95372,143.542386870656,4,2,1,80,1,0
95516,143.199799520281,4,2,1,80,1,0
95659,142.858843557661,4,2,1,80,1,0
95802,142.51950735757,4,2,1,90,1,1
95945,142.181779404969,4,2,1,90,1,1
96087,141.845648293715,4,2,1,90,1,1
96229,141.511102725268,4,2,1,90,1,1
96371,141.178131507429,4,2,1,90,1,1
96512,140.846723553093,4,2,1,90,1,1
96653,140.516867879015,4,2,1,90,1,1
96794,140.188553604598,4,2,1,90,1,1
96934,139.861769950699,4,2,1,90,1,1
97074,139.536506238445,4,2,1,90,1,1
97214,139.212751888073,4,2,1,90,1,1
97353,138.890496417783,4,2,1,90,1,1
97492,138.569729442603,4,2,1,90,1,1
97631,138.25044067328,4,2,1,90,1,1
97769,137.932619915171,4,2,1,90,1,1
97907,137.616257067168,4,2,1,90,1,1
98045,137.301342120619,4,2,1,90,1,1
98182,136.987865158278,4,2,1,90,1,1
98319,136.675816353261,4,2,1,90,1,1
98456,136.365185968022,4,2,1,90,1,1
98592,136.055964353337,4,2,1,90,1,1
98728,135.748141947307,4,2,1,90,1,1
98864,135.441709274371,4,2,1,90,1,1
98999,135.136656944335,4,2,1,90,1,1
99134,134.832975651412,4,2,1,90,1,1
99269,134.530656173275,4,2,1,90,1,1
99404,134.229689370127,4,2,1,90,1,1
99538,133.930066183774,4,2,1,90,1,1
99672,133.631777636722,4,2,1,90,1,1
99806,133.334814831276,4,2,1,90,1,1
99939,133.039168948658,4,2,1,90,1,1
100072,132.744831248133,4,2,1,90,1,1
100205,132.451793066149,4,2,1,90,1,1
100337,132.160045815483,4,2,1,90,1,1
100469,131.869580984406,4,2,1,90,1,1
100601,131.580390135857,4,2,1,90,1,1
100733,131.292464906618,4,2,1,90,1,1
100864,131.005797006518,4,2,1,90,1,1
100995,130.720378217628,4,2,1,90,1,1
101126,130.436200393483,4,2,1,90,1,1
101256,130.153255458302,4,2,1,90,1,1
101386,129.871535406227,4,2,1,90,1,1
101516,129.591032300565,4,2,1,90,1,1
101646,129.311738273042,4,2,1,90,1,1
101775,129.03364552307,4,2,1,90,1,1
101904,128.756746317021,4,2,1,90,1,1
102033,128.481032987505,4,2,1,90,1,1
102161,128.20649793267,4,2,1,90,1,1
102289,127.933133615497,4,2,1,90,1,1
102417,127.660932563112,4,2,1,90,1,1
102545,127.389887366108,4,2,1,90,1,1
102672,127.119990677867,4,2,1,90,1,1
102799,126.851235213903,4,2,1,90,1,1
102926,126.5836137512,4,2,1,90,1,1
103053,126.31711912757,4,2,1,90,1,1
103179,126.051744241011,4,2,1,90,1,1
103305,125.787482049078,4,2,1,90,1,1
103431,125.524325568259,4,2,1,90,1,1
103557,125.26226787336,4,2,1,90,1,1
103682,125.001302096897,4,2,1,90,1,1
103807,124.741421428497,4,2,1,90,1,1
103932,124.482619114306,4,2,1,90,1,1
104056,124.224888456402,4,2,1,90,1,1
104180,123.968222812219,4,2,1,90,1,0
104304,123.712615593975,4,2,1,95,1,1
104428,123.45806026811,4,2,1,95,1,1
104551,123.204550354726,4,2,1,95,1,1
104674,122.952079427043,4,2,1,95,1,1
104797,122.70064111085,4,2,1,95,1,1
104920,122.45022908397,4,2,1,95,1,1
105042,122.200837075734,4,2,1,95,1,1
105164,121.952458866452,4,2,1,95,1,1
105286,121.705088286899,4,2,1,95,1,1
105408,121.458719217806,4,2,1,95,1,1
105529,121.213345589349,4,2,1,95,1,1
105650,120.968961380659,4,2,1,95,1,1
105771,120.725560619322,4,2,1,95,1,1
105892,120.483137380897,4,2,1,95,1,1
106012,120.241685788435,4,2,1,95,1,1
106132,120.001200012,4,2,1,95,1,1
106252,119.761674268206,4,2,1,95,1,1
106372,119.523102819749,4,2,1,95,1,1
106492,119.28547997495,4,2,1,95,1,1
106611,119.048800087302,4,2,1,95,1,1
106730,118.813057555025,4,2,1,95,1,1
106849,118.578246820621,4,2,1,95,1,1
106968,118.344362370438,4,2,1,95,1,1
107086,118.11139873424,4,2,1,95,1,1
107204,117.879350484779,4,2,1,95,1,1
107322,117.648212237375,4,2,1,95,1,1
107440,117.417978649498,4,2,1,95,1,1
107557,117.188644420356,4,2,1,95,1,1
107674,116.96020429049,4,2,1,95,1,1
107791,116.732653041372,4,2,1,95,1,1
107908,116.505985495005,4,2,1,95,1,1
108025,116.280196513532,4,2,1,95,1,1
108141,116.055280998849,4,2,1,95,1,1
108257,115.831233892219,4,2,1,95,1,1
108373,115.608050173894,4,2,1,95,1,1
108489,115.385724862739,4,2,1,95,1,1
108604,115.164253015864,4,2,1,95,1,1
108719,114.943629728254,4,2,1,95,1,1
108834,114.72385013241,4,2,1,95,1,1
108949,114.50490939799,4,2,1,95,1,1
109064,114.286802731455,4,2,1,95,1,1
109178,114.069525375716,4,2,1,95,1,1
109292,113.853072609797,4,2,1,95,1,1
109406,113.637439748482,4,2,1,95,1,1
109520,113.422622141986,4,2,1,95,1,1
109633,113.208615175615,4,2,1,95,1,1
109746,112.995414269438,4,2,1,95,1,1
109859,112.783014877959,4,2,1,95,1,1
109972,112.571412489798,4,2,1,95,1,1
110085,112.360602627365,4,2,1,95,1,1
110197,112.15058084655,4,2,1,95,1,1
110309,111.941342736406,4,2,1,95,1,1
110421,111.732883918845,4,2,1,95,1,1
110533,111.525200048328,4,2,1,95,1,1
110645,111.318286811566,4,2,1,95,1,1
110756,111.112139927222,4,2,1,95,1,1
110867,110.906755145611,4,2,1,95,1,1
110978,110.702128248416,4,2,1,95,1,1
111089,110.498255048389,4,2,1,95,1,1
111199,110.295131389075,4,2,1,95,1,1
111309,110.092753144524,4,2,1,95,1,1
111419,109.891116219013,4,2,1,95,1,1
111529,109.690216546769,4,2,1,95,1,1
111639,109.490050091698,4,2,1,95,1,1
111748,109.290612847112,4,2,1,95,1,1
111857,109.091900835462,4,2,1,95,1,1
111966,108.893910108077,4,2,1,95,1,1
112075,108.696636744898,4,2,1,95,1,1
112184,108.500076854221,4,2,1,95,1,1
112293,108.304226572442,4,2,1,95,1,1
112401,108.109082063802,4,2,1,95,1,1
112509,107.91463952014,4,2,1,95,1,1
112617,107.720895160639,4,2,1,95,1,1
112725,107.527845231588,4,2,1,95,1,1
112833,107.335486006136,4,2,1,95,1,1
112940,107.143813784052,4,2,1,95,1,1
113047,106.952824891487,4,2,1,95,1,1
113154,106.762515680744,4,2,1,95,1,1
113261,106.57288253004,4,2,1,95,1,1
113368,106.383921843279,4,2,1,95,1,1
113474,106.195630049823,4,2,1,95,1,1
113580,106.008003604272,4,2,1,95,1,1
113686,105.821038986234,4,2,1,95,1,1
113792,105.634732700112,4,2,1,95,1,1
113898,105.449081274879,4,2,1,95,1,1
114003,105.264081263871,4,2,1,95,1,1
114108,105.079729244564,4,2,1,95,1,1
114213,104.896021818373,4,2,1,95,1,1
114318,418.848167539267,4,2,1,50,1,0

[Colours]
Combo1 : 255,228,147
Combo2 : 121,234,172
Combo3 : 142,211,253
Combo4 : 252,129,175

[HitObjects]
154,365,9922,6,0,P|165:325|169:278,1,80,6|0,3:2|0:0,0:0:0:0:
262,246,10367,1,2,0:0:0:0:
262,246,10516,2,0,P|181:238|105:216,1,160,8|0,0:0|3:0,0:0:0:0:
33,286,11395,1,0,0:0:0:0:
33,286,11540,1,0,0:0:0:0:
33,286,11686,1,8,0:0:0:0:
33,286,11975,5,2,3:2:0:0:
101,49,12264,2,0,P|110:89|120:134,1,80,2|0,3:2|0:0,0:0:0:0:
53,182,12692,1,2,0:0:0:0:
53,182,12835,1,8,0:0:0:0:
119,126,13118,5,2,0:0:0:0:
187,363,13401,2,0,P|196:323|206:277,1,80,2|0,3:2|0:0,0:0:0:0:
139,230,13821,1,0,3:2:0:0:
129,260,13962,1,10,0:0:0:0:
301,106,14239,1,0,3:0:0:0:
459,332,14518,6,0,P|419:323|372:313,1,80,2|0,3:2|0:0,0:0:0:0:
289,272,14930,1,2,0:0:0:0:
289,272,15068,2,0,P|295:309|302:361,1,80,8|0,0:0|0:0,0:0:0:0:
276,253,15613,6,0,P|270:216|263:164,1,80,0|0,3:0|0:0,0:0:0:0:
374,22,16154,1,10,0:0:0:0:
417,35,16287,1,2,0:0:0:0:
460,48,16421,1,2,3:2:0:0:
171,161,16690,6,0,P|102:175|64:197,1,80,2|0,3:2|0:0,0:0:0:0:
30,124,17088,1,2,0:0:0:0:
30,124,17221,2,0,P|42:52|45:19,1,80,8|0,0:0|0:0,0:0:0:0:
35,28,17615,1,0,0:0:0:0:
35,28,17681,1,0,0:0:0:0:
35,28,17747,2,0,P|23:100|20:133,1,80,2|0,3:2|0:0,0:0:0:0:
83,260,18138,1,2,3:2:0:0:
126,283,18269,6,0,P|176:267|200:234,1,80,8|0,0:0|3:2,0:0:0:0:
236,170,18656,1,0,0:0:0:0:
230,156,18786,2,0,L|204:54,1,80,2|0,3:2|0:0,0:0:0:0:
310,223,19170,1,2,0:0:0:0:
310,223,19299,2,0,P|350:230|402:241,1,80,8|0,0:0|0:0,0:0:0:0:
388,237,19807,1,0,3:0:0:0:
418,224,19933,6,0,P|424:184|431:145,1,80,2|0,0:0|0:0,0:0:0:0:
503,206,20311,2,0,L|509:245,1,40,8|0,0:0|0:0,0:0:0:0:
348,154,20561,2,0,L|341:114,1,40,2|0,3:2|0:0,0:0:0:0:
400,37,20811,6,0,P|457:51|497:60,1,80,2|0,3:2|0:0,0:0:0:0:
232,122,21182,1,2,0:0:0:0:
213,125,21306,1,8,0:0:0:0:
400,37,21799,6,0,P|457:51|495:56,1,80,2|0,3:2|0:0,0:0:0:0:
185,146,22164,1,2,3:2:0:0:
166,149,22287,1,8,0:0:0:0:
297,7,22528,1,0,3:0:0:0:
380,252,22771,6,0,P|371:290|341:315,1,80,2|0,3:2|0:0,0:0:0:0:
247,79,23131,1,2,0:0:0:0:
230,44,23251,1,8,0:0:0:0:
382,273,23727,6,0,P|385:312|366:346,1,80,2|0,3:2|0:0,0:0:0:0:
212,62,24081,1,2,0:0:0:0:
195,27,24199,1,8,0:0:0:0:
476,173,24433,1,0,3:0:0:0:
255,300,24668,6,0,P|200:288|149:290,1,80,2|0,3:2|0:0,0:0:0:0:
96,303,25016,2,0,L|109:363,1,40,2|8,0:0|0:0,0:0:0:0:
41,146,25363,6,0,P|47:103|56:44,1,80,2|0,0:0|3:2,0:0:0:0:
171,266,25709,2,0,P|174:288|182:345,1,80,2|0,0:0|3:0,0:0:0:0:
278,187,26053,2,0,L|334:201,1,40,10|0,0:0|0:0,0:0:0:0:
67,301,26280,2,0,L|11:287,1,40,2|0,3:2|0:0,0:0:0:0:
273,168,26508,6,0,P|323:158|353:121,1,80,2|0,3:2|0:0,0:0:0:0:
382,61,26846,1,2,0:0:0:0:
434,132,26959,2,0,L|420:224,1,80,8|0,0:0|0:0,0:0:0:0:
136,61,27407,2,0,P|174:53|215:39,1,80,0|0,3:0|0:0,0:0:0:0:
370,301,27851,1,8,0:0:0:0:
316,16,28071,5,2,3:2:0:0:
191,237,28292,2,0,P|136:232|101:202,1,80,2|0,3:2|0:0,0:0:0:0:
32,141,28620,1,2,0:0:0:0:
38,166,28730,1,8,0:0:0:0:
196,16,28947,5,2,0:0:0:0:
330,317,29165,2,0,P|385:312|420:282,1,80,2|0,3:2|0:0,0:0:0:0:
480,141,29488,1,0,3:2:0:0:
464,219,29597,1,10,0:0:0:0:
291,21,29811,1,0,3:0:0:0:
238,342,30026,6,0,P|199:352|160:363,1,80,2|0,3:2|0:0,0:0:0:0:
0,247,30345,1,2,0:0:0:0:
38,214,30452,2,0,P|78:218|116:264,1,80,8|0,0:0|0:0,0:0:0:0:
304,111,30875,1,0,3:0:0:0:
147,0,31084,1,0,0:0:0:0:
147,0,31189,1,0,0:0:0:0:
147,0,31294,1,10,0:0:0:0:
160,42,31399,1,2,0:0:0:0:
173,84,31503,2,0,L|189:144,1,40,2|0,3:2|0:0,0:0:0:0:
257,359,31712,6,0,P|271:322|277:283,1,80,2|0,3:2|0:0,0:0:0:0:
58,158,32022,1,2,0:0:0:0:
10,176,32125,1,8,0:0:0:0:
402,306,32537,6,0,P|382:272|351:247,1,80,2|0,3:2|0:0,0:0:0:0:
108,294,32843,1,2,3:2:0:0:
67,357,32945,1,8,0:0:0:0:
187,36,33147,1,0,3:2:0:0:
187,36,33249,2,0,L|194:55,1,20
187,36,33350,6,0,P|193:70|202:115,1,80,2|0,3:2|0:0,0:0:0:0:
226,194,33652,1,2,0:0:0:0:
298,154,33753,2,0,P|292:120|283:75,1,80,8|0,0:0|0:0,0:0:0:0:
32,264,34153,1,0,3:0:0:0:
113,298,34252,1,2,0:0:0:0:
113,298,34550,1,10,0:0:0:0:
416,203,34747,1,2,3:2:0:0:
274,357,34945,6,0,P|210:351|174:331,1,80,2|0,3:2|0:0,0:0:0:0:
11,237,35239,1,2,0:0:0:0:
76,194,35337,1,8,0:0:0:0:
289,366,35727,6,0,P|328:363|371:340,1,80,2|0,3:2|0:0,0:0:0:0:
221,147,36017,1,2,3:2:0:0:
167,212,36114,2,0,P|175:252|184:295,1,80,8|0,0:0|3:0,0:0:0:0:
490,182,36499,6,0,P|473:152|411:126,1,80,2|0,3:2|0:0,0:0:0:0:
346,170,36785,1,2,0:0:0:0:
362,82,36881,6,0,L|379:-22,1,80,10|0,0:0|0:0,0:0:0:0:
346,170,37165,1,2,0:0:0:0:
330,258,37261,6,0,L|313:362,1,80,2|0,3:2|0:0,0:0:0:0:
346,170,37544,1,2,0:0:0:0:
434,186,37638,6,0,L|538:203,1,80,10|0,0:0|3:0,0:0:0:0:
346,170,37919,1,2,0:0:0:0:
258,154,38013,6,0,L|154:137,1,80,2|0,3:2|0:0,0:0:0:0:
346,170,38292,1,2,0:0:0:0:
362,82,38386,6,0,L|379:-22,1,80,10|0,0:0|0:0,0:0:0:0:
346,170,38663,1,2,0:0:0:0:
330,258,38756,6,0,L|313:362,1,80,2|0,3:2|0:0,0:0:0:0:
346,170,39032,1,2,3:2:0:0:
285,74,39124,6,0,L|277:34,1,40,2|0,0:0|0:0,0:0:0:0:
423,232,39306,2,0,L|430:271,1,40,0|2,3:2|0:2,0:0:0:0:
487,14,39490,5,6,3:2:0:0:
202,135,39671,2,0,P|161:127|122:95,1,80,2|8,0:0|0:0,0:0:0:0:
63,47,40034,1,2,0:0:0:0:
17,133,40215,2,0,P|44:203|46:268,1,120,2|0,3:2|0:0,0:0:0:0:
42,257,40574,5,10,0:0:0:0:
120,348,40752,2,0,P|177:338|230:328,1,80,2|0,3:2|3:2,0:0:0:0:
375,170,41108,5,2,0:0:0:0:
315,265,41286,2,0,P|258:255|214:247,1,80,10|0,0:0|0:0,0:0:0:0:
166,172,41639,6,0,P|154:112|154:74,1,80,2|0,3:2|0:0,0:0:0:0:
304,223,41902,1,0,3:0:0:0:
315,265,41990,2,0,P|311:304|302:343,1,80,10|0,0:0|3:0,0:0:0:0:
227,34,42339,1,0,3:0:0:0:
338,122,42512,5,2,0:0:0:0:
338,122,42599,1,2,0:0:0:0:
338,122,42685,1,10,0:0:0:0:
152,189,42858,1,2,0:0:0:0:
331,280,43031,2,0,P|414:259|446:202,1,120,2|0,3:2|0:0,0:0:0:0:
443,225,43374,5,10,0:0:0:0:
481,125,43544,2,0,L|460:46,1,80,2|0,3:2|3:2,0:0:0:0:
262,196,43884,5,2,0:0:0:0:
224,296,44053,2,0,L|245:375,1,80,10|0,0:0|0:0,0:0:0:0:
336,109,44391,6,0,P|271:93|222:77,1,80,2|0,3:2|0:0,0:0:0:0:
178,161,44642,1,0,3:0:0:0:
197,155,44726,1,10,0:0:0:0:
70,8,44892,1,0,3:0:0:0:
11,314,45059,5,0,3:0:0:0:
72,255,45224,2,0,B|163:251|132:300|237:289,1,160,2|2,0:0|0:0,0:0:0:0:
387,152,45721,2,0,P|346:162|312:182,1,80,2|0,3:2|0:0,0:0:0:0:
358,359,46049,1,10,0:0:0:0:
447,313,46212,2,0,P|462:266|462:220,1,80,2|0,3:2|3:0,0:0:0:0:
303,118,46537,1,2,0:0:0:0:
308,149,46618,1,2,0:0:0:0:
313,180,46699,1,10,0:0:0:0:
373,29,46860,1,0,0:0:0:0:
208,143,47021,2,0,P|169:151|130:161,1,80,2|0,3:2|0:0,0:0:0:0:
389,232,47262,1,0,3:0:0:0:
389,232,47343,1,10,0:0:0:0:
252,376,47502,5,0,3:0:0:0:
252,375,47662,2,0,P|245:301|240:216,1,160,2|10,3:2|0:0,0:0:0:0:
119,314,48136,2,0,P|124:234|140:147,1,160,2|2,0:0|0:0,0:0:0:0:
377,368,48609,1,10,0:0:0:0:
495,32,48922,5,2,3:2:0:0:
421,87,49077,2,0,P|411:125|402:164,1,80,2|10,0:0|0:0,0:0:0:0:
503,327,49387,1,2,0:0:0:0:
489,279,49465,1,2,0:0:0:0:
448,252,49542,1,2,0:0:0:0:
258,364,49695,1,0,0:0:0:0:
267,329,49772,1,0,3:0:0:0:
276,294,49850,1,10,0:0:0:0:
378,327,50003,1,0,3:0:0:0:
102,325,50156,5,4,3:2:0:0:
102,325,50308,2,0,L|-4:351,1,80,2|8,0:0|3:2,0:0:0:0:
215,63,50612,1,2,0:0:0:0:
273,245,50764,2,0,P|269:264|256:338,1,80,2|0,3:2|0:0,0:0:0:0:
197,58,51065,5,10,3:2:0:0:
363,252,51216,2,0,P|441:224|463:131,1,160,2|2,0:0|0:0,0:0:0:0:
272,333,51664,2,0,P|221:345|181:357,1,80,10|0,3:2|0:0,0:0:0:0:
15,182,51962,2,0,P|49:189|93:203,1,80,2|0,3:2|0:0,0:0:0:0:
257,57,52258,2,0,L|160:85,1,80,10|0,3:2|3:0,0:0:0:0:
101,35,52552,5,0,3:0:0:0:
152,281,52698,1,2,0:0:0:0:
152,281,52771,1,2,0:0:0:0:
152,281,52845,1,10,3:2:0:0:
333,244,52990,1,2,0:0:0:0:
195,156,53136,2,0,L|107:137,1,80,2|0,3:2|0:0,0:0:0:0:
345,257,53425,5,10,3:2:0:0:
196,45,53570,2,0,P|123:58|21:77,1,160,2|2,0:0|0:0,0:0:0:0:
281,179,54001,2,0,P|293:116|308:70,1,80,10|0,3:2|0:0,0:0:0:0:
390,15,54287,2,0,P|399:53|406:93,1,80,2|0,3:2|0:0,0:0:0:0:
398,124,54500,1,0,3:0:0:0:
389,151,54571,5,10,3:2:0:0:
510,209,54712,1,0,3:0:0:0:
479,54,54854,5,0,3:0:0:0:
406,93,54994,2,0,P|336:97|259:151,1,160,2|2,0:0|0:0,0:0:0:0:
231,364,55416,2,0,P|248:312|252:276,1,80,2|0,3:2|0:0,0:0:0:0:
345,374,55695,1,10,3:2:0:0:
150,295,55833,2,0,P|112:306|74:319,1,80,2|0,0:0|3:0,0:0:0:0:
282,153,56111,1,2,0:0:0:0:
334,159,56180,1,2,0:0:0:0:
386,168,56250,1,10,3:2:0:0:
12,43,56525,6,0,P|29:82|39:119,1,80,0|0,3:0|0:0,0:0:0:0:
110,50,56799,2,0,P|143:62|196:81,1,80,10|0,3:2|3:0,0:0:0:0:
138,172,57072,6,0,P|61:161|6:215,1,160,2|10,3:2|3:2,0:0:0:0:
132,382,57478,2,0,P|121:337|117:280,1,80,2|0,0:0|3:0,0:0:0:0:
251,150,57747,1,2,0:0:0:0:
298,235,57882,2,0,L|287:314,1,80,10|0,3:2|0:0,0:0:0:0:
236,134,58150,1,2,3:2:0:0:
385,265,58283,2,0,P|445:281|490:296,1,80,2|8,0:0|3:2,0:0:0:0:
420,72,58549,1,2,0:0:0:0:
420,72,58616,1,2,0:0:0:0:
420,72,58682,2,0,P|381:83|324:98,1,80,10|0,3:2|0:0,0:0:0:0:
270,161,58880,1,0,3:0:0:0:
297,171,58946,1,10,3:2:0:0:
224,14,59077,1,2,3:2:0:0:
120,273,59209,6,0,P|106:329|96:376,1,80,6|0,3:2|0:0,0:0:0:0:
0,164,59471,2,0,P|86:152|154:96,1,160,10|0,3:2|0:0,0:0:0:0:
198,37,59861,1,2,3:2:0:0:
331,359,60121,1,2,3:2:0:0:
331,359,60251,2,0,P|322:316|311:259,1,80,2|0,3:2|0:0,0:0:0:0:
441,261,60509,2,0,P|432:218|421:161,1,80,10|0,3:2|0:0,0:0:0:0:
232,320,60765,2,0,P|223:277|212:220,1,80,2|0,3:2|0:0,0:0:0:0:
478,351,61020,2,0,P|469:308|458:251,1,80,10|0,3:2|0:0,0:0:0:0:
235,364,61274,6,0,P|191:348|151:346,1,80,2|0,3:2|0:0,0:0:0:0:
347,164,61527,2,0,P|425:164|492:122,1,160,10|0,3:2|0:0,0:0:0:0:
401,52,61904,1,2,3:2:0:0:
308,290,62155,1,2,3:2:0:0:
346,378,62280,5,2,3:2:0:0:
437,340,62404,1,2,3:2:0:0:
399,252,62529,1,10,3:2:0:0:
195,384,62776,2,0,P|92:355|18:362,1,160,2|8,3:2|0:2,0:0:0:0:
40,357,63270,6,0,P|58:308|55:265,1,80,2|0,3:2|0:0,0:0:0:0:
3,53,63515,2,0,P|32:92|147:81,1,160,10|0,3:2|0:0,0:0:0:0:
224,11,63880,1,2,3:2:0:0:
395,227,64122,1,2,3:2:0:0:
309,274,64244,2,0,P|268:257|214:251,1,80,2|0,3:2|0:0,0:0:0:0:
277,89,64485,2,0,P|282:131|293:176,1,80,10|0,3:2|0:0,0:0:0:0:
156,340,64725,2,0,P|150:297|140:253,1,80,2|0,3:2|0:0,0:0:0:0:
458,362,64964,1,10,3:2:0:0:
458,362,65202,6,0,P|391:337|365:338,1,80,2|0,3:2|0:0,0:0:0:0:
240,169,65439,2,0,P|256:98|350:93,1,160,10|0,3:2|0:0,0:0:0:0:
258,293,65792,1,2,3:2:0:0:
258,293,66027,1,2,3:2:0:0:
203,359,66144,5,2,3:2:0:0:
123,343,66260,1,2,3:2:0:0:
160,270,66377,5,10,3:2:0:0:
101,213,66493,1,2,3:2:0:0:
21,231,66609,2,0,P|41:150|37:64,1,160,2|8,3:2|0:0,0:0:0:0:
38,73,67073,6,0,P|100:58|148:38,1,80,2|0,3:2|0:0,0:0:0:0:
381,212,67303,2,0,P|290:183|207:192,1,160,8|0,3:2|0:0,0:0:0:0:
322,88,67646,1,2,3:2:0:0:
322,88,67873,1,2,3:2:0:0:
277,283,67987,2,0,P|271:318|259:375,1,80,2|0,3:2|0:0,0:0:0:0:
213,172,68213,2,0,P|219:136|231:80,1,80,10|0,3:2|0:0,0:0:0:0:
363,274,68439,2,0,P|357:309|345:366,1,80,2|0,3:2|0:0,0:0:0:0:
122,220,68665,2,0,P|128:184|140:128,1,80,10|0,3:2|0:0,0:0:0:0:
316,55,68888,6,0,P|371:38|403:13,1,80,2|0,3:2|0:0,0:0:0:0:
233,226,69111,2,0,P|206:149|114:155,1,160,10|0,3:2|0:0,0:0:0:0:
60,54,69443,1,2,3:2:0:0:
156,302,69664,1,2,3:2:0:0:
69,335,69775,5,2,3:2:0:0:
53,341,69884,1,2,3:2:0:0:
213,231,69995,1,10,3:2:0:0:
213,231,70214,2,0,P|332:248|389:248,1,160,2|8,3:2|0:0,0:0:0:0:
371,248,70649,6,0,P|359:193|362:141,1,80,2|0,3:2|0:0,0:0:0:0:
434,8,70866,2,0,P|485:26|488:123,1,160,10|0,3:2|0:0,0:0:0:0:
312,33,71189,1,2,3:2:0:0:
312,33,71404,1,2,3:2:0:0:
249,91,71511,2,0,P|206:85|159:61,1,80,2|0,3:2|0:0,0:0:0:0:
67,190,71725,2,0,P|110:184|157:160,1,80,10|0,3:2|0:0,0:0:0:0:
97,5,71938,2,0,P|92:41|86:91,1,80,2|0,3:2|0:0,0:0:0:0:
220,261,72150,2,0,P|224:224|231:175,1,80,10|0,3:2|0:0,0:0:0:0:
316,117,72361,6,0,P|381:101|417:90,1,80,2|0,3:2|0:0,0:0:0:0:
188,345,72572,2,0,P|69:324|9:320,1,160,10|0,3:2|0:0,0:0:0:0:
128,215,72886,1,2,3:2:0:0:
359,369,73095,1,2,3:2:0:0:
437,324,73199,6,0,P|453:283|461:212,1,80,2|2,3:2|3:2,0:0:0:0:
414,118,73407,1,10,3:2:0:0:
451,153,73510,1,2,3:2:0:0:
388,202,73614,5,2,3:2:0:0:
298,201,73717,1,2,3:2:0:0:
210,198,73820,1,10,3:2:0:0:
122,196,73922,1,2,3:2:0:0:
36,168,74025,6,0,P|57:97|71:-14,1,160,6|8,3:2|3:2,0:0:0:0:
156,278,74434,2,0,P|95:337|21:328,1,160,0|8,3:2|3:2,0:0:0:0:
212,156,74840,2,0,P|308:173|386:203,1,160,0|8,3:2|3:2,0:0:0:0:
366,193,75243,2,0,P|354:131|350:115,1,80,0|0,3:2|0:0,0:0:0:0:
445,141,75444,2,0,P|451:99|459:62,1,80,8|0,3:2|0:0,0:0:0:0:
317,270,75644,2,0,P|222:269|164:326,1,160,0|8,3:2|3:2,0:0:0:0:
0,30,76042,2,0,P|57:47|115:63,1,120,0|0,3:2|0:0,0:0:0:0:
128,69,76240,6,0,P|137:105|147:146,1,80,2|0,3:2|0:0,0:0:0:0:
58,313,76437,2,0,P|16:272|56:167,1,160,2|0,3:2|0:0,0:0:0:0:
210,327,76732,2,0,P|289:335|366:356,1,160,2|0,3:2|0:0,0:0:0:0:
490,209,77025,2,0,P|435:226|399:246,1,80,2|0,3:2|0:0,0:0:0:0:
336,160,77220,6,0,P|350:82|359:0,1,160,2|8,3:2|3:2,0:0:0:0:
102,218,77608,2,0,P|110:297|124:376,1,160,0|8,3:2|3:2,0:0:0:0:
442,366,77993,2,0,P|399:317|296:326,1,160,0|8,3:2|3:2,0:0:0:0:
18,180,78376,2,0,P|97:169|176:158,1,160,0|8,3:2|3:2,0:0:0:0:
341,5,78755,2,0,P|326:84|312:163,1,160,0|8,3:2|3:2,0:0:0:0:
493,376,79134,2,0,P|505:306|462:262,1,120,0|0,3:2|0:0,0:0:0:0:
467,265,79322,6,0,P|406:284|374:308,1,80,8|0,3:2|0:0,0:0:0:0:
235,368,79510,2,0,P|254:309|251:251,1,120,2|0,3:2|0:0,0:0:0:0:
244,237,79697,1,8,3:2:0:0:
336,113,79790,2,0,P|325:163|327:207,1,80,2|0,3:2|0:0,0:0:0:0:
106,259,79975,1,0,3:2:0:0:
80,222,80069,2,0,P|91:172|89:128,1,80,10|0,3:2|0:0,0:0:0:0:
1,71,80254,6,0,P|107:46|163:-2,1,160,2|8,3:2|3:2,0:0:0:0:
366,307,80623,2,0,P|310:251|209:251,1,160,0|8,3:2|3:2,0:0:0:0:
386,12,80989,2,0,P|399:114|409:182,1,160,0|8,3:2|3:2,0:0:0:0:
126,372,81353,2,0,P|113:270|103:202,1,160,0|8,3:2|3:2,0:0:0:0:
4,27,81715,2,0,P|71:74|168:65,1,160,0|8,3:2|3:2,0:0:0:0:
327,1,82074,1,0,3:2:0:0:
268,264,82254,2,0,P|253:180|255:124,1,120,10|0,3:2|0:0,0:0:0:0:
261,134,82433,6,0,P|331:149|407:164,1,120,2|0,3:2|0:0,0:0:0:0:
388,172,82611,1,0,0:0:0:0:
180,334,82699,2,0,P|100:340|22:359,1,160,2|0,3:2|0:0,0:0:0:0:
102,239,82966,1,2,3:2:0:0:
102,239,83142,6,0,P|88:144|74:78,1,160,2|8,3:2|3:2,0:0:0:0:
313,267,83493,2,0,P|272:329|177:317,1,160,0|8,3:2|3:2,0:0:0:0:
331,139,83842,2,0,P|451:167|518:172,1,160,0|8,3:2|3:2,0:0:0:0:
216,11,84189,2,0,P|135:21|101:109,1,160,0|8,3:2|3:2,0:0:0:0:
158,360,84534,2,0,P|214:306|209:228,1,160,8|8,3:2|3:2,0:0:0:0:
1,85,84877,2,0,P|24:222|27:240,1,120,8|0,3:2|0:0,0:0:0:0:
24,221,85048,6,0,P|78:211|108:193,1,80,10|0,3:2|0:0,0:0:0:0:
227,24,85218,1,2,3:2:0:0:
302,53,85302,1,2,3:2:0:0:
241,110,85388,1,2,3:2:0:0:
227,24,85472,1,2,3:2:0:0:
241,110,85641,5,2,3:2:0:0:
371,10,85726,2,0,P|429:26|501:41,1,120,2|0,3:2|0:0,0:0:0:0:
501,43,85895,6,0,P|479:103|471:224,1,160,6|2,3:2|3:2,0:0:0:0:
512,362,86231,2,0,P|428:309|344:317,2,160,8|2|2,3:2|3:2|3:2,0:0:0:0:
364,166,86731,2,0,P|319:226|206:236,1,160,2|10,3:2|3:2,0:0:0:0:
169,180,87062,1,2,3:2:0:0:
31,361,87227,2,0,P|111:315|206:326,1,160,2|2,3:2|3:2,0:0:0:0:
250,370,87555,1,10,3:2:0:0:
35,92,87718,5,2,3:2:0:0:
35,92,87881,2,0,P|55:202|108:261,1,160,2|0,3:2|0:0,0:0:0:0:
213,14,88125,2,0,P|179:59|157:169,1,160,2|0,3:2|0:0,0:0:0:0:
309,168,88368,2,0,P|266:178|232:221,1,80,2|0,3:2|0:0,0:0:0:0:
142,364,88529,6,0,P|83:327|-11:327,1,160,2|2,3:2|3:2,0:0:0:0:
248,231,88850,2,0,P|326:247|427:271,2,160,10|2|2,3:2|3:2|3:2,0:0:0:0:
76,166,89329,2,0,P|36:95|87:16,1,160,2|10,3:2|3:2,0:0:0:0:
158,68,89646,1,2,3:2:0:0:
0,273,89804,2,0,P|91:251|182:239,1,160,2|2,3:2|3:2,0:0:0:0:
282,361,90118,1,10,3:2:0:0:
286,90,90275,5,2,3:2:0:0:
502,208,90431,1,2,3:2:0:0:
483,243,90508,1,2,3:2:0:0:
452,268,90586,1,2,3:2:0:0:
414,279,90664,1,2,3:2:0:0:
375,274,90742,1,10,3:2:0:0:
275,68,90897,1,2,3:2:0:0:
282,361,91052,6,0,P|301:229|317:170,1,160,2|2,3:2|3:2,0:0:0:0:
138,15,91360,2,0,P|152:82|169:185,2,160,10|2|2,3:2|3:2|3:2,0:0:0:0:
16,262,91819,2,0,P|71:255|176:331,1,160,2|10,3:2|3:2,0:0:0:0:
224,379,92123,1,2,3:2:0:0:
509,176,92275,2,0,P|434:238|350:239,1,160,2|2,3:2|3:2,0:0:0:0:
298,191,92577,1,10,3:2:0:0:
188,21,92727,5,2,3:2:0:0:
188,21,92877,2,0,P|169:93|171:191,1,160,2|0,3:2|0:0,0:0:0:0:
43,238,93101,2,0,P|62:166|60:68,1,160,2|0,3:2|0:0,0:0:0:0:
140,268,93325,2,0,P|171:284|202:333,1,80,2|0,3:2|0:0,0:0:0:0:
292,358,93474,6,0,P|375:341|438:283,1,160,2|2,3:2|3:2,0:0:0:0:
373,17,93769,2,0,P|331:39|325:163,2,160,10|2|2,3:2|3:2|3:2,0:0:0:0:
506,313,94211,2,0,P|439:264|354:270,1,160,2|10,3:2|3:2,0:0:0:0:
289,319,94502,1,2,3:2:0:0:
99,197,94649,2,0,P|180:190|263:178,1,160,2|2,3:2|3:2,0:0:0:0:
192,332,94939,1,10,3:2:0:0:
163,76,95084,5,2,3:2:0:0:
368,162,95228,1,2,3:2:0:0:
274,27,95372,1,2,3:2:0:0:
181,242,95515,1,10,3:2:0:0:
464,169,95659,1,2,3:2:0:0:
289,13,95802,5,6,3:2:0:0:
60,112,95945,1,2,3:2:0:0:
370,66,96087,1,10,3:2:0:0:
8,31,96228,1,2,3:2:0:0:
222,103,96512,6,0,P|197:199|197:296,1,160,2|8,3:2|0:0,0:0:0:0:
254,332,96794,1,2,3:2:0:0:
159,362,96934,2,0,P|67:375|-14:382,2,160,2|2|10,3:2|3:2|3:2,0:0:0:0:
394,332,97353,1,2,3:2:0:0:
394,332,97631,1,2,3:2:0:0:
459,270,97769,2,0,P|424:189|349:184,1,160,10|0,3:2|0:0,0:0:0:0:
176,77,98045,5,2,3:2:0:0:
149,235,98182,1,2,3:2:0:0:
244,14,98319,1,10,3:2:0:0:
70,183,98456,1,2,3:2:0:0:
70,183,98728,6,0,P|101:257|114:362,1,160,2|8,3:2|0:0,0:0:0:0:
191,384,98999,1,2,3:2:0:0:
379,353,99134,2,0,P|340:292|234:297,1,160,2|2,3:2|3:2,0:0:0:0:
191,384,99404,1,10,3:2:0:0:
236,183,99538,5,2,3:2:0:0:
454,241,99672,1,2,3:2:0:0:
214,177,99805,1,2,3:2:0:0:
475,249,99939,2,0,P|493:156|514:80,1,160,10|0,3:2|0:0,0:0:0:0:
376,12,100205,5,2,3:2:0:0:
405,107,100337,1,2,3:2:0:0:
281,31,100469,1,10,3:2:0:0:
310,126,100601,1,2,3:2:0:0:
310,126,100864,6,0,P|196:88|146:94,1,160,2|8,3:2|0:2,0:0:0:0:
76,215,101126,1,2,3:2:0:0:
6,153,101256,2,0,P|26:54|75:42,2,160,2|2|10,3:2|3:2|3:2,0:0:0:0:
120,329,101645,1,2,3:2:0:0:
120,329,101904,1,2,3:2:0:0:
198,368,102033,2,0,P|293:345|334:282,1,160,10|0,3:2|0:0,0:0:0:0:
390,106,102289,5,2,3:2:0:0:
468,166,102417,1,2,3:2:0:0:
379,208,102544,1,10,3:2:0:0:
332,29,102672,1,2,3:2:0:0:
332,29,102926,2,0,P|247:48|201:128,1,160,2|8,3:2|0:0,0:0:0:0:
88,224,103179,6,0,P|74:144|52:53,2,160,2|2|2,3:2|3:2|3:2,0:0:0:0:
171,359,103556,1,10,3:2:0:0:
232,270,103682,5,2,3:2:0:0:
75,352,103807,1,2,3:2:0:0:
253,302,103932,1,2,3:2:0:0:
54,320,104057,1,10,3:2:0:0:
379,365,104304,5,6,3:2:0:0:
408,265,104428,1,2,3:2:0:0:
476,346,104551,1,10,3:2:0:0:
505,246,104675,1,2,3:2:0:0:
505,246,104920,2,0,P|488:153|418:121,1,160,2|8,3:2|0:0,0:0:0:0:
289,13,105164,6,0,P|303:73|325:187,1,160,2|2,3:2|3:2,0:0:0:0:
214,287,105407,2,0,P|200:227|178:113,1,160,2|10,3:2|3:2,0:0:0:0:
118,63,105650,1,2,3:2:0:0:
118,63,105892,1,2,3:2:0:0:
0,179,106012,2,0,P|56:176|161:232,1,160,10|2,3:2|0:2,0:0:0:0:
263,352,106252,5,2,3:2:0:0:
312,176,106371,1,2,3:2:0:0:
263,352,106492,1,10,3:2:0:0:
312,176,106611,1,2,3:2:0:0:
312,176,106849,2,0,P|291:67|282:-5,1,160,10|0,3:2|0:0,0:0:0:0:
402,211,107086,5,2,3:2:0:0:
322,268,107204,1,2,3:2:0:0:
433,319,107322,1,2,3:2:0:0:
312,176,107440,1,10,3:2:0:0:
231,351,107557,1,2,3:2:0:0:
491,240,107674,5,2,3:2:0:0:
491,240,107790,1,2,3:2:0:0:
491,240,107907,1,10,3:2:0:0:
491,240,108141,6,0,P|378:202|302:194,1,160,2|2,3:2|3:2,0:0:0:0:
177,70,108372,1,10,3:2:0:0:
224,273,108489,1,2,3:2:0:0:
224,273,108719,2,0,P|239:194|273:100,1,160,10|0,3:2|0:0,0:0:0:0:
94,240,108949,6,0,P|38:261|20:368,2,160,2|2|2,3:2|3:2|3:2,0:0:0:0:
310,314,109292,2,0,P|232:325|145:351,1,160,10|2,3:2|3:2,0:0:0:0:
162,33,109633,1,2,3:2:0:0:
228,92,109746,2,0,P|306:103|369:17,1,160,10|0,3:2|0:0,0:0:0:0:
446,131,109971,5,2,3:2:0:0:
512,227,110084,1,2,3:2:0:0:
429,308,110196,2,0,P|354:282|275:276,1,160,10|2,3:2|3:2,0:0:0:0:
58,84,110533,2,0,P|83:159|103:237,1,160,10|0,3:2|0:0,0:0:0:0:
241,146,110756,1,2,3:2:0:0:
190,276,110867,2,0,P|113:270|65:331,2,160,2|2|10,3:2|3:2|3:2,0:0:0:0:
271,356,111199,1,2,3:2:0:0:
333,248,111309,5,2,3:2:0:0:
390,363,111419,1,2,3:2:0:0:
460,177,111528,1,10,3:2:0:0:
460,177,111748,5,6,3:2:0:0:
408,115,111857,1,2,3:2:0:0:
332,136,111966,1,2,3:2:0:0:
280,74,112075,1,2,3:2:0:0:
320,6,112184,2,0,L|498:31,2,160,2|2|0,3:2|3:2|3:2,0:0:0:0:
22,154,112616,5,6,3:2:0:0:
97,125,112724,1,2,3:2:0:0:
171,154,112832,1,2,3:2:0:0:
205,226,112940,1,2,3:2:0:0:
179,301,113047,1,2,3:2:0:0:
234,357,113153,1,2,3:2:0:0:
312,341,113260,1,0,3:2:0:0:
448,32,113474,5,6,3:2:0:0:
367,57,113580,1,2,3:2:0:0:
297,123,113686,1,2,3:2:0:0:
277,216,113792,1,2,3:2:0:0:
256,112,113898,1,2,3:2:0:0:
145,47,114004,1,2,3:2:0:0:
27,10,114108,1,0,3:2:0:0:
149,82,114213,1,0,3:2:0:0:
0,162,114317,5,14,3:2:0:0:
