osu file format v14

[General]
AudioFilename: audio.mp3
AudioLeadIn: 0
PreviewTime: 50079
Countdown: 0
SampleSet: Soft
StackLeniency: 0.4
Mode: 0
LetterboxInBreaks: 0
WidescreenStoryboard: 1

[Editor]
Bookmarks: 9922,26508,36499,39490,41286,48922,50156,59209,67646,74025,76240,77220,79322,80254,82254,83142,85048,85895,87718,90275,91052,92727,93474,95084,95802,98999,100205,103179,104304,107086,108141,111748,121857
DistanceSpacing: 1.1
BeatDivisor: 4
GridSize: 4
TimelineZoom: 3

[Metadata]
Title:deltaMAX
TitleUnicode:ΔMAX
Artist:DM Ashura
ArtistUnicode:DM Ashura
Creator:Shmiklak
Version:GORDON'S BASIC
Source:DanceDanceRevolution UNIVERSE3
Tags:marvollo m_a_r_v_o_l_l_o schoolboy komore zadknus aphestra daycore -mikan bazz b bazz_b delette maruoko gordon123 electronic instrumental video game stepmania how fast can you go DDR Forever nm sequence unlimited naoki maeda
BeatmapID:3727810
BeatmapSetID:1352978

[Difficulty]
HPDrainRate:2
CircleSize:2.5
OverallDifficulty:2.2
ApproachRate:3
SliderMultiplier:0.8
SliderTickRate:1

[Events]
//Background and Video events
Video,350,"deltaMAX.avi"
0,0,"bg.jpg",0,0
//Break Periods
//Storyboard Layer 0 (Background)
//Storyboard Layer 1 (Fail)
//Storyboard Layer 2 (Pass)
//Storyboard Layer 3 (Foreground)
//Storyboard Layer 4 (Overlay)
//Storyboard Sound Samples

[TimingPoints]
322,600,4,2,1,50,1,0
9922,594.088816278034,4,2,1,75,1,0
9922,-56.1083333333333,4,2,1,75,0,0
10516,588.264130594637,4,2,1,75,1,0
11104,582.552551094713,4,2,1,75,1,0
11687,576.950814943026,4,2,1,75,1,0
12264,571.455783608743,4,2,1,75,1,0
12264,-58.8235294117647,4,2,1,75,0,0
12835,566.064437001745,4,2,1,75,1,0
13401,560.773867937754,4,2,1,75,1,0
13962,555.581276910968,4,2,1,75,1,0
14518,550.483967154457,4,2,1,75,1,0
14518,-60.5527777777777,4,2,1,75,0,0
15068,545.479339969999,4,2,1,75,1,0
15613,540.564890310374,4,2,1,75,1,0
15613,-61.6638888888889,4,2,1,75,0,0
16154,535.73820259833,4,2,1,75,1,0
16690,530.996946767556,4,2,1,75,1,0
16690,-62.775,4,2,1,75,0,0
17221,526.33887451204,4,2,1,75,1,0
17747,521.761815731119,4,2,1,75,1,0
17747,-63.8861111111111,4,2,1,75,0,0
18269,517.263675158412,4,2,1,75,1,0
18786,512.84242916364,4,2,1,75,1,0
18786,-64.9972222222222,4,2,1,75,0,0
19299,508.496122717064,4,2,1,75,1,0
19807,504.222866506996,4,2,1,75,1,0
20311,500.020834201425,4,2,1,75,1,0
20811,495.888259845448,4,2,1,75,1,0
20811,-66.8896321070234,4,2,1,75,0,0
21307,491.823435386696,4,2,1,75,1,0
21799,487.824708321476,4,2,1,75,1,0
21799,-68.3305555555556,4,2,1,75,0,0
22287,483.890479454817,4,2,1,75,1,0
22771,480.019200768031,4,2,1,75,1,0
22771,-69.4416666666666,4,2,1,75,0,0
23251,476.209373387833,4,2,1,75,1,0
23727,472.459545651404,4,2,1,75,1,0
23727,-70.5527777777777,4,2,1,75,0,0
24199,468.768311262159,4,2,1,75,1,0
24668,465.1343075313,4,2,1,75,1,0
24668,-71.6638888888888,4,2,1,75,0,0
25133,461.556213700527,4,2,1,75,1,0
25363,-72.2194444444444,4,2,1,75,0,0
25595,458.032749341578,4,2,1,75,1,0
26053,454.562672828516,4,2,1,75,1,0
26508,451.144779878943,4,2,1,75,1,0
26508,-73.8861111111111,4,2,1,75,0,0
26959,447.777902160528,4,2,1,75,1,0
27407,444.46090595948,4,2,1,75,1,0
27407,-74.9972222222222,4,2,1,75,0,0
27851,441.192690907754,4,2,1,75,1,0
28292,437.972188766013,4,2,1,75,1,0
28292,-76.1083333333334,4,2,1,75,0,0
28730,434.798362259502,4,2,1,75,1,0
29165,431.670203964171,4,2,1,75,1,0
29597,428.586735240544,4,2,1,75,1,0
30026,425.547005212951,4,2,1,75,1,0
30026,-78.3305555555555,4,2,1,75,0,0
30452,422.550089791894,4,2,1,75,1,0
30875,419.595090737438,4,2,1,75,1,0
30875,-79.4416666666667,4,2,1,75,0,0
31295,416.681134761624,4,2,1,75,1,0
31712,413.807372668023,4,2,1,75,1,0
31712,-80.5527777777778,4,2,1,75,0,0
32126,410.972978526662,4,2,1,75,1,0
32537,408.177148882615,4,2,1,75,1,0
32537,-81.6638888888889,4,2,1,75,0,0
32945,405.419101996689,4,2,1,75,1,0
33350,402.698077116682,4,2,1,75,1,0
33350,-82.7749999999999,4,2,1,75,0,0
33753,400.013333777793,4,2,1,75,1,0
34153,397.364151130832,4,2,1,75,1,0
34550,394.749827296951,4,2,1,75,1,0
34945,392.169678747671,4,2,1,75,1,0
34945,-84.9972222222223,4,2,1,75,0,0
35337,389.623039709081,4,2,1,75,1,0
35727,387.109261589084,4,2,1,75,1,0
35727,-86.1083333333332,4,2,1,75,0,0
36114,384.62771242668,4,2,1,75,1,0
36499,382.177776362305,4,2,1,75,1,0
36499,-87.2194444444443,4,2,1,75,0,0
36881,379.758853128264,4,2,1,75,1,0
37261,377.370357558414,4,2,1,75,1,0
37638,375.011719116222,4,2,1,75,1,0
38013,372.682381440417,4,2,1,75,1,0
38013,-89.2857142857143,4,2,1,75,0,0
38386,370.381801907466,4,2,1,75,1,0
38756,368.10945121016,4,2,1,75,1,0
39124,365.864812951614,4,2,1,75,1,0
39490,363.647383254038,4,2,1,80,1,0
39490,-91.6638888888889,4,2,1,80,0,0
39854,361.456670381638,4,2,1,80,1,0
40215,359.292194377077,4,2,1,80,1,0
40574,357.153486710914,4,2,1,80,1,0
40931,355.040089943489,4,2,1,80,1,0
40931,-93.8861111111112,4,2,1,80,0,0
41286,352.951557398747,4,2,1,80,1,0
41639,350.887452849499,4,2,1,80,1,0
41990,348.847350213669,4,2,1,80,1,0
42339,346.830833261077,4,2,1,80,1,0
42686,344.837495330326,4,2,1,80,1,0
43031,342.866939055402,4,2,1,80,1,0
43374,340.918776101594,4,2,1,80,1,0
43715,338.992626910365,4,2,1,80,1,0
44054,337.088120452822,4,2,1,80,1,0
44054,-99.009900990099,4,2,1,80,0,0
44391,335.204893991452,4,2,1,80,1,0
44726,333.342592849801,4,2,1,80,1,0
45059,331.500870189784,4,2,1,80,1,0
45059,-100.552777777778,4,2,1,80,0,0
45391,329.679386796341,4,2,1,80,1,0
45721,327.877810869149,4,2,1,80,1,0
46049,326.095817821136,4,2,1,80,1,0
46375,324.333090083516,4,2,1,80,1,0
46375,-102.775,4,2,1,80,0,0
46699,322.589316917121,4,2,1,80,1,0
47022,320.864194229792,4,2,1,80,1,0
47022,-103.886111111111,4,2,1,80,0,0
47343,319.157424399585,4,2,1,80,1,0
47662,317.468716103601,4,2,1,80,1,0
47662,-104.997222222222,4,2,1,80,0,0
47979,315.797784152215,4,2,1,80,1,0
48295,314.144349328516,4,2,1,80,1,0
48609,312.508138232766,4,2,1,80,1,0
48922,310.888883131687,4,2,1,80,1,0
48922,-107.219444444445,4,2,1,80,0,0
49233,309.286321812418,4,2,1,80,1,0
49542,307.70019744096,4,2,1,80,1,0
49542,-108.330555555556,4,2,1,80,0,0
49850,306.13025842496,4,2,1,80,1,0
50156,304.576258280667,4,2,1,90,1,1
50156,-109.441666666667,4,2,1,90,0,1
50461,303.037955503927,4,2,1,90,1,1
50764,301.515113445061,4,2,1,90,1,1
51066,300.007500187505,4,2,1,90,1,1
51366,298.51488843006,4,2,1,90,1,1
51366,-105.786842105263,4,2,1,90,0,1
51665,297.037055372658,4,2,1,90,1,1
51962,295.573782605483,4,2,1,90,1,1
52258,294.124856001373,4,2,1,90,1,1
52552,292.690065611356,4,2,1,90,1,1
52845,291.269205563242,4,2,1,90,1,1
52845,-108.418421052632,4,2,1,90,0,1
53136,289.862073963139,4,2,1,90,1,1
53426,288.468472799827,4,2,1,90,1,1
53714,287.088207851862,4,2,1,90,1,1
53714,-109.997368421053,4,2,1,90,0,1
54001,285.721088597348,4,2,1,90,1,1
54287,284.366928126259,4,2,1,90,1,1
54571,283.025543055261,4,2,1,90,1,1
54854,281.696753444917,4,2,1,90,1,1
55136,280.380382719222,4,2,1,90,1,1
55136,-112.628947368421,4,2,1,90,0,1
55416,279.076257587386,4,2,1,90,1,1
55695,277.784207967777,4,2,1,90,1,1
55973,276.504066913984,4,2,1,90,1,1
55973,-113.681578947368,4,2,1,90,0,1
56250,275.235670542902,4,2,1,90,1,1
56525,273.978857964794,4,2,1,90,1,1
56799,272.733471215255,4,2,1,90,1,1
57072,271.499355189031,4,2,1,90,1,1
57072,-116.313157894737,4,2,1,90,0,1
57343,270.276357575621,4,2,1,90,1,1
57613,269.06432879661,4,2,1,90,1,1
57882,267.863121944686,4,2,1,90,1,1
58150,266.672592724283,4,2,1,90,1,1
58150,-118.418421052631,4,2,1,90,0,1
58417,265.492599393792,4,2,1,90,1,1
58682,264.323002709311,4,2,1,90,1,1
58946,263.163665869866,4,2,1,90,1,1
59209,262.014454464071,4,2,1,80,1,0
59209,-120.523684210526,4,2,1,80,0,0
59471,260.875236418183,4,2,1,80,1,0
59732,259.745881945497,4,2,1,80,1,0
59992,258.626263497058,4,2,1,80,1,0
60251,257.516255713642,4,2,1,80,1,0
60251,-122.628947368421,4,2,1,80,0,0
60509,256.415735378961,4,2,1,80,1,0
60765,255.324581374072,4,2,1,80,1,0
60765,-110.068173461764,4,2,1,80,0,0
61020,254.242674632937,4,2,1,80,1,0
61274,253.169898099116,4,2,1,80,1,0
61274,-110.90105498609,4,2,1,80,0,0
61527,252.106136683544,4,2,1,80,1,0
61779,251.051277223373,4,2,1,80,1,0
62030,250.005208441843,4,2,1,80,1,0
62280,248.967820909147,4,2,1,80,1,0
62280,-126.839473684211,4,2,1,80,0,0
62529,247.939007004277,4,2,1,80,1,0
62776,246.918660877796,4,2,1,80,1,0
63024,245.906678415541,4,2,1,80,1,0
63270,244.902957203208,4,2,1,80,1,0
63270,-128.944736842105,4,2,1,80,0,0
63515,243.907396491799,4,2,1,80,1,0
63759,242.91989716391,4,2,1,80,1,0
64002,241.940361700841,4,2,1,80,1,0
64244,240.968694150485,4,2,1,80,1,0
64244,-131.05,4,2,1,80,0,0
64485,240.004800096002,4,2,1,80,1,0
64725,239.048586625232,4,2,1,80,1,0
64964,238.099962300839,4,2,1,80,1,0
65202,237.158837131169,4,2,1,80,1,0
65202,-133.155263157895,4,2,1,80,0,0
65439,236.225122541782,4,2,1,80,1,0
65675,235.298731347673,4,2,1,80,1,0
65910,234.379577726127,4,2,1,80,1,0
66144,233.467577190218,4,2,1,80,1,0
66144,-135.260526315789,4,2,1,80,0,0
66377,232.562646562918,4,2,1,80,1,0
66609,231.664703951814,4,2,1,80,1,0
66842,230.773668724399,4,2,1,80,1,0
67073,229.889461483936,4,2,1,80,1,0
67073,-137.365789473684,4,2,1,80,0,0
67303,229.012004045879,4,2,1,80,1,0
67532,228.141219414818,4,2,1,80,1,0
67760,227.277031761965,4,2,1,80,1,0
67987,226.41936640314,4,2,1,80,1,0
67987,-139.471052631579,4,2,1,80,0,0
68213,225.568149777251,4,2,1,80,1,0
68439,224.72330942527,4,2,1,80,1,0
68664,223.884773969664,4,2,1,80,1,0
68888,223.052473094295,4,2,1,80,1,0
68888,-141.576315789474,4,2,1,80,0,0
69111,222.226337524769,4,2,1,80,1,0
69333,221.406299009207,4,2,1,80,1,0
69554,220.592290299454,4,2,1,80,1,0
69775,219.784245132695,4,2,1,80,1,0
69775,-143.681578947368,4,2,1,80,0,0
69995,218.982098213471,4,2,1,80,1,0
70214,218.185785196094,4,2,1,80,1,0
70432,217.39524266744,4,2,1,80,1,0
70649,216.610408130111,4,2,1,80,1,0
70649,-145.786842105263,4,2,1,80,0,0
70866,215.831219985971,4,2,1,80,1,0
71082,215.057617520027,4,2,1,80,1,0
71297,214.289540884659,4,2,1,80,1,0
71511,213.526931084183,4,2,1,80,1,0
71511,-147.892105263158,4,2,1,80,0,0
71725,212.769729959751,4,2,1,80,1,0
71938,212.017880174561,4,2,1,80,1,0
72150,211.271325199387,4,2,1,80,1,0
72361,210.530009298409,4,2,1,80,1,0
72361,-149.997368421052,4,2,1,80,0,0
72572,209.793877515341,4,2,1,80,1,0
72782,209.062875659855,4,2,1,80,1,0
72991,208.336950294276,4,2,1,80,1,0
73199,207.616048720566,4,2,1,80,1,0
73199,-152.102631578947,4,2,1,80,0,0
73407,206.900118967568,4,2,1,80,1,0
73614,206.189109778519,4,2,1,80,1,0
73820,205.482970598812,4,2,1,80,1,0
74025,204.78165156402,4,2,1,70,1,0
74025,-154.207894736842,4,2,1,70,0,0
74230,204.085103488155,4,2,1,70,1,0
74434,203.393277852167,4,2,1,70,1,0
74637,202.706126792682,4,2,1,70,1,0
74840,202.023603090961,4,2,1,70,1,0
74840,-155.786842105263,4,2,1,70,0,0
75042,201.345660162083,4,2,1,70,1,0
75243,200.672252044349,4,2,1,70,1,0
75444,200.00333338889,4,2,1,70,1,0
75644,199.338859449493,4,2,1,70,1,0
75843,198.678786072617,4,2,1,70,1,0
76042,198.023069687619,4,2,1,70,1,0
76240,197.371667297159,4,2,1,70,1,0
76437,196.724536467811,4,2,1,70,1,0
76437,-160.523684210526,4,2,1,70,0,0
76634,196.081635320839,4,2,1,70,1,0
76830,195.442922523168,4,2,1,70,1,0
77025,194.808357278527,4,2,1,70,1,0
77220,194.177899318759,4,2,1,70,1,0
77220,-162.628947368421,4,2,1,70,0,0
77414,193.551508895305,4,2,1,70,1,0
77608,192.929146770848,4,2,1,70,1,0
77801,192.310774211125,4,2,1,70,1,0
77993,191.696352976885,4,2,1,70,1,0
77993,-164.734210526315,4,2,1,70,0,0
78185,191.085845316008,4,2,1,70,1,0
78376,190.479213955777,4,2,1,70,1,0
78566,189.876422095286,4,2,1,70,1,0
78756,189.277433398003,4,2,1,70,1,0
78756,-166.839473684211,4,2,1,70,0,0
78945,188.682211984465,4,2,1,70,1,0
79134,188.090722425116,4,2,1,70,1,0
79322,187.502929733277,4,2,1,70,1,0
79510,186.918799358245,4,2,1,70,1,0
79510,-168.944736842106,4,2,1,70,0,0
79697,186.338297178528,4,2,1,70,1,0
79883,185.761389495193,4,2,1,70,1,0
80069,185.188043025355,4,2,1,70,1,0
80254,184.618224895768,4,2,1,70,1,0
80254,-171.05,4,2,1,70,0,0
80438,184.051902636544,4,2,1,70,1,0
80623,183.489044174987,4,2,1,70,1,0
80805,182.92961782954,4,2,1,70,1,0
80989,182.373592303834,4,2,1,70,1,0
81171,181.820936680859,4,2,1,70,1,0
81353,181.271620417227,4,2,1,70,1,0
81534,180.72561333755,4,2,1,70,1,0
81715,180.182885628913,4,2,1,70,1,0
81715,-174.734210526316,4,2,1,70,0,0
81895,179.643407835447,4,2,1,70,1,0
82075,179.107150852998,4,2,1,70,1,0
82254,178.574085923898,4,2,1,70,1,0
82433,178.044184631819,4,2,1,70,1,0
82433,-176.83947368421,4,2,1,70,0,0
82611,177.517418896729,4,2,1,70,1,0
82789,176.993760969926,4,2,1,70,1,0
82966,176.473183429168,4,2,1,70,1,0
83142,175.955659173888,4,2,1,70,1,0
83142,-179.471052631579,4,2,1,70,0,0
83318,175.441161420489,4,2,1,70,1,0
83493,174.929663697722,4,2,1,70,1,0
83668,174.421139842149,4,2,1,70,1,0
83842,173.915563993681,4,2,1,70,1,0
84016,173.412910591194,4,2,1,70,1,0
84189,172.913154368219,4,2,1,70,1,0
84362,172.416270348712,4,2,1,70,1,0
84534,171.922233842892,4,2,1,70,1,0
84534,-183.681578947368,4,2,1,70,0,0
84706,171.431020443149,4,2,1,70,1,0
84877,170.942606020029,4,2,1,70,1,0
85048,170.456966718277,4,2,1,70,1,0
85218,169.97407895296,4,2,1,70,1,0
85218,-185.786842105263,4,2,1,70,0,0
85388,169.493919405641,4,2,1,70,1,0
85557,169.016465020634,4,2,1,70,1,0
85726,168.541693001306,4,2,1,70,1,0
85895,168.069580806454,4,2,1,80,1,0
85895,-187.892105263158,4,2,1,80,0,0
86063,167.600106146734,4,2,1,80,1,0
86231,167.133246981156,4,2,1,80,1,0
86398,166.668981513632,4,2,1,80,1,0
86565,166.207288189587,4,2,1,80,1,0
86565,-189.471052631579,4,2,1,80,0,0
86731,165.74814569262,4,2,1,80,1,0
86897,165.291532941225,4,2,1,80,1,0
87062,164.837429085564,4,2,1,80,1,0
87227,164.385813504295,4,2,1,80,1,0
87227,-191.576315789474,4,2,1,80,0,0
87391,163.936665801445,4,2,1,80,1,0
87555,163.489965803349,4,2,1,80,1,0
87718,163.045693555619,4,2,1,80,1,0
87881,162.60382932018,4,2,1,80,1,0
88044,162.164353572346,4,2,1,80,1,0
88206,161.727246997938,4,2,1,80,1,0
88368,161.292490490464,4,2,1,80,1,0
88529,160.860065148326,4,2,1,80,1,0
88529,-196.313157894737,4,2,1,80,0,0
88690,160.429952272089,4,2,1,80,1,0
88850,160.002133361778,4,2,1,80,1,0
89010,159.57659011423,4,2,1,80,1,0
89170,159.153304420483,4,2,1,80,1,0
89170,-198.418421052632,4,2,1,80,0,0
89329,158.732258363206,4,2,1,80,1,0
89488,158.313434214172,4,2,1,80,1,0
89646,157.896814431769,4,2,1,80,1,0
89804,157.482381658552,4,2,1,80,1,0
89961,157.070118718831,4,2,1,80,1,0
90118,156.6600086163,4,2,1,80,1,0
90275,156.2520345317,4,2,1,80,1,0
90431,155.846179820517,4,2,1,80,1,0
90431,-202.628947368421,4,2,1,80,0,0
90587,155.442428010726,4,2,1,80,1,0
90742,155.040762800553,4,2,1,80,1,0
90897,154.641168056289,4,2,1,80,1,0
91052,154.243627810126,4,2,1,80,1,0
91052,-204.734210526316,4,2,1,80,0,0
91206,153.848126258029,4,2,1,80,1,0
91360,153.454647757644,4,2,1,80,1,0
91513,153.063176826235,4,2,1,80,1,0
91666,152.673698138653,4,2,1,80,1,0
91819,152.286196525337,4,2,1,80,1,0
91971,151.900656970341,4,2,1,80,1,0
92123,151.517064609402,4,2,1,80,1,0
92275,151.135404728019,4,2,1,80,1,0
92275,-208.944736842106,4,2,1,80,0,0
92426,150.755662759582,4,2,1,80,1,0
92577,150.377824283512,4,2,1,80,1,0
92727,150.001875023438,4,2,1,80,1,0
92877,149.627800845397,4,2,1,80,1,0
93027,149.255587756067,4,2,1,80,1,0
93176,148.885221901016,4,2,1,80,1,0
93325,148.51668956299,4,2,1,80,1,0
93474,148.149977160212,4,2,1,80,1,0
93474,-213.155263157895,4,2,1,80,0,0
93622,147.78507124472,4,2,1,80,1,0
93770,147.421958500719,4,2,1,80,1,0
93917,147.060625742963,4,2,1,80,1,0
94064,146.701059915158,4,2,1,80,1,0
94211,146.343248088391,4,2,1,80,1,0
94357,145.98717745958,4,2,1,80,1,0
94503,145.632835349944,4,2,1,80,1,0
94649,145.280209203501,4,2,1,80,1,0
94649,-217.365789473685,4,2,1,80,0,0
94794,144.929286585587,4,2,1,80,1,0
94939,144.580055181388,4,2,1,80,1,0
95084,144.232502794505,4,2,1,80,1,0
95228,143.886617345532,4,2,1,80,1,0
95228,-219.471052631579,4,2,1,80,0,0
95372,143.542386870656,4,2,1,80,1,0
95516,143.199799520281,4,2,1,80,1,0
95659,142.858843557661,4,2,1,80,1,0
95802,142.51950735757,4,2,1,90,1,1
95802,-221.050000000001,4,2,1,90,0,1
95945,142.181779404969,4,2,1,90,1,1
96087,141.845648293715,4,2,1,90,1,1
96229,141.511102725268,4,2,1,90,1,1
96371,141.178131507429,4,2,1,90,1,1
96512,140.846723553093,4,2,1,90,1,1
96653,140.516867879015,4,2,1,90,1,1
96794,140.188553604598,4,2,1,90,1,1
96934,139.861769950699,4,2,1,90,1,1
96934,-214.4975,4,2,1,90,0,1
97074,139.536506238445,4,2,1,90,1,1
97214,139.212751888073,4,2,1,90,1,1
97353,138.890496417783,4,2,1,90,1,1
97492,138.569729442603,4,2,1,90,1,1
97631,138.25044067328,4,2,1,90,1,1
97769,137.932619915171,4,2,1,90,1,1
97907,137.616257067168,4,2,1,90,1,1
98045,137.301342120619,4,2,1,90,1,1
98045,-218.4975,4,2,1,90,0,1
98182,136.987865158278,4,2,1,90,1,1
98319,136.675816353261,4,2,1,90,1,1
98456,136.365185968022,4,2,1,90,1,1
98592,136.055964353337,4,2,1,90,1,1
98728,135.748141947307,4,2,1,90,1,1
98864,135.441709274371,4,2,1,90,1,1
98999,135.136656944335,4,2,1,90,1,1
99134,134.832975651412,4,2,1,90,1,1
99134,-222.4975,4,2,1,90,0,1
99269,134.530656173275,4,2,1,90,1,1
99404,134.229689370127,4,2,1,90,1,1
99538,133.930066183774,4,2,1,90,1,1
99672,133.631777636722,4,2,1,90,1,1
99806,133.334814831276,4,2,1,90,1,1
99939,133.039168948658,4,2,1,90,1,1
100072,132.744831248133,4,2,1,90,1,1
100205,132.451793066149,4,2,1,90,1,1
100205,-226.497499999999,4,2,1,90,0,1
100337,132.160045815483,4,2,1,90,1,1
100469,131.869580984406,4,2,1,90,1,1
100601,131.580390135857,4,2,1,90,1,1
100733,131.292464906618,4,2,1,90,1,1
100864,131.005797006518,4,2,1,90,1,1
100995,130.720378217628,4,2,1,90,1,1
101126,130.436200393483,4,2,1,90,1,1
101256,130.153255458302,4,2,1,90,1,1
101256,-230.4975,4,2,1,90,0,1
101386,129.871535406227,4,2,1,90,1,1
101516,129.591032300565,4,2,1,90,1,1
101646,129.311738273042,4,2,1,90,1,1
101775,129.03364552307,4,2,1,90,1,1
101904,128.756746317021,4,2,1,90,1,1
102033,128.481032987505,4,2,1,90,1,1
102161,128.20649793267,4,2,1,90,1,1
102289,127.933133615497,4,2,1,90,1,1
102289,-234.4975,4,2,1,90,0,1
102417,127.660932563112,4,2,1,90,1,1
102545,127.389887366108,4,2,1,90,1,1
102672,127.119990677867,4,2,1,90,1,1
102799,126.851235213903,4,2,1,90,1,1
102926,126.5836137512,4,2,1,90,1,1
103053,126.31711912757,4,2,1,90,1,1
103179,126.051744241011,4,2,1,90,1,1
103305,125.787482049078,4,2,1,90,1,1
103305,-238.4975,4,2,1,90,0,1
103431,125.524325568259,4,2,1,90,1,1
103557,125.26226787336,4,2,1,90,1,1
103682,125.001302096897,4,2,1,90,1,1
103807,124.741421428497,4,2,1,90,1,1
103932,124.482619114306,4,2,1,90,1,1
104056,124.224888456402,4,2,1,90,1,1
104180,123.968222812219,4,2,1,90,1,1
104304,123.712615593975,4,2,1,95,1,1
104304,-241.9975,4,2,1,95,0,1
104428,123.45806026811,4,2,1,95,1,1
104551,123.204550354726,4,2,1,95,1,1
104674,122.952079427043,4,2,1,95,1,1
104797,122.70064111085,4,2,1,95,1,1
104920,122.45022908397,4,2,1,95,1,1
105042,122.200837075734,4,2,1,95,1,1
105164,121.952458866452,4,2,1,95,1,1
105286,121.705088286899,4,2,1,95,1,1
105286,-243.90243902439,4,2,1,95,0,1
105408,121.458719217806,4,2,1,95,1,1
105529,121.213345589349,4,2,1,95,1,1
105650,120.968961380659,4,2,1,95,1,1
105771,120.725560619322,4,2,1,95,1,1
105892,120.483137380897,4,2,1,95,1,1
106012,120.241685788435,4,2,1,95,1,1
106132,120.001200012,4,2,1,95,1,1
106252,119.761674268206,4,2,1,95,1,1
106252,-250.497500000001,4,2,1,95,0,1
106372,119.523102819749,4,2,1,95,1,1
106492,119.28547997495,4,2,1,95,1,1
106611,119.048800087302,4,2,1,95,1,1
106730,118.813057555025,4,2,1,95,1,1
106849,118.578246820621,4,2,1,95,1,1
106968,118.344362370438,4,2,1,95,1,1
107086,118.11139873424,4,2,1,95,1,1
107204,117.879350484779,4,2,1,95,1,1
107204,-254.4975,4,2,1,95,0,1
107322,117.648212237375,4,2,1,95,1,1
107440,117.417978649498,4,2,1,95,1,1
107557,117.188644420356,4,2,1,95,1,1
107674,116.96020429049,4,2,1,95,1,1
107791,116.732653041372,4,2,1,95,1,1
107908,116.505985495005,4,2,1,95,1,1
108025,116.280196513532,4,2,1,95,1,1
108141,116.055280998849,4,2,1,95,1,1
108141,-258.4975,4,2,1,95,0,1
108257,115.831233892219,4,2,1,95,1,1
108373,115.608050173894,4,2,1,95,1,1
108489,115.385724862739,4,2,1,95,1,1
108604,115.164253015864,4,2,1,95,1,1
108719,114.943629728254,4,2,1,95,1,1
108834,114.72385013241,4,2,1,95,1,1
108949,114.50490939799,4,2,1,95,1,1
109064,114.286802731455,4,2,1,95,1,1
109064,-259.74025974026,4,2,1,95,0,1
109178,114.069525375716,4,2,1,95,1,1
109292,113.853072609797,4,2,1,95,1,1
109406,113.637439748482,4,2,1,95,1,1
109520,113.422622141986,4,2,1,95,1,1
109633,113.208615175615,4,2,1,95,1,1
109746,112.995414269438,4,2,1,95,1,1
109859,112.783014877959,4,2,1,95,1,1
109972,112.571412489798,4,2,1,95,1,1
109972,-266.497500000001,4,2,1,95,0,1
110085,112.360602627365,4,2,1,95,1,1
110197,112.15058084655,4,2,1,95,1,1
110309,111.941342736406,4,2,1,95,1,1
110421,111.732883918845,4,2,1,95,1,1
110533,111.525200048328,4,2,1,95,1,1
110645,111.318286811566,4,2,1,95,1,1
110756,111.112139927222,4,2,1,95,1,1
110867,110.906755145611,4,2,1,95,1,1
110867,-270.497500000001,4,2,1,95,0,1
110978,110.702128248416,4,2,1,95,1,1
111089,110.498255048389,4,2,1,95,1,1
111199,110.295131389075,4,2,1,95,1,1
111309,110.092753144524,4,2,1,95,1,1
111419,109.891116219013,4,2,1,95,1,1
111529,109.690216546769,4,2,1,95,1,1
111639,109.490050091698,4,2,1,95,1,1
111748,109.290612847112,4,2,1,95,1,1
111748,-274.497499999999,4,2,1,95,0,1
111857,109.091900835462,4,2,1,95,1,1
111966,108.893910108077,4,2,1,95,1,1
112075,108.696636744898,4,2,1,95,1,1
112184,108.500076854221,4,2,1,95,1,1
112293,108.304226572442,4,2,1,95,1,1
112401,108.109082063802,4,2,1,95,1,1
112509,107.91463952014,4,2,1,95,1,1
112617,107.720895160639,4,2,1,95,1,1
112617,-278.497499999999,4,2,1,95,0,1
112725,107.527845231588,4,2,1,95,1,1
112833,107.335486006136,4,2,1,95,1,1
112940,107.143813784052,4,2,1,95,1,1
113047,106.952824891487,4,2,1,95,1,1
113154,106.762515680744,4,2,1,95,1,1
113261,106.57288253004,4,2,1,95,1,1
113368,106.383921843279,4,2,1,95,1,1
113474,106.195630049823,4,2,1,95,1,1
113474,-282.497500000001,4,2,1,95,0,1
113580,106.008003604272,4,2,1,95,1,1
113686,105.821038986234,4,2,1,95,1,1
113792,105.634732700112,4,2,1,95,1,1
113898,105.449081274879,4,2,1,95,1,1
114003,105.264081263871,4,2,1,95,1,1
114108,105.079729244564,4,2,1,95,1,1
114213,104.896021818373,4,2,1,95,1,1
114318,418.848167539267,4,2,1,50,1,0
121857,-100,4,2,1,5,0,0

[Colours]
Combo1 : 255,228,147
Combo2 : 121,234,172
Combo3 : 142,211,253
Combo4 : 252,129,175

[HitObjects]
171,56,9922,6,0,L|168:222,1,142.581315260473,6|8,3:2|0:0,0:0:0:0:
159,339,11104,1,0,3:0:0:0:
280,269,11687,1,8,0:0:0:0:
407,218,12264,2,0,P|395:278|398:328,2,101.637990562038,2|2|2,3:2|0:0|0:0,0:0:0:0:
433,163,13401,1,2,3:2:0:0:
505,48,13962,1,10,0:0:0:0:
371,51,14518,6,0,B|307:49|312:89|234:88,1,132.116155261329,2|8,3:2|0:0,0:0:0:0:
115,74,15613,2,0,L|113:1,2,64.9877887991068,0|0|10,3:0|0:0|0:0,0:0:0:0:
5,134,16690,2,0,B|-11:173|-11:173|19:277,1,127.679264126533,2|8,3:2|0:0,0:0:0:0:
138,264,17747,2,0,P|175:292|219:313,2,93.6771252115483,2|2|0,3:2|3:2|3:2,0:0:0:0:
126,207,18786,6,0,P|167:156|217:124,1,123.322181715058,2|8,3:2|0:0,0:0:0:0:
323,56,19807,2,0,L|315:151,1,80,0|8,3:0|0:0,0:0:0:0:
443,117,20811,2,0,L|454:9,2,89.2598869973136,2|2|0,3:2|0:0|0:0,0:0:0:0:
412,155,21799,2,0,P|399:192|413:258,1,87.8084433583219,2|2,3:2|3:2,0:0:0:0:
485,360,22771,6,0,B|440:342|440:342|350:346,1,115.204609871962,2|8,3:2|0:0,0:0:0:0:
247,353,23727,2,0,L|127:343,1,113.390287141576,2|8,3:2|0:0,0:0:0:0:
49,253,24668,2,0,B|50:194|85:194|79:128,1,111.632236712601,2|8,3:2|0:0,0:0:0:0:
82,91,25363,2,0,P|128:105|194:159,1,110.773491548178,2|0,0:0|0:0,0:0:0:0:
215,181,26053,1,10,0:0:0:0:
287,262,26508,6,0,P|313:249|399:278,1,108.274751146173,2|8,3:2|0:0,0:0:0:0:
432,160,27407,2,0,L|487:158,2,53.3353082328488,0|0|8,3:0|0:0|0:0,0:0:0:0:
362,76,28292,2,0,P|387:46|396:1,2,78.7149976658212,2|2|2,3:2|0:0|0:0,0:0:0:0:
314,97,29165,1,2,3:2:0:0:
214,67,29597,1,10,0:0:0:0:
120,109,30026,6,0,L|131:224,1,102.371277051017,2|8,3:2|0:0,0:0:0:0:
77,297,30875,2,0,P|51:291|22:290,2,50.4714115332437,0|0|10,3:0|0:0|0:0,0:0:0:0:
165,344,31712,2,0,B|204:361|204:361|281:355,1,99.5537665139199,2|8,3:2|0:0,0:0:0:0:
343,302,32537,2,0,P|363:279|370:197,1,97.9625179690035,2|8,3:2|0:0,0:0:0:0:
337,124,33350,6,0,B|239:115|251:185|150:173,1,192.815073452795,2|0,3:2|3:0,0:0:0:0:
64,146,34550,1,10,0:0:0:0:
31,57,34945,2,0,P|74:46|130:59,1,94.120722148479,2|8,3:2|0:0,0:0:0:0:
211,26,35727,2,0,P|254:37|305:26,1,92.9062266228416,2|8,3:2|0:0,0:0:0:0:
389,4,36499,6,0,L|374:194,1,182.965333010498,2|2,3:2|3:2,0:0:0:0:
418,268,37638,1,10,0:0:0:0:
352,342,38013,2,0,P|312:297|193:293,1,178.887545125953,2|2,3:2|3:2,0:0:0:0:
116,334,39124,1,2,0:0:0:0:
22,334,39490,6,0,B|43:295|43:295|39:160,1,174.07074751329,6|2,3:2|3:2,0:0:0:0:
7,82,40574,1,10,0:0:0:0:
76,27,40931,2,0,L|178:32,1,85.2096240484193,0|10,3:2|0:0,0:0:0:0:
248,17,41639,1,2,3:2:0:0:
294,92,41990,1,10,0:0:0:0:
409,217,42686,6,0,P|443:185|477:168,2,80,10|2|10,0:0|3:2|0:0,0:0:0:0:
356,291,43715,1,0,3:2:0:0:
265,295,44054,2,0,P|231:327|185:345,2,80.7582277931995,10|2|10,0:0|3:2|0:0,0:0:0:0:
227,215,45059,6,0,P|176:151|218:81,1,158.880413934994,0|2,3:0|3:2,0:0:0:0:
277,37,46049,1,10,0:0:0:0:
350,85,46375,2,0,L|437:77,1,77.8399404643705,0|10,3:0|0:0,0:0:0:0:
465,164,47022,2,0,L|375:173,1,77.2474086259672,2|10,3:2|0:0,0:0:0:0:
351,253,47662,6,0,B|281:254|283:305|198:299,1,152.144982745486,2|0,3:2|3:0,0:0:0:0:
209,211,48609,1,10,0:0:0:0:
181,126,48922,2,0,B|176:89|176:89|149:49,1,74.8533320695882,2|10,3:2|0:0,0:0:0:0:
62,75,49542,2,0,B|50:112|50:112|54:153,1,74.0880451898969,2|10,0:0|0:0,0:0:0:0:
18,235,50156,6,0,P|80:244|146:314,1,145.956605333607,4|2,3:2|3:2,0:0:0:0:
186,373,51066,1,10,3:2:0:0:
262,329,51366,2,0,L|427:335,1,150.994209793433,0|2,3:0|3:2,0:0:0:0:
501,341,52258,1,10,3:2:0:0:
450,185,52845,6,0,L|466:98,1,73.7882002184423,10|2,3:2|3:2,0:0:0:0:
485,26,53426,1,10,3:2:0:0:
395,10,53714,2,0,P|323:8|266:55,1,145.204692721673,0|2,3:0|3:2,0:0:0:0:
236,141,54571,1,10,3:2:0:0:
218,298,55136,6,0,L|135:284,1,71.0296988294869,8|2,3:2|3:2,0:0:0:0:
80,345,55695,1,10,3:2:0:0:
9,289,55973,2,0,B|4:237|4:237|46:147,1,139.983997908254,0|0,3:0|3:0,0:0:0:0:
84,79,56799,1,10,3:2:0:0:
153,21,57072,6,0,P|186:37|297:44,1,137.306342051987,2|0,3:2|3:0,0:0:0:0:
385,157,58150,2,0,P|309:148|255:175,1,134.860782787705,2|10,3:2|3:2,0:0:0:0:
171,190,58946,1,10,3:2:0:0:
197,276,59209,6,0,L|198:356,1,66.3769965462409,6|10,3:2|3:2,0:0:0:0:
325,315,59861,1,2,3:2:0:0:
448,354,60251,2,0,L|454:283,1,65.490786361572,2|10,3:2|3:2,0:0:0:0:
400,219,60765,2,0,L|406:143,1,72.6822254273558,2|10,3:2|3:2,0:0:0:0:
355,75,61274,2,0,P|323:59|284:58,1,72.1363745778333,2|10,3:2|3:2,0:0:0:0:
164,29,61904,1,2,3:2:0:0:
78,122,62280,2,0,P|51:147|38:174,2,62.9451831739027,2|10|2,3:2|3:2|3:2,0:0:0:0:
89,271,63270,6,0,L|85:346,1,62.2954178341487,2|10,3:2|3:2,0:0:0:0:
196,287,63880,1,2,3:2:0:0:
309,324,64244,2,0,B|357:324|357:324|428:362,1,122.09080219312,2|2,3:2|3:2,0:0:0:0:
492,246,65202,2,0,P|504:217|501:182,1,60.0802409865257,2|10,3:2|3:2,0:0:0:0:
499,71,65792,1,2,3:2:0:0:
392,115,66144,2,0,B|335:115|337:151|267:150,1,118.290237143172,2|2,3:2|3:2,0:0:0:0:
163,204,67073,6,0,L|171:139,1,58.4919993607633,2|8,3:2|3:2,0:0:0:0:
144,23,67646,1,2,3:2:0:0:
24,60,67987,2,0,P|16:95|35:172,1,114.719144455233,2|2,3:2|3:2,0:0:0:0:
102,274,68888,2,0,B|155:267|154:235|214:223,1,113.013258291215,2|0,3:2|0:0,0:0:0:0:
329,170,69775,2,0,P|323:187|325:231,2,55.6786751846476,2|10|2,3:2|3:2|3:2,0:0:0:0:
440,123,70649,6,0,P|463:150|489:223,1,109.749279014675,2|0,3:2|0:0,0:0:0:0:
470,337,71511,2,0,B|436:313|436:313|359:313,1,108.186978533483,2|2,3:2|3:2,0:0:0:0:
254,337,72361,2,0,B|206:331|211:298|147:299,1,106.668533018766,2|0,3:2|0:0,0:0:0:0:
40,301,73199,2,0,L|34:357,2,52.5960660091222,2|10|2,3:2|3:2|3:2,0:0:0:0:
97,201,74025,6,0,L|89:88,1,103.756032577726,6|0,3:2|3:2,0:0:0:0:
188,84,74840,2,0,L|195:191,1,102.197775779232,0|0,3:2|3:2,0:0:0:0:
203,287,75644,1,0,3:2:0:0:
304,273,76042,1,0,3:2:0:0:
401,243,76437,2,0,P|416:267|451:307,2,74.501991721229,2|2|2,3:2|3:2|3:2,0:0:0:0:
394,194,77220,6,0,P|410:155|441:98,1,98.3834661703158,2|0,3:2|3:2,0:0:0:0:
357,33,77993,2,0,B|316:54|316:54|258:60,1,97.1261541636497,0|0,3:2|3:2,0:0:0:0:
167,49,78756,2,0,P|174:101|173:148,1,95.9005640391908,0|0,3:2|3:2,0:0:0:0:
114,218,79510,2,0,L|42:201,2,70.9024788452128,2|2|10,3:2|3:2|3:2,0:0:0:0:
126,262,80254,6,0,B|219:263|201:335|307:322,1,186.319797889961,2|0,3:2|3:2,0:0:0:0:
384,294,81353,1,0,3:2:0:0:
472,318,81715,2,0,P|474:290|450:230,1,91.3143125252754,0|0,3:2|3:2,0:0:0:0:
395,160,82433,2,0,L|415:85,2,67.6048178385355,2|2|2,3:2|3:2|3:2,0:0:0:0:
351,167,83142,6,0,P|266:146|192:200,1,177.541733193389,2|0,3:2|3:2,0:0:0:0:
137,259,84189,1,0,3:2:0:0:
58,296,84534,2,0,P|50:251|66:207,1,87.1072648423843,8|8,3:2|3:2,0:0:0:0:
47,127,85218,2,0,P|78:95|163:89,1,128.926971808225,2|2,3:2|3:2,0:0:0:0:
193,111,85895,6,0,L|191:22,1,85.1552543480646,6|8,3:2|3:2,0:0:0:0:
281,15,86565,2,0,L|282:103,1,84.1922833226291,2|10,3:2|3:2,0:0:0:0:
360,148,87227,2,0,P|375:183|362:232,1,83.2643002742435,2|10,3:2|3:2,0:0:0:0:
327,305,87881,1,2,3:2:0:0:
166,270,88529,6,0,L|159:351,1,81.5024337420026,2|10,3:2|3:2,0:0:0:0:
70,349,89170,2,0,L|77:262,1,80.6376720203329,2|10,3:2|3:2,0:0:0:0:
122,186,89804,1,2,3:2:0:0:
57,121,90118,1,10,3:2:0:0:
72,30,90431,2,0,P|38:30|8:43,2,59.2215469704373,2|2|2,3:2|3:2|3:2,0:0:0:0:
108,44,91052,6,0,B|189:45|177:97|253:91,1,155.79354542264,2|2,3:2|3:2,0:0:0:0:
336,60,91971,1,10,3:2:0:0:
422,82,92275,2,0,L|411:160,1,76.5752732593405,2|10,3:2|3:2,0:0:0:0:
392,243,92877,1,2,3:2:0:0:
260,317,93474,6,0,P|245:295|241:240,1,75.0626568479276,2|10,3:2|3:2,0:0:0:0:
257,163,94064,1,2,3:2:0:0:
352,49,94649,2,0,P|320:54|276:44,1,73.6086412878817,2|10,3:2|3:2,0:0:0:0:
201,87,95228,2,0,P|169:82|128:92,1,73.1558856415556,2|10,3:2|3:2,0:0:0:0:
54,137,95802,6,0,L|61:250,1,108.319386271563,6|2,3:2|3:2,0:0:0:0:
70,332,96512,1,2,3:2:0:0:
173,288,96934,2,0,B|208:274|208:274|284:301,2,111.356083900749,2|2|10,3:2|3:2|3:2,0:0:0:0:
147,205,98045,6,0,P|141:152|164:98,1,109.841074923817,2|2,3:2|3:2,0:0:0:0:
224,37,98728,1,2,3:2:0:0:
323,80,99134,2,0,L|432:65,2,107.466381704719,2|2|10,3:2|3:2|3:2,0:0:0:0:
282,157,100205,6,0,B|288:205|316:205|313:263,1,105.694768928405,2|2,3:2|3:2,0:0:0:0:
302,344,100864,1,2,3:2:0:0:
194,311,101256,2,0,P|157:332|89:338,2,103.722605469498,2|2|10,3:2|3:2|3:2,0:0:0:0:
172,227,102289,6,0,L|186:124,1,102.34650795795,2|2,3:2|3:2,0:0:0:0:
201,42,102926,1,2,3:2:0:0:
295,77,103305,2,0,P|319:38|375:23,2,100.229986669373,2|2|10,3:2|3:2|3:2,0:0:0:0:
290,162,104304,6,0,L|302:264,1,98.9079125836373,6|2,3:2|3:2,0:0:0:0:
316,345,104920,1,2,3:2:0:0:
204,318,105286,2,0,P|193:325|108:328,2,97.7640715938509,2|2|10,3:2|3:2|3:2,0:0:0:0:
179,237,106252,6,0,L|187:137,1,95.8093403483449,2|2,3:2|3:2,0:0:0:0:
195,55,106849,1,10,3:2:0:0:
84,84,107204,2,0,B|47:65|47:65|-6:70,2,93.9034812924807,2|2|10,3:2|3:2|3:2,0:0:0:0:
64,166,108141,6,0,B|62:209|41:207|38:259,1,92.8442256759561,2|2,3:2|3:2,0:0:0:0:
51,340,108719,1,10,3:2:0:0:
166,309,109064,2,0,P|181:320|252:336,2,91.8705950386642,2|2|10,3:2|3:2|3:2,0:0:0:0:
112,243,109972,6,0,P|98:202|114:156,1,90.0571308168596,2|2,3:2|3:2,0:0:0:0:
161,88,110533,1,10,3:2:0:0:
281,88,110867,2,0,B|269:64|269:64|275:-1,2,88.3254049172904,2|2|10,3:2|3:2|3:2,0:0:0:0:
350,142,111748,6,0,P|378:138|411:144,2,58.1549940368813,6|2|2,3:2|3:2|3:2,0:0:0:0:
256,208,112617,2,0,P|260:233|258:267,2,57.4511445893108,6|2|2,3:2|3:2|3:2,0:0:0:0:
162,142,113474,2,0,P|146:145|103:136,2,56.6376698493812,6|2|2,3:2|3:2|3:2,0:0:0:0:
255,80,114318,5,14,3:2:0:0:
256,192,114422,12,0,121857,0:0:0:0:
