osu file format v14

[General]
AudioFilename: audio.mp3
AudioLeadIn: 1000
PreviewTime: 50142
Countdown: 0
SampleSet: Normal
StackLeniency: 0.7
Mode: 3
LetterboxInBreaks: 0
EpilepsyWarning: 1
SpecialStyle: 0
WidescreenStoryboard: 0

[Editor]
DistanceSpacing: 1
BeatDivisor: 4
GridSize: 8
TimelineZoom: 8

[Metadata]
Title:deltaMAX
TitleUnicode:ΔMAX
Artist:DM Ashura
ArtistUnicode:DM Ashura
Creator:Niko_Plays
Version:Extra
Source:DanceDanceRevolution UNIVERSE3
Tags:electronic instrumental video game stepmania how fast can you go ddr forever nm sequence unlimited naoki maeda maxim-miau vincus
BeatmapID:4268981
BeatmapSetID:2045174

[Difficulty]
HPDrainRate:8
CircleSize:4
OverallDifficulty:8
ApproachRate:5
SliderMultiplier:1.4
SliderTickRate:1

[Events]
//Background and Video events
Video,-649,"Qq.mp4"
0,0,"deltaMAX.jpg",0,0
//Break Periods
//Storyboard Layer 0 (Background)
//Storyboard Layer 1 (Fail)
//Storyboard Layer 2 (Pass)
//Storyboard Layer 3 (Foreground)
//Storyboard Layer 4 (Overlay)
//Storyboard Sound Samples

[TimingPoints]
322,600,4,1,1,30,1,0
322,-100,4,1,1,30,0,0
9922,594.088816278034,4,1,1,30,1,0
9922,-101.010101010101,4,1,1,30,0,0
10516,588.264130594637,4,1,1,30,1,0
10516,-102.040816326531,4,1,1,30,0,0
11104,582.552551094713,4,1,1,30,1,0
11104,-103.092783505155,4,1,1,30,0,0
11687,576.950814943026,4,1,1,30,1,0
11687,-104.166666666667,4,1,1,30,0,0
12264,571.455783608743,4,1,1,30,1,0
12264,-105.263157894737,4,1,1,30,0,0
12835,566.064437001745,4,1,1,30,1,0
12835,-106.382978723404,4,1,1,30,0,0
13401,560.773867937754,4,1,1,30,1,0
13401,-107.52688172043,4,1,1,30,0,0
13962,555.581276910968,4,1,1,30,1,0
13962,-107.52688172043,4,1,1,30,0,0
14518,550.483967154457,4,1,1,30,1,0
14518,-108.695652173913,4,1,1,30,0,0
15068,545.479339969999,4,1,1,30,1,0
15068,-109.89010989011,4,1,1,30,0,0
15613,540.564890310374,4,1,1,30,1,0
15613,-111.111111111111,4,1,1,30,0,0
16154,535.73820259833,4,1,1,30,1,0
16154,-112.359550561798,4,1,1,30,0,0
16690,530.996946767556,4,1,1,30,1,0
16690,-113.636363636364,4,1,1,30,0,0
17221,526.33887451204,4,1,1,30,1,0
17221,-113.636363636364,4,1,1,30,0,0
17747,521.761815731119,4,1,1,30,1,0
17747,-114.942528735632,4,1,1,30,0,0
18269,517.263675158412,4,1,1,30,1,0
18269,-116.279069767442,4,1,1,30,0,0
18786,512.84242916364,4,1,1,30,1,0
18786,-117.647058823529,4,1,1,30,0,0
19299,508.496122717064,4,1,1,30,1,0
19299,-117.647058823529,4,1,1,30,0,0
19807,504.222866506996,4,1,1,30,1,0
19807,-119.047619047619,4,1,1,30,0,0
20311,500.020834201425,4,1,1,30,1,0
20311,-120.481927710843,4,1,1,30,0,0
20811,495.888259845448,4,1,1,30,1,0
20811,-120.481927710843,4,1,1,30,0,0
21307,491.823435386696,4,1,1,30,1,0
21307,-121.951219512195,4,1,1,30,0,0
21799,487.824708321476,4,1,1,30,1,0
21799,-123.456790123457,4,1,1,30,0,0
22287,483.890479454817,4,1,1,30,1,0
22287,-123.456790123457,4,1,1,30,0,0
22771,480.019200768031,4,1,1,30,1,0
22771,-125,4,1,1,30,0,0
23251,476.209373387833,4,1,1,30,1,0
23251,-126.582278481013,4,1,1,30,0,0
23727,472.459545651404,4,1,1,30,1,0
23727,-126.582278481013,4,1,1,30,0,0
24199,468.768311262159,4,1,1,30,1,0
24199,-128.205128205128,4,1,1,30,0,0
24668,465.1343075313,4,1,1,30,1,0
24668,-128.205128205128,4,1,1,30,0,0
25133,461.556213700527,4,1,1,30,1,0
25133,-129.87012987013,4,1,1,30,0,0
25595,458.032749341578,4,1,1,30,1,0
25595,-131.578947368421,4,1,1,30,0,0
26053,454.562672828516,4,1,1,30,1,0
26053,-131.578947368421,4,1,1,30,0,0
26508,451.144779878943,4,1,1,30,1,0
26508,-133.333333333333,4,1,1,30,0,0
26959,447.777902160528,4,1,1,30,1,0
26959,-133.333333333333,4,1,1,30,0,0
27407,444.46090595948,4,1,1,30,1,0
27407,-135.135135135135,4,1,1,30,0,0
27851,441.192690907754,4,1,1,30,1,0
27851,-135.135135135135,4,1,1,30,0,0
28292,437.972188766013,4,1,1,30,1,0
28292,-136.986301369863,4,1,1,30,0,0
28730,434.798362259502,4,1,1,30,1,0
28730,-138.888888888889,4,1,1,30,0,0
29165,431.670203964171,4,1,1,30,1,0
29165,-138.888888888889,4,1,1,30,0,0
29597,428.586735240544,4,1,1,30,1,0
29597,-140.845070422535,4,1,1,30,0,0
30026,425.547005212951,4,1,1,30,1,0
30026,-140.845070422535,4,1,1,30,0,0
30452,422.550089791894,4,1,1,30,1,0
30452,-142.857142857143,4,1,1,30,0,0
30875,419.595090737438,4,1,1,30,1,0
30875,-142.857142857143,4,1,1,30,0,0
31295,416.681134761624,4,1,1,30,1,0
31295,-144.927536231884,4,1,1,30,0,0
31712,413.807372668023,4,1,1,30,1,0
31712,-144.927536231884,4,1,1,30,0,0
32126,410.972978526662,4,1,1,30,1,0
32126,-147.058823529412,4,1,1,30,0,0
32537,408.177148882615,4,1,1,30,1,0
32537,-147.058823529412,4,1,1,30,0,0
32945,405.419101996689,4,1,1,30,1,0
32945,-147.058823529412,4,1,1,30,0,0
33350,402.698077116682,4,1,1,30,1,0
33350,-149.253731343284,4,1,1,30,0,0
33753,400.013333777793,4,1,1,30,1,0
33753,-149.253731343284,4,1,1,30,0,0
34153,397.364151130832,4,1,1,30,1,0
34153,-151.515151515152,4,1,1,30,0,0
34550,394.749827296951,4,1,1,30,1,0
34550,-151.515151515152,4,1,1,30,0,0
34945,392.169678747671,4,1,1,30,1,0
34945,-153.846153846154,4,1,1,30,0,0
35337,389.623039709081,4,1,1,30,1,0
35337,-153.846153846154,4,1,1,30,0,0
35727,387.109261589084,4,1,1,30,1,0
35727,-153.846153846154,4,1,1,30,0,0
36114,384.62771242668,4,1,1,30,1,0
36114,-156.25,4,1,1,30,0,0
36499,382.177776362305,4,1,1,30,1,0
36499,-156.25,4,1,1,30,0,0
36881,379.758853128264,4,1,1,30,1,0
36881,-158.730158730159,4,1,1,30,0,0
37261,377.370357558414,4,1,1,30,1,0
37261,-158.730158730159,4,1,1,30,0,0
37638,375.011719116222,4,1,1,30,1,0
37638,-158.730158730159,4,1,1,30,0,0
38013,372.682381440417,4,1,1,30,1,0
38013,-161.290322580645,4,1,1,30,0,0
38386,370.381801907466,4,1,1,30,1,0
38386,-161.290322580645,4,1,1,30,0,0
38756,368.10945121016,4,1,1,30,1,0
38756,-163.934426229508,4,1,1,30,0,0
39124,365.864812951614,4,1,1,30,1,0
39124,-163.934426229508,4,1,1,30,0,0
39490,363.647383254038,4,1,1,30,1,0
39490,-163.934426229508,4,1,1,30,0,0
39854,361.456670381638,4,1,1,30,1,0
39854,-166.666666666667,4,1,1,30,0,0
40215,359.292194377077,4,1,1,30,1,0
40215,-166.666666666667,4,1,1,30,0,0
40574,357.153486710914,4,1,1,30,1,0
40574,-166.666666666667,4,1,1,30,0,0
40931,355.040089943489,4,1,1,30,1,0
40931,-169.491525423729,4,1,1,30,0,0
41286,352.951557398747,4,1,1,30,1,0
41286,-169.491525423729,4,1,1,30,0,0
41639,350.887452849499,4,1,1,30,1,0
41639,-172.413793103448,4,1,1,30,0,0
41990,348.847350213669,4,1,1,30,1,0
41990,-172.413793103448,4,1,1,30,0,0
42339,346.830833261077,4,1,1,30,1,0
42339,-172.413793103448,4,1,1,30,0,0
42686,344.837495330326,4,1,1,30,1,0
42686,-175.438596491228,4,1,1,30,0,0
43031,342.866939055402,4,1,1,30,1,0
43031,-175.438596491228,4,1,1,30,0,0
43374,340.918776101594,4,1,1,30,1,0
43374,-175.438596491228,4,1,1,30,0,0
43715,338.992626910365,4,1,1,30,1,0
43715,-178.571428571429,4,1,1,30,0,0
44054,337.088120452822,4,1,1,30,1,0
44054,-178.571428571429,4,1,1,30,0,0
44391,335.204893991452,4,1,1,30,1,0
44391,-178.571428571429,4,1,1,30,0,0
44726,333.342592849801,4,1,1,30,1,0
44726,-178.571428571429,4,1,1,30,0,0
45059,331.500870189784,4,1,1,30,1,0
45059,-181.818181818182,4,1,1,30,0,0
45391,329.679386796341,4,1,1,30,1,0
45391,-181.818181818182,4,1,1,30,0,0
45721,327.877810869149,4,1,1,30,1,0
45721,-181.818181818182,4,1,1,30,0,0
46049,326.095817821136,4,1,1,30,1,0
46049,-185.185185185185,4,1,1,30,0,0
46375,324.333090083516,4,1,1,30,1,0
46375,-185.185185185185,4,1,1,30,0,0
46699,322.589316917121,4,1,1,30,1,0
46699,-185.185185185185,4,1,1,30,0,0
47022,320.864194229792,4,1,1,30,1,0
47022,-188.679245283019,4,1,1,30,0,0
47343,319.157424399585,4,1,1,30,1,0
47343,-188.679245283019,4,1,1,30,0,0
47662,317.468716103601,4,1,1,30,1,0
47662,-188.679245283019,4,1,1,30,0,0
47979,315.797784152215,4,1,1,30,1,0
47979,-188.679245283019,4,1,1,30,0,0
48295,314.144349328516,4,1,1,30,1,0
48295,-192.307692307692,4,1,1,30,0,0
48609,312.508138232766,4,1,1,30,1,0
48609,-192.307692307692,4,1,1,30,0,0
48922,310.888883131687,4,1,1,30,1,0
48922,-192.307692307692,4,1,1,30,0,0
49233,309.286321812418,4,1,1,30,1,0
49233,-192.307692307692,4,1,1,30,0,0
49542,307.70019744096,4,1,1,30,1,0
49542,-196.078431372549,4,1,1,30,0,0
49850,306.13025842496,4,1,1,30,1,0
49850,-196.078431372549,4,1,1,30,0,0
50156,304.576258280667,4,1,1,30,1,1
50156,-196.078431372549,4,1,1,30,0,1
50461,303.037955503927,4,1,1,30,1,1
50461,-196.078431372549,4,1,1,30,0,1
50764,301.515113445061,4,1,1,30,1,1
50764,-200,4,1,1,30,0,1
51066,300.007500187505,4,1,1,30,1,1
51066,-200,4,1,1,30,0,1
51366,298.51488843006,4,1,1,30,1,1
51366,-200,4,1,1,30,0,1
51665,297.037055372658,4,1,1,30,1,1
51665,-200,4,1,1,30,0,1
51962,295.573782605483,4,1,1,30,1,1
51962,-204.081632653061,4,1,1,30,0,1
52258,294.124856001373,4,1,1,30,1,1
52258,-204.081632653061,4,1,1,30,0,1
52552,292.690065611356,4,1,1,30,1,1
52552,-204.081632653061,4,1,1,30,0,1
52845,291.269205563242,4,1,1,30,1,1
52845,-204.081632653061,4,1,1,30,0,1
53136,289.862073963139,4,1,1,30,1,1
53136,-208.333333333333,4,1,1,30,0,1
53426,288.468472799827,4,1,1,30,1,1
53426,-208.333333333333,4,1,1,30,0,1
53714,287.088207851862,4,1,1,30,1,1
53714,-208.333333333333,4,1,1,30,0,1
54001,285.721088597348,4,1,1,30,1,1
54001,-208.333333333333,4,1,1,30,0,1
54287,284.366928126259,4,1,1,30,1,1
54287,-212.765957446809,4,1,1,30,0,1
54571,283.025543055261,4,1,1,30,1,1
54571,-212.765957446809,4,1,1,30,0,1
54854,281.696753444917,4,1,1,30,1,1
54854,-212.765957446809,4,1,1,30,0,1
55136,280.380382719222,4,1,1,30,1,1
55136,-212.765957446809,4,1,1,30,0,1
55416,279.076257587386,4,1,1,30,1,1
55416,-212.765957446809,4,1,1,30,0,1
55695,277.784207967777,4,1,1,30,1,1
55695,-217.391304347826,4,1,1,30,0,1
55973,276.504066913984,4,1,1,30,1,1
55973,-217.391304347826,4,1,1,30,0,1
56250,275.235670542902,4,1,1,30,1,1
56250,-217.391304347826,4,1,1,30,0,1
56525,273.978857964794,4,1,1,30,1,1
56525,-217.391304347826,4,1,1,30,0,1
56799,272.733471215255,4,1,1,30,1,1
56799,-222.222222222222,4,1,1,30,0,1
57072,271.499355189031,4,1,1,30,1,1
57072,-222.222222222222,4,1,1,30,0,1
57343,270.276357575621,4,1,1,30,1,1
57343,-222.222222222222,4,1,1,30,0,1
57613,269.06432879661,4,1,1,30,1,1
57613,-222.222222222222,4,1,1,30,0,1
57882,267.863121944686,4,1,1,30,1,1
57882,-222.222222222222,4,1,1,30,0,1
58150,266.672592724283,4,1,1,30,1,1
58150,-227.272727272727,4,1,1,30,0,1
58417,265.492599393792,4,1,1,30,1,1
58417,-227.272727272727,4,1,1,30,0,1
58682,264.323002709311,4,1,1,30,1,1
58682,-227.272727272727,4,1,1,30,0,1
58946,263.163665869866,4,1,1,30,1,1
58946,-227.272727272727,4,1,1,30,0,1
59209,262.014454464071,4,1,1,30,1,0
59209,-227.272727272727,4,1,1,30,0,0
59471,260.875236418183,4,1,1,30,1,0
59471,-232.558139534884,4,1,1,30,0,0
59732,259.745881945497,4,1,1,30,1,0
59732,-232.558139534884,4,1,1,30,0,0
59992,258.626263497058,4,1,1,30,1,0
59992,-232.558139534884,4,1,1,30,0,0
60251,257.516255713642,4,1,1,30,1,0
60251,-232.558139534884,4,1,1,30,0,0
60509,256.415735378961,4,1,1,30,1,0
60509,-232.558139534884,4,1,1,30,0,0
60765,255.324581374072,4,1,1,30,1,0
60765,-232.558139534884,4,1,1,30,0,0
61020,254.242674632937,4,1,1,30,1,0
61020,-238.095238095238,4,1,1,30,0,0
61274,253.169898099116,4,1,1,30,1,0
61274,-238.095238095238,4,1,1,30,0,0
61527,252.106136683544,4,1,1,30,1,0
61527,-238.095238095238,4,1,1,30,0,0
61779,251.051277223373,4,1,1,30,1,0
61779,-238.095238095238,4,1,1,30,0,0
62030,250.005208441843,4,1,1,30,1,0
62030,-238.095238095238,4,1,1,30,0,0
62280,248.967820909147,4,1,1,30,1,0
62280,-243.90243902439,4,1,1,30,0,0
62529,247.939007004277,4,1,1,30,1,0
62529,-243.90243902439,4,1,1,30,0,0
62776,246.918660877796,4,1,1,30,1,0
62776,-243.90243902439,4,1,1,30,0,0
63024,245.906678415541,4,1,1,30,1,0
63024,-243.90243902439,4,1,1,30,0,0
63270,244.902957203208,4,1,1,30,1,0
63270,-243.90243902439,4,1,1,30,0,0
63515,243.907396491799,4,1,1,30,1,0
63515,-243.90243902439,4,1,1,30,0,0
63759,242.91989716391,4,1,1,30,1,0
63759,-250,4,1,1,30,0,0
64002,241.940361700841,4,1,1,30,1,0
64002,-250,4,1,1,30,0,0
64244,240.968694150485,4,1,1,30,1,0
64244,-250,4,1,1,30,0,0
64485,240.004800096002,4,1,1,30,1,0
64485,-250,4,1,1,30,0,0
64725,239.048586625232,4,1,1,30,1,0
64725,-250,4,1,1,30,0,0
64964,238.099962300839,4,1,1,30,1,0
64964,-250,4,1,1,30,0,0
65202,237.158837131169,4,1,1,30,1,0
65202,-250,4,1,1,30,0,0
65439,236.225122541782,4,1,1,30,1,0
65439,-256.410256410256,4,1,1,30,0,0
65675,235.298731347673,4,1,1,30,1,0
65675,-256.410256410256,4,1,1,30,0,0
65910,234.379577726127,4,1,1,30,1,0
65910,-256.410256410256,4,1,1,30,0,0
66144,233.467577190218,4,1,1,30,1,0
66144,-256.410256410256,4,1,1,30,0,0
66377,232.562646562918,4,1,1,30,1,0
66377,-256.410256410256,4,1,1,30,0,0
66609,231.664703951814,4,1,1,30,1,0
66609,-256.410256410256,4,1,1,30,0,0
66842,230.773668724399,4,1,1,30,1,0
66842,-263.157894736842,4,1,1,30,0,0
67073,229.889461483936,4,1,1,30,1,0
67073,-263.157894736842,4,1,1,30,0,0
67303,229.012004045879,4,1,1,30,1,0
67303,-263.157894736842,4,1,1,30,0,0
67532,228.141219414818,4,1,1,30,1,0
67532,-263.157894736842,4,1,1,30,0,0
67760,227.277031761965,4,1,1,30,1,0
67760,-263.157894736842,4,1,1,30,0,0
67987,226.41936640314,4,1,1,30,1,0
67987,-263.157894736842,4,1,1,30,0,0
68213,225.568149777251,4,1,1,30,1,0
68213,-263.157894736842,4,1,1,30,0,0
68439,224.72330942527,4,1,1,30,1,0
68439,-270.27027027027,4,1,1,30,0,0
68664,223.884773969664,4,1,1,30,1,0
68664,-270.27027027027,4,1,1,30,0,0
68888,223.052473094295,4,1,1,30,1,0
68888,-270.27027027027,4,1,1,30,0,0
69111,222.226337524769,4,1,1,30,1,0
69111,-270.27027027027,4,1,1,30,0,0
69333,221.406299009207,4,1,1,30,1,0
69333,-270.27027027027,4,1,1,30,0,0
69554,220.592290299454,4,1,1,30,1,0
69554,-270.27027027027,4,1,1,30,0,0
69775,219.784245132695,4,1,1,30,1,0
69775,-270.27027027027,4,1,1,30,0,0
69995,218.982098213471,4,1,1,30,1,0
69995,-277.777777777778,4,1,1,30,0,0
70214,218.185785196094,4,1,1,30,1,0
70214,-277.777777777778,4,1,1,30,0,0
70432,217.39524266744,4,1,1,30,1,0
70432,-277.777777777778,4,1,1,30,0,0
70649,216.610408130111,4,1,1,30,1,0
70649,-277.777777777778,4,1,1,30,0,0
70866,215.831219985971,4,1,1,30,1,0
70866,-277.777777777778,4,1,1,30,0,0
71082,215.057617520027,4,1,1,30,1,0
71082,-277.777777777778,4,1,1,30,0,0
71297,214.289540884659,4,1,1,30,1,0
71297,-277.777777777778,4,1,1,30,0,0
71511,213.526931084183,4,1,1,30,1,0
71511,-277.777777777778,4,1,1,30,0,0
71725,212.769729959751,4,1,1,30,1,0
71725,-285.714285714286,4,1,1,30,0,0
71938,212.017880174561,4,1,1,30,1,0
71938,-285.714285714286,4,1,1,30,0,0
72150,211.271325199387,4,1,1,30,1,0
72150,-285.714285714286,4,1,1,30,0,0
72361,210.530009298409,4,1,1,30,1,0
72361,-285.714285714286,4,1,1,30,0,0
72572,209.793877515341,4,1,1,30,1,0
72572,-285.714285714286,4,1,1,30,0,0
72782,209.062875659855,4,1,1,30,1,0
72782,-285.714285714286,4,1,1,30,0,0
72991,208.336950294276,4,1,1,30,1,0
72991,-285.714285714286,4,1,1,30,0,0
73199,207.616048720566,4,1,1,30,1,0
73199,-285.714285714286,4,1,1,30,0,0
73407,206.900118967568,4,1,1,30,1,0
73407,-294.117647058824,4,1,1,30,0,0
73614,206.189109778519,4,1,1,30,1,0
73614,-294.117647058824,4,1,1,30,0,0
73820,205.482970598812,4,1,1,30,1,0
73820,-294.117647058824,4,1,1,30,0,0
74025,204.78165156402,4,1,1,30,1,0
74025,-294.117647058824,4,1,1,30,0,0
74230,204.085103488155,4,1,1,30,1,0
74230,-294.117647058824,4,1,1,30,0,0
74434,203.393277852167,4,1,1,30,1,0
74434,-294.117647058824,4,1,1,30,0,0
74637,202.706126792682,4,1,1,30,1,0
74637,-294.117647058824,4,1,1,30,0,0
74840,202.023603090961,4,1,1,30,1,0
74840,-294.117647058824,4,1,1,30,0,0
75042,201.345660162083,4,1,1,30,1,0
75042,-294.117647058824,4,1,1,30,0,0
75243,200.672252044349,4,1,1,30,1,0
75243,-303.030303030303,4,1,1,30,0,0
75444,200.00333338889,4,1,1,30,1,0
75444,-303.030303030303,4,1,1,30,0,0
75644,199.338859449493,4,1,1,30,1,0
75644,-303.030303030303,4,1,1,30,0,0
75843,198.678786072617,4,1,1,30,1,0
75843,-303.030303030303,4,1,1,30,0,0
76042,198.023069687619,4,1,1,30,1,0
76042,-303.030303030303,4,1,1,30,0,0
76240,197.371667297159,4,1,1,30,1,0
76240,-303.030303030303,4,1,1,30,0,0
76437,196.724536467811,4,1,1,30,1,0
76437,-303.030303030303,4,1,1,30,0,0
76634,196.081635320839,4,1,1,30,1,0
76634,-303.030303030303,4,1,1,30,0,0
76830,195.442922523168,4,1,1,30,1,0
76830,-303.030303030303,4,1,1,30,0,0
77025,194.808357278527,4,1,1,30,1,0
77025,-312.5,4,1,1,30,0,0
77220,194.177899318759,4,1,1,30,1,0
77220,-312.5,4,1,1,30,0,0
77414,193.551508895305,4,1,1,30,1,0
77414,-312.5,4,1,1,30,0,0
77608,192.929146770848,4,1,1,30,1,0
77608,-312.5,4,1,1,30,0,0
77801,192.310774211125,4,1,1,30,1,0
77801,-312.5,4,1,1,30,0,0
77993,191.696352976885,4,1,1,30,1,0
77993,-312.5,4,1,1,30,0,0
78185,191.085845316008,4,1,1,30,1,0
78185,-312.5,4,1,1,30,0,0
78376,190.479213955777,4,1,1,30,1,0
78376,-312.5,4,1,1,30,0,0
78566,189.876422095286,4,1,1,30,1,0
78566,-312.5,4,1,1,30,0,0
78756,189.277433398003,4,1,1,30,1,0
78756,-312.5,4,1,1,30,0,0
78945,188.682211984465,4,1,1,30,1,0
78945,-322.58064516129,4,1,1,30,0,0
79134,188.090722425116,4,1,1,30,1,0
79134,-322.58064516129,4,1,1,30,0,0
79322,187.502929733277,4,1,1,30,1,0
79322,-322.58064516129,4,1,1,30,0,0
79510,186.918799358245,4,1,1,30,1,0
79510,-322.58064516129,4,1,1,30,0,0
79697,186.338297178528,4,1,1,30,1,0
79697,-322.58064516129,4,1,1,30,0,0
79883,185.761389495193,4,1,1,30,1,0
79883,-322.58064516129,4,1,1,30,0,0
80069,185.188043025355,4,1,1,30,1,0
80069,-322.58064516129,4,1,1,30,0,0
80254,184.618224895768,4,1,1,30,1,0
80254,-322.58064516129,4,1,1,30,0,0
80438,184.051902636544,4,1,1,30,1,0
80438,-322.58064516129,4,1,1,30,0,0
80623,183.489044174987,4,1,1,30,1,0
80623,-322.58064516129,4,1,1,30,0,0
80805,182.92961782954,4,1,1,30,1,0
80805,-333.333333333333,4,1,1,30,0,0
80989,182.373592303834,4,1,1,30,1,0
80989,-333.333333333333,4,1,1,30,0,0
81171,181.820936680859,4,1,1,30,1,0
81171,-333.333333333333,4,1,1,30,0,0
81353,181.271620417227,4,1,1,30,1,0
81353,-333.333333333333,4,1,1,30,0,0
81534,180.72561333755,4,1,1,30,1,0
81534,-333.333333333333,4,1,1,30,0,0
81715,180.182885628913,4,1,1,30,1,0
81715,-333.333333333333,4,1,1,30,0,0
81895,179.643407835447,4,1,1,30,1,0
81895,-333.333333333333,4,1,1,30,0,0
82075,179.107150852998,4,1,1,30,1,0
82075,-333.333333333333,4,1,1,30,0,0
82254,178.574085923898,4,1,1,30,1,0
82254,-333.333333333333,4,1,1,30,0,0
82433,178.044184631819,4,1,1,30,1,0
82433,-333.333333333333,4,1,1,30,0,0
82611,177.517418896729,4,1,1,30,1,0
82611,-333.333333333333,4,1,1,30,0,0
82789,176.993760969926,4,1,1,30,1,0
82789,-344.827586206897,4,1,1,30,0,0
82966,176.473183429168,4,1,1,30,1,0
82966,-344.827586206897,4,1,1,30,0,0
83142,175.955659173888,4,1,1,30,1,0
83142,-344.827586206897,4,1,1,30,0,0
83318,175.441161420489,4,1,1,30,1,0
83318,-344.827586206897,4,1,1,30,0,0
83493,174.929663697722,4,1,1,30,1,0
83493,-344.827586206897,4,1,1,30,0,0
83668,174.421139842149,4,1,1,30,1,0
83668,-344.827586206897,4,1,1,30,0,0
83842,173.915563993681,4,1,1,30,1,0
83842,-344.827586206897,4,1,1,30,0,0
84016,173.412910591194,4,1,1,30,1,0
84016,-344.827586206897,4,1,1,30,0,0
84189,172.913154368219,4,1,1,30,1,0
84189,-344.827586206897,4,1,1,30,0,0
84362,172.416270348712,4,1,1,30,1,0
84362,-344.827586206897,4,1,1,30,0,0
84534,171.922233842892,4,1,1,30,1,0
84534,-344.827586206897,4,1,1,30,0,0
84706,171.431020443149,4,1,1,30,1,0
84706,-344.827586206897,4,1,1,30,0,0
84877,170.942606020029,4,1,1,30,1,0
84877,-357.142857142857,4,1,1,30,0,0
85048,170.456966718277,4,1,1,30,1,0
85048,-357.142857142857,4,1,1,30,0,0
85218,169.97407895296,4,1,1,30,1,0
85218,-357.142857142857,4,1,1,30,0,0
85388,169.493919405641,4,1,1,30,1,0
85388,-357.142857142857,4,1,1,30,0,0
85557,169.016465020634,4,1,1,30,1,0
85557,-357.142857142857,4,1,1,30,0,0
85726,168.541693001306,4,1,1,30,1,0
85726,-357.142857142857,4,1,1,30,0,0
85895,168.069580806454,4,1,1,30,1,0
85895,-357.142857142857,4,1,1,30,0,0
86063,167.600106146734,4,1,1,30,1,0
86063,-357.142857142857,4,1,1,30,0,0
86231,167.133246981156,4,1,1,30,1,0
86231,-357.142857142857,4,1,1,30,0,0
86398,166.668981513632,4,1,1,30,1,0
86398,-357.142857142857,4,1,1,30,0,0
86565,166.207288189587,4,1,1,30,1,0
86565,-357.142857142857,4,1,1,30,0,0
86731,165.74814569262,4,1,1,30,1,0
86731,-357.142857142857,4,1,1,30,0,0
86897,165.291532941225,4,1,1,30,1,0
86897,-357.142857142857,4,1,1,30,0,0
87062,164.837429085564,4,1,1,30,1,0
87062,-370.37037037037,4,1,1,30,0,0
87227,164.385813504295,4,1,1,30,1,0
87227,-370.37037037037,4,1,1,30,0,0
87391,163.936665801445,4,1,1,30,1,0
87391,-370.37037037037,4,1,1,30,0,0
87555,163.489965803349,4,1,1,30,1,0
87555,-370.37037037037,4,1,1,30,0,0
87718,163.045693555619,4,1,1,30,1,0
87718,-370.37037037037,4,1,1,30,0,0
87881,162.60382932018,4,1,1,30,1,0
87881,-370.37037037037,4,1,1,30,0,0
88044,162.164353572346,4,1,1,30,1,0
88044,-370.37037037037,4,1,1,30,0,0
88206,161.727246997938,4,1,1,30,1,0
88206,-370.37037037037,4,1,1,30,0,0
88368,161.292490490464,4,1,1,30,1,0
88368,-370.37037037037,4,1,1,30,0,0
88529,160.860065148326,4,1,1,30,1,0
88529,-370.37037037037,4,1,1,30,0,0
88690,160.429952272089,4,1,1,30,1,0
88690,-370.37037037037,4,1,1,30,0,0
88850,160.002133361778,4,1,1,30,1,0
88850,-370.37037037037,4,1,1,30,0,0
89010,159.57659011423,4,1,1,30,1,0
89010,-370.37037037037,4,1,1,30,0,0
89170,159.153304420483,4,1,1,30,1,0
89170,-370.37037037037,4,1,1,30,0,0
89329,158.732258363206,4,1,1,30,1,0
89329,-384.615384615385,4,1,1,30,0,0
89488,158.313434214172,4,1,1,30,1,0
89488,-384.615384615385,4,1,1,30,0,0
89646,157.896814431769,4,1,1,30,1,0
89646,-384.615384615385,4,1,1,30,0,0
89804,157.482381658552,4,1,1,30,1,0
89804,-384.615384615385,4,1,1,30,0,0
89961,157.070118718831,4,1,1,30,1,0
89961,-384.615384615385,4,1,1,30,0,0
90118,156.6600086163,4,1,1,30,1,0
90118,-384.615384615385,4,1,1,30,0,0
90275,156.2520345317,4,1,1,30,1,0
90275,-384.615384615385,4,1,1,30,0,0
90431,155.846179820517,4,1,1,30,1,0
90431,-384.615384615385,4,1,1,30,0,0
90587,155.442428010726,4,1,1,30,1,0
90587,-384.615384615385,4,1,1,30,0,0
90742,155.040762800553,4,1,1,30,1,0
90742,-384.615384615385,4,1,1,30,0,0
90897,154.641168056289,4,1,1,30,1,0
90897,-384.615384615385,4,1,1,30,0,0
91052,154.243627810126,4,1,1,30,1,0
91052,-384.615384615385,4,1,1,30,0,0
91206,153.848126258029,4,1,1,30,1,0
91206,-384.615384615385,4,1,1,30,0,0
91360,153.454647757644,4,1,1,30,1,0
91360,-384.615384615385,4,1,1,30,0,0
91513,153.063176826235,4,1,1,30,1,0
91513,-384.615384615385,4,1,1,30,0,0
91666,152.673698138653,4,1,1,30,1,0
91666,-400,4,1,1,30,0,0
91819,152.286196525337,4,1,1,30,1,0
91819,-400,4,1,1,30,0,0
91971,151.900656970341,4,1,1,30,1,0
91971,-400,4,1,1,30,0,0
92123,151.517064609402,4,1,1,30,1,0
92123,-400,4,1,1,30,0,0
92275,151.135404728019,4,1,1,30,1,0
92275,-400,4,1,1,30,0,0
92426,150.755662759582,4,1,1,30,1,0
92426,-400,4,1,1,30,0,0
92577,150.377824283512,4,1,1,30,1,0
92577,-400,4,1,1,30,0,0
92727,150.001875023438,4,1,1,30,1,0
92727,-400,4,1,1,30,0,0
92877,149.627800845397,4,1,1,30,1,0
92877,-400,4,1,1,30,0,0
93027,149.255587756067,4,1,1,30,1,0
93027,-400,4,1,1,30,0,0
93176,148.885221901016,4,1,1,30,1,0
93176,-400,4,1,1,30,0,0
93325,148.51668956299,4,1,1,30,1,0
93325,-400,4,1,1,30,0,0
93474,148.149977160212,4,1,1,30,1,0
93474,-400,4,1,1,30,0,0
93622,147.78507124472,4,1,1,30,1,0
93622,-400,4,1,1,30,0,0
93770,147.421958500719,4,1,1,30,1,0
93770,-400,4,1,1,30,0,0
93917,147.060625742963,4,1,1,30,1,0
93917,-400,4,1,1,30,0,0
94064,146.701059915158,4,1,1,30,1,0
94064,-416.666666666667,4,1,1,30,0,0
94211,146.343248088391,4,1,1,30,1,0
94211,-416.666666666667,4,1,1,30,0,0
94357,145.98717745958,4,1,1,30,1,0
94357,-416.666666666667,4,1,1,30,0,0
94503,145.632835349944,4,1,1,30,1,0
94503,-416.666666666667,4,1,1,30,0,0
94649,145.280209203501,4,1,1,30,1,0
94649,-416.666666666667,4,1,1,30,0,0
94794,144.929286585587,4,1,1,30,1,0
94794,-416.666666666667,4,1,1,30,0,0
94939,144.580055181388,4,1,1,30,1,0
94939,-416.666666666667,4,1,1,30,0,0
95084,144.232502794505,4,1,1,30,1,0
95084,-416.666666666667,4,1,1,30,0,0
95228,143.886617345532,4,1,1,30,1,0
95228,-416.666666666667,4,1,1,30,0,0
95372,143.542386870656,4,1,1,30,1,0
95372,-416.666666666667,4,1,1,30,0,0
95516,143.199799520281,4,1,1,30,1,0
95516,-416.666666666667,4,1,1,30,0,0
95659,142.858843557661,4,1,1,30,1,0
95659,-416.666666666667,4,1,1,30,0,0
95802,142.51950735757,4,1,1,30,1,1
95802,-416.666666666667,4,1,1,30,0,1
95945,142.181779404969,4,1,1,30,1,1
95945,-416.666666666667,4,1,1,30,0,1
96087,141.845648293715,4,1,1,30,1,1
96087,-416.666666666667,4,1,1,30,0,1
96229,141.511102725268,4,1,1,30,1,1
96229,-416.666666666667,4,1,1,30,0,1
96371,141.178131507429,4,1,1,30,1,1
96371,-416.666666666667,4,1,1,30,0,1
96512,140.846723553093,4,1,1,30,1,1
96512,-434.782608695652,4,1,1,30,0,1
96653,140.516867879015,4,1,1,30,1,1
96653,-434.782608695652,4,1,1,30,0,1
96794,140.188553604598,4,1,1,30,1,1
96794,-434.782608695652,4,1,1,30,0,1
96934,139.861769950699,4,1,1,30,1,1
96934,-434.782608695652,4,1,1,30,0,1
97074,139.536506238445,4,1,1,30,1,1
97074,-434.782608695652,4,1,1,30,0,1
97214,139.212751888073,4,1,1,30,1,1
97214,-434.782608695652,4,1,1,30,0,1
97353,138.890496417783,4,1,1,30,1,1
97353,-434.782608695652,4,1,1,30,0,1
97492,138.569729442603,4,1,1,30,1,1
97492,-434.782608695652,4,1,1,30,0,1
97631,138.25044067328,4,1,1,30,1,1
97631,-434.782608695652,4,1,1,30,0,1
97769,137.932619915171,4,1,1,30,1,1
97769,-434.782608695652,4,1,1,30,0,1
97907,137.616257067168,4,1,1,30,1,1
97907,-434.782608695652,4,1,1,30,0,1
98045,137.301342120619,4,1,1,30,1,1
98045,-434.782608695652,4,1,1,30,0,1
98182,136.987865158278,4,1,1,30,1,1
98182,-434.782608695652,4,1,1,30,0,1
98319,136.675816353261,4,1,1,30,1,1
98319,-434.782608695652,4,1,1,30,0,1
98456,136.365185968022,4,1,1,30,1,1
98456,-434.782608695652,4,1,1,30,0,1
98592,136.055964353337,4,1,1,30,1,1
98592,-434.782608695652,4,1,1,30,0,1
98728,135.748141947307,4,1,1,30,1,1
98728,-434.782608695652,4,1,1,30,0,1
98864,135.441709274371,4,1,1,30,1,1
98864,-434.782608695652,4,1,1,30,0,1
98999,135.136656944335,4,1,1,30,1,1
98999,-434.782608695652,4,1,1,30,0,1
99134,134.832975651412,4,1,1,30,1,1
99134,-454.545454545455,4,1,1,30,0,1
99269,134.530656173275,4,1,1,30,1,1
99269,-454.545454545455,4,1,1,30,0,1
99404,134.229689370127,4,1,1,30,1,1
99404,-454.545454545455,4,1,1,30,0,1
99538,133.930066183774,4,1,1,30,1,1
99538,-454.545454545455,4,1,1,30,0,1
99672,133.631777636722,4,1,1,30,1,1
99672,-454.545454545455,4,1,1,30,0,1
99806,133.334814831276,4,1,1,30,1,1
99806,-454.545454545455,4,1,1,30,0,1
99939,133.039168948658,4,1,1,30,1,1
99939,-454.545454545455,4,1,1,30,0,1
100072,132.744831248133,4,1,1,30,1,1
100072,-454.545454545455,4,1,1,30,0,1
100205,132.451793066149,4,1,1,30,1,1
100205,-454.545454545455,4,1,1,30,0,1
100337,132.160045815483,4,1,1,30,1,1
100337,-454.545454545455,4,1,1,30,0,1
100469,131.869580984406,4,1,1,30,1,1
100469,-454.545454545455,4,1,1,30,0,1
100601,131.580390135857,4,1,1,30,1,1
100601,-454.545454545455,4,1,1,30,0,1
100733,131.292464906618,4,1,1,30,1,1
100733,-454.545454545455,4,1,1,30,0,1
100864,131.005797006518,4,1,1,30,1,1
100864,-454.545454545455,4,1,1,30,0,1
100995,130.720378217628,4,1,1,30,1,1
100995,-454.545454545455,4,1,1,30,0,1
101126,130.436200393483,4,1,1,30,1,1
101126,-454.545454545455,4,1,1,30,0,1
101256,130.153255458302,4,1,1,30,1,1
101256,-454.545454545455,4,1,1,30,0,1
101386,129.871535406227,4,1,1,30,1,1
101386,-454.545454545455,4,1,1,30,0,1
101516,129.591032300565,4,1,1,30,1,1
101516,-454.545454545455,4,1,1,30,0,1
101646,129.311738273042,4,1,1,30,1,1
101646,-454.545454545455,4,1,1,30,0,1
101775,129.03364552307,4,1,1,30,1,1
101775,-454.545454545455,4,1,1,30,0,1
101904,128.756746317021,4,1,1,30,1,1
101904,-476.190476190476,4,1,1,30,0,1
102033,128.481032987505,4,1,1,30,1,1
102033,-476.190476190476,4,1,1,30,0,1
102161,128.20649793267,4,1,1,30,1,1
102161,-476.190476190476,4,1,1,30,0,1
102289,127.933133615497,4,1,1,30,1,1
102289,-476.190476190476,4,1,1,30,0,1
102417,127.660932563112,4,1,1,30,1,1
102417,-476.190476190476,4,1,1,30,0,1
102545,127.389887366108,4,1,1,30,1,1
102545,-476.190476190476,4,1,1,30,0,1
102672,127.119990677867,4,1,1,30,1,1
102672,-476.190476190476,4,1,1,30,0,1
102799,126.851235213903,4,1,1,30,1,1
102799,-476.190476190476,4,1,1,30,0,1
102926,126.5836137512,4,1,1,30,1,1
102926,-476.190476190476,4,1,1,30,0,1
103053,126.31711912757,4,1,1,30,1,1
103053,-476.190476190476,4,1,1,30,0,1
103179,126.051744241011,4,1,1,30,1,1
103179,-476.190476190476,4,1,1,30,0,1
103305,125.787482049078,4,1,1,30,1,1
103305,-476.190476190476,4,1,1,30,0,1
103431,125.524325568259,4,1,1,30,1,1
103431,-476.190476190476,4,1,1,30,0,1
103557,125.26226787336,4,1,1,30,1,1
103557,-476.190476190476,4,1,1,30,0,1
103682,125.001302096897,4,1,1,30,1,1
103682,-476.190476190476,4,1,1,30,0,1
103807,124.741421428497,4,1,1,30,1,1
103807,-476.190476190476,4,1,1,30,0,1
103932,124.482619114306,4,1,1,30,1,1
103932,-476.190476190476,4,1,1,30,0,1
104056,124.224888456402,4,1,1,30,1,1
104056,-476.190476190476,4,1,1,30,0,1
104180,123.968222812219,4,1,1,30,1,1
104180,-476.190476190476,4,1,1,30,0,1
104304,123.712615593975,4,1,1,30,1,1
104304,-476.190476190476,4,1,1,30,0,1
104428,123.45806026811,4,1,1,30,1,1
104428,-476.190476190476,4,1,1,30,0,1
104551,123.204550354726,4,1,1,30,1,1
104551,-476.190476190476,4,1,1,30,0,1
104674,122.952079427043,4,1,1,30,1,1
104674,-500,4,1,1,30,0,1
104797,122.70064111085,4,1,1,30,1,1
104797,-500,4,1,1,30,0,1
104920,122.45022908397,4,1,1,30,1,1
104920,-500,4,1,1,30,0,1
105042,122.200837075734,4,1,1,30,1,1
105042,-500,4,1,1,30,0,1
105164,121.952458866452,4,1,1,30,1,1
105164,-500,4,1,1,30,0,1
105286,121.705088286899,4,1,1,30,1,1
105286,-500,4,1,1,30,0,1
105408,121.458719217806,4,1,1,30,1,1
105408,-500,4,1,1,30,0,1
105529,121.213345589349,4,1,1,30,1,1
105529,-500,4,1,1,30,0,1
105650,120.968961380659,4,1,1,30,1,1
105650,-500,4,1,1,30,0,1
105771,120.725560619322,4,1,1,30,1,1
105771,-500,4,1,1,30,0,1
105892,120.483137380897,4,1,1,30,1,1
105892,-500,4,1,1,30,0,1
106012,120.241685788435,4,1,1,30,1,1
106012,-500,4,1,1,30,0,1
106132,120.001200012,4,1,1,30,1,1
106132,-500,4,1,1,30,0,1
106252,119.761674268206,4,1,1,30,1,1
106252,-500,4,1,1,30,0,1
106372,119.523102819749,4,1,1,30,1,1
106372,-500,4,1,1,30,0,1
106492,119.28547997495,4,1,1,30,1,1
106492,-500,4,1,1,30,0,1
106611,119.048800087302,4,1,1,30,1,1
106611,-500,4,1,1,30,0,1
106730,118.813057555025,4,1,1,30,1,1
106730,-500,4,1,1,30,0,1
106849,118.578246820621,4,1,1,30,1,1
106849,-500,4,1,1,30,0,1
106968,118.344362370438,4,1,1,30,1,1
106968,-500,4,1,1,30,0,1
107086,118.11139873424,4,1,1,30,1,1
107086,-500,4,1,1,30,0,1
107204,117.879350484779,4,1,1,30,1,1
107204,-500,4,1,1,30,0,1
107322,117.648212237375,4,1,1,30,1,1
107322,-500,4,1,1,30,0,1
107440,117.417978649498,4,1,1,30,1,1
107440,-500,4,1,1,30,0,1
107557,117.188644420356,4,1,1,30,1,1
107557,-500,4,1,1,30,0,1
107674,116.96020429049,4,1,1,30,1,1
107674,-526.315789473684,4,1,1,30,0,1
107791,116.732653041372,4,1,1,30,1,1
107791,-526.315789473684,4,1,1,30,0,1
107908,116.505985495005,4,1,1,30,1,1
107908,-526.315789473684,4,1,1,30,0,1
108025,116.280196513532,4,1,1,30,1,1
108025,-526.315789473684,4,1,1,30,0,1
108141,116.055280998849,4,1,1,30,1,1
108141,-526.315789473684,4,1,1,30,0,1
108257,115.831233892219,4,1,1,30,1,1
108257,-526.315789473684,4,1,1,30,0,1
108373,115.608050173894,4,1,1,30,1,1
108373,-526.315789473684,4,1,1,30,0,1
108489,115.385724862739,4,1,1,30,1,1
108489,-526.315789473684,4,1,1,30,0,1
108604,115.164253015864,4,1,1,30,1,1
108604,-526.315789473684,4,1,1,30,0,1
108719,114.943629728254,4,1,1,30,1,1
108719,-526.315789473684,4,1,1,30,0,1
108834,114.72385013241,4,1,1,30,1,1
108834,-526.315789473684,4,1,1,30,0,1
108949,114.50490939799,4,1,1,30,1,1
108949,-526.315789473684,4,1,1,30,0,1
109064,114.286802731455,4,1,1,30,1,1
109064,-526.315789473684,4,1,1,30,0,1
109178,114.069525375716,4,1,1,30,1,1
109178,-526.315789473684,4,1,1,30,0,1
109292,113.853072609797,4,1,1,30,1,1
109292,-526.315789473684,4,1,1,30,0,1
109406,113.637439748482,4,1,1,30,1,1
109406,-526.315789473684,4,1,1,30,0,1
109520,113.422622141986,4,1,1,30,1,1
109520,-526.315789473684,4,1,1,30,0,1
109633,113.208615175615,4,1,1,30,1,1
109633,-526.315789473684,4,1,1,30,0,1
109746,112.995414269438,4,1,1,30,1,1
109746,-526.315789473684,4,1,1,30,0,1
109859,112.783014877959,4,1,1,30,1,1
109859,-526.315789473684,4,1,1,30,0,1
109972,112.571412489798,4,1,1,30,1,1
109972,-526.315789473684,4,1,1,30,0,1
110085,112.360602627365,4,1,1,30,1,1
110085,-526.315789473684,4,1,1,30,0,1
110197,112.15058084655,4,1,1,30,1,1
110197,-526.315789473684,4,1,1,30,0,1
110309,111.941342736406,4,1,1,30,1,1
110309,-526.315789473684,4,1,1,30,0,1
110421,111.732883918845,4,1,1,30,1,1
110421,-526.315789473684,4,1,1,30,0,1
110533,111.525200048328,4,1,1,30,1,1
110533,-526.315789473684,4,1,1,30,0,1
110645,111.318286811566,4,1,1,30,1,1
110645,-526.315789473684,4,1,1,30,0,1
110756,111.112139927222,4,1,1,30,1,1
110756,-526.315789473684,4,1,1,30,0,1
110867,110.906755145611,4,1,1,30,1,1
110867,-555.555555555556,4,1,1,30,0,1
110978,110.702128248416,4,1,1,30,1,1
110978,-555.555555555556,4,1,1,30,0,1
111089,110.498255048389,4,1,1,30,1,1
111089,-555.555555555556,4,1,1,30,0,1
111199,110.295131389075,4,1,1,30,1,1
111199,-555.555555555556,4,1,1,30,0,1
111309,110.092753144524,4,1,1,30,1,1
111309,-555.555555555556,4,1,1,30,0,1
111419,109.891116219013,4,1,1,30,1,1
111419,-555.555555555556,4,1,1,30,0,1
111529,109.690216546769,4,1,1,30,1,1
111529,-555.555555555556,4,1,1,30,0,1
111639,109.490050091698,4,1,1,30,1,1
111639,-555.555555555556,4,1,1,30,0,1
111748,109.290612847112,4,1,1,30,1,1
111748,-555.555555555556,4,1,1,30,0,1
111857,109.091900835462,4,1,1,30,1,1
111857,-555.555555555556,4,1,1,30,0,1
111966,108.893910108077,4,1,1,30,1,1
111966,-555.555555555556,4,1,1,30,0,1
112075,108.696636744898,4,1,1,30,1,1
112075,-555.555555555556,4,1,1,30,0,1
112184,108.500076854221,4,1,1,30,1,1
112184,-555.555555555556,4,1,1,30,0,1
112293,108.304226572442,4,1,1,30,1,1
112293,-555.555555555556,4,1,1,30,0,1
112401,108.109082063802,4,1,1,30,1,1
112401,-555.555555555556,4,1,1,30,0,1
112509,107.91463952014,4,1,1,30,1,1
112509,-555.555555555556,4,1,1,30,0,1
112617,107.720895160639,4,1,1,30,1,1
112617,-555.555555555556,4,1,1,30,0,1
112725,107.527845231588,4,1,1,30,1,1
112725,-555.555555555556,4,1,1,30,0,1
112833,107.335486006136,4,1,1,30,1,1
112833,-555.555555555556,4,1,1,30,0,1
112940,107.143813784052,4,1,1,30,1,1
112940,-555.555555555556,4,1,1,30,0,1
113047,106.952824891487,4,1,1,30,1,1
113047,-555.555555555556,4,1,1,30,0,1
113154,106.762515680744,4,1,1,30,1,1
113154,-555.555555555556,4,1,1,30,0,1
113261,106.57288253004,4,1,1,30,1,1
113261,-555.555555555556,4,1,1,30,0,1
113368,106.383921843279,4,1,1,30,1,1
113368,-555.555555555556,4,1,1,30,0,1
113474,106.195630049823,4,1,1,30,1,1
113474,-555.555555555556,4,1,1,30,0,1
113580,106.008003604272,4,1,1,30,1,1
113580,-555.555555555556,4,1,1,30,0,1
113686,105.821038986234,4,1,1,30,1,1
113686,-555.555555555556,4,1,1,30,0,1
113792,105.634732700112,4,1,1,30,1,1
113792,-555.555555555556,4,1,1,30,0,1
113898,105.449081274879,4,1,1,30,1,1
113898,-555.555555555556,4,1,1,30,0,1
114003,105.264081263871,4,1,1,30,1,1
114003,-555.555555555556,4,1,1,30,0,1
114108,105.079729244564,4,1,1,30,1,1
114108,-555.555555555556,4,1,1,30,0,1
114213,104.896021818373,4,1,1,30,1,1
114213,-588.235294117647,4,1,1,30,0,1
114318,418.848167539267,4,1,1,30,1,0
114318,-142.857142857143,4,1,1,30,0,0

[HitObjects]
320,192,9022,5,0,0:0:0:0:
320,192,9172,1,0,0:0:0:0:
320,192,9322,1,0,0:0:0:0:
320,192,9622,1,0,0:0:0:0:
64,192,9922,5,0,0:0:0:0:
192,192,9922,1,0,0:0:0:0:
448,192,9922,1,0,0:0:0:0:
320,192,10219,1,0,0:0:0:0:
64,192,10367,1,0,0:0:0:0:
192,192,10367,1,0,0:0:0:0:
448,192,10516,1,0,0:0:0:0:
320,192,10516,1,0,0:0:0:0:
192,192,10663,1,0,0:0:0:0:
448,192,10810,1,0,0:0:0:0:
64,192,10883,1,0,0:0:0:0:
192,192,10957,1,0,0:0:0:0:
448,192,11030,1,0,0:0:0:0:
64,192,11104,1,0,0:0:0:0:
320,192,11104,1,0,0:0:0:0:
192,192,11395,1,0,0:0:0:0:
448,192,11540,1,0,0:0:0:0:
192,192,11687,1,0,0:0:0:0:
64,192,11687,1,0,0:0:0:0:
320,192,11831,1,0,0:0:0:0:
64,192,11975,1,0,0:0:0:0:
192,192,11975,1,0,0:0:0:0:
448,192,11975,1,0,0:0:0:0:
320,192,12119,1,0,0:0:0:0:
64,192,12264,1,0,0:0:0:0:
448,192,12264,1,0,0:0:0:0:
192,192,12264,1,0,0:0:0:0:
192,192,12549,1,0,0:0:0:0:
64,192,12692,1,0,0:0:0:0:
448,192,12692,1,0,0:0:0:0:
320,192,12835,1,0,0:0:0:0:
192,192,12835,1,0,0:0:0:0:
64,192,13118,1,0,0:0:0:0:
320,192,13118,1,0,0:0:0:0:
448,192,13306,1,0,0:0:0:0:
64,192,13401,1,0,0:0:0:0:
192,192,13401,1,0,0:0:0:0:
320,192,13401,1,0,0:0:0:0:
448,192,13541,1,0,0:0:0:0:
192,192,13681,1,0,0:0:0:0:
64,192,13821,1,0,0:0:0:0:
320,192,13821,1,0,0:0:0:0:
448,192,13891,1,0,0:0:0:0:
64,192,13962,1,0,0:0:0:0:
192,192,13962,1,0,0:0:0:0:
320,192,13962,1,0,0:0:0:0:
448,192,14100,1,0,0:0:0:0:
64,192,14239,1,0,0:0:0:0:
192,192,14239,1,0,0:0:0:0:
320,192,14309,1,0,0:0:0:0:
64,192,14424,1,0,0:0:0:0:
320,192,14518,1,0,0:0:0:0:
448,192,14518,1,0,0:0:0:0:
192,192,14518,1,0,0:0:0:0:
320,192,14793,1,0,0:0:0:0:
192,192,14930,1,0,0:0:0:0:
64,192,14930,1,0,0:0:0:0:
448,192,15068,1,0,0:0:0:0:
320,192,15068,1,0,0:0:0:0:
192,192,15204,1,0,0:0:0:0:
448,192,15340,1,0,0:0:0:0:
64,192,15408,1,0,0:0:0:0:
192,192,15477,1,0,0:0:0:0:
320,192,15545,1,0,0:0:0:0:
448,192,15613,1,0,0:0:0:0:
64,192,15613,1,0,0:0:0:0:
192,192,15883,1,0,0:0:0:0:
320,192,16018,1,0,0:0:0:0:
64,192,16154,1,0,0:0:0:0:
192,192,16154,1,0,0:0:0:0:
448,192,16154,1,0,0:0:0:0:
192,192,16287,1,0,0:0:0:0:
64,192,16287,1,0,0:0:0:0:
64,192,16421,1,0,0:0:0:0:
192,192,16421,1,0,0:0:0:0:
448,192,16421,1,0,0:0:0:0:
320,192,16555,1,0,0:0:0:0:
64,192,16690,1,0,0:0:0:0:
192,192,16690,1,0,0:0:0:0:
448,192,16690,1,0,0:0:0:0:
64,192,16955,1,0,0:0:0:0:
320,192,17088,1,0,0:0:0:0:
192,192,17088,1,0,0:0:0:0:
448,192,17221,1,0,0:0:0:0:
64,192,17221,1,0,0:0:0:0:
320,192,17352,1,0,0:0:0:0:
64,192,17484,1,0,0:0:0:0:
448,192,17549,1,0,0:0:0:0:
320,192,17615,1,0,0:0:0:0:
192,192,17681,1,0,0:0:0:0:
448,192,17747,1,0,0:0:0:0:
320,192,17747,1,0,0:0:0:0:
64,192,17747,1,0,0:0:0:0:
192,192,17877,1,0,0:0:0:0:
448,192,18007,1,0,0:0:0:0:
320,192,18138,1,0,0:0:0:0:
64,192,18138,1,0,0:0:0:0:
192,192,18138,1,0,0:0:0:0:
448,192,18269,1,0,0:0:0:0:
64,192,18269,1,0,0:0:0:0:
320,192,18398,1,0,0:0:0:0:
192,192,18462,1,0,0:0:0:0:
448,192,18527,1,0,0:0:0:0:
64,192,18527,1,0,0:0:0:0:
320,192,18656,1,0,0:0:0:0:
64,192,18721,1,0,0:0:0:0:
192,192,18786,1,0,0:0:0:0:
448,192,18786,1,0,0:0:0:0:
320,192,18786,1,0,0:0:0:0:
192,192,19042,1,0,0:0:0:0:
448,192,19170,1,0,0:0:0:0:
320,192,19170,1,0,0:0:0:0:
64,192,19299,1,0,0:0:0:0:
192,192,19299,1,0,0:0:0:0:
320,192,19426,1,0,0:0:0:0:
448,192,19553,1,0,0:0:0:0:
64,192,19616,1,0,0:0:0:0:
192,192,19680,1,0,0:0:0:0:
320,192,19743,1,0,0:0:0:0:
448,192,19807,1,0,0:0:0:0:
64,192,19807,1,0,0:0:0:0:
192,192,19933,1,0,0:0:0:0:
320,192,19933,1,0,0:0:0:0:
64,192,20059,1,0,0:0:0:0:
448,192,20185,1,0,0:0:0:0:
320,192,20311,1,0,0:0:0:0:
64,192,20311,1,0,0:0:0:0:
192,192,20311,1,0,0:0:0:0:
448,192,20373,1,0,0:0:0:0:
192,192,20436,1,0,0:0:0:0:
320,192,20561,1,0,0:0:0:0:
448,192,20561,1,0,0:0:0:0:
64,192,20561,1,0,0:0:0:0:
192,192,20623,1,0,0:0:0:0:
320,192,20686,1,0,0:0:0:0:
448,192,20748,1,0,0:0:0:0:
192,192,20811,1,0,0:0:0:0:
64,192,20811,1,0,0:0:0:0:
64,192,21058,1,0,0:0:0:0:
448,192,21182,1,0,0:0:0:0:
320,192,21182,1,0,0:0:0:0:
64,192,21307,1,0,0:0:0:0:
192,192,21307,1,0,0:0:0:0:
448,192,21429,1,0,0:0:0:0:
320,192,21491,1,0,0:0:0:0:
192,192,21552,1,0,0:0:0:0:
448,192,21716,1,0,0:0:0:0:
320,192,21799,1,0,0:0:0:0:
192,192,21799,1,0,0:0:0:0:
64,192,21799,1,0,0:0:0:0:
448,192,21920,1,0,0:0:0:0:
64,192,22042,1,0,0:0:0:0:
192,192,22164,1,0,0:0:0:0:
320,192,22164,1,0,0:0:0:0:
448,192,22164,1,0,0:0:0:0:
64,192,22225,1,0,0:0:0:0:
448,192,22287,1,0,0:0:0:0:
320,192,22287,1,0,0:0:0:0:
192,192,22407,1,0,0:0:0:0:
64,192,22528,1,0,0:0:0:0:
320,192,22528,1,0,0:0:0:0:
448,192,22609,1,0,0:0:0:0:
192,192,22690,1,0,0:0:0:0:
448,192,22771,1,0,0:0:0:0:
320,192,22771,1,0,0:0:0:0:
64,192,22771,1,0,0:0:0:0:
192,192,23011,1,0,0:0:0:0:
448,192,23131,1,0,0:0:0:0:
320,192,23131,1,0,0:0:0:0:
192,192,23251,1,0,0:0:0:0:
64,192,23251,1,0,0:0:0:0:
320,192,23489,1,0,0:0:0:0:
448,192,23548,1,0,0:0:0:0:
192,192,23608,1,0,0:0:0:0:
64,192,23667,1,0,0:0:0:0:
320,192,23727,1,0,0:0:0:0:
448,192,23727,1,0,0:0:0:0:
192,192,23727,1,0,0:0:0:0:
320,192,23963,1,0,0:0:0:0:
64,192,24081,1,0,0:0:0:0:
448,192,24081,1,0,0:0:0:0:
320,192,24199,1,0,0:0:0:0:
192,192,24199,1,0,0:0:0:0:
448,192,24316,1,0,0:0:0:0:
320,192,24374,1,0,0:0:0:0:
192,192,24433,1,0,0:0:0:0:
64,192,24433,1,0,0:0:0:0:
448,192,24550,1,0,0:0:0:0:
64,192,24609,1,0,0:0:0:0:
448,192,24668,1,0,0:0:0:0:
320,192,24668,1,0,0:0:0:0:
192,192,24668,1,0,0:0:0:0:
320,192,24900,1,0,0:0:0:0:
192,192,25016,1,0,0:0:0:0:
64,192,25016,1,0,0:0:0:0:
320,192,25133,1,0,0:0:0:0:
448,192,25133,1,0,0:0:0:0:
192,192,25248,1,0,0:0:0:0:
64,192,25363,1,0,0:0:0:0:
448,192,25363,1,0,0:0:0:0:
192,192,25421,1,0,0:0:0:0:
320,192,25479,1,0,0:0:0:0:
448,192,25536,1,0,0:0:0:0:
192,192,25595,1,0,0:0:0:0:
64,192,25595,1,0,0:0:0:0:
320,192,25709,1,0,0:0:0:0:
448,192,25709,1,0,0:0:0:0:
64,192,25824,1,0,0:0:0:0:
192,192,25938,1,0,0:0:0:0:
320,192,25938,1,0,0:0:0:0:
448,192,26053,1,0,0:0:0:0:
64,192,26053,1,0,0:0:0:0:
192,192,26053,1,0,0:0:0:0:
320,192,26166,1,0,0:0:0:0:
192,192,26280,1,0,0:0:0:0:
64,192,26280,1,0,0:0:0:0:
448,192,26280,1,0,0:0:0:0:
320,192,26393,1,0,0:0:0:0:
64,192,26450,1,0,0:0:0:0:
448,192,26508,1,0,0:0:0:0:
192,192,26508,1,0,0:0:0:0:
320,192,26508,1,0,0:0:0:0:
448,192,26733,1,0,0:0:0:0:
64,192,26846,1,0,0:0:0:0:
320,192,26846,1,0,0:0:0:0:
192,192,26959,1,0,0:0:0:0:
448,192,26959,1,0,0:0:0:0:
64,192,27070,1,0,0:0:0:0:
320,192,27182,1,0,0:0:0:0:
448,192,27238,1,0,0:0:0:0:
192,192,27294,1,0,0:0:0:0:
64,192,27350,1,0,0:0:0:0:
320,192,27407,1,0,0:0:0:0:
448,192,27407,1,0,0:0:0:0:
192,192,27629,1,0,0:0:0:0:
448,192,27740,1,0,0:0:0:0:
320,192,27851,1,0,0:0:0:0:
64,192,27851,1,0,0:0:0:0:
192,192,27961,1,0,0:0:0:0:
320,192,28071,1,0,0:0:0:0:
448,192,28071,1,0,0:0:0:0:
64,192,28071,1,0,0:0:0:0:
192,192,28181,1,0,0:0:0:0:
320,192,28292,1,0,0:0:0:0:
448,192,28292,1,0,0:0:0:0:
64,192,28292,1,0,0:0:0:0:
448,192,28510,1,0,0:0:0:0:
192,192,28620,1,0,0:0:0:0:
64,192,28620,1,0,0:0:0:0:
320,192,28730,1,0,0:0:0:0:
448,192,28730,1,0,0:0:0:0:
64,192,28838,1,0,0:0:0:0:
192,192,28947,1,0,0:0:0:0:
320,192,28947,1,0,0:0:0:0:
448,192,29092,1,0,0:0:0:0:
320,192,29165,1,0,0:0:0:0:
192,192,29165,1,0,0:0:0:0:
64,192,29165,1,0,0:0:0:0:
448,192,29272,1,0,0:0:0:0:
64,192,29380,1,0,0:0:0:0:
192,192,29488,1,0,0:0:0:0:
320,192,29488,1,0,0:0:0:0:
448,192,29542,1,0,0:0:0:0:
64,192,29597,1,0,0:0:0:0:
192,192,29597,1,0,0:0:0:0:
320,192,29597,1,0,0:0:0:0:
448,192,29704,1,0,0:0:0:0:
64,192,29811,1,0,0:0:0:0:
192,192,29811,1,0,0:0:0:0:
320,192,29918,1,0,0:0:0:0:
192,192,30025,1,0,0:0:0:0:
64,192,30025,1,0,0:0:0:0:
448,192,30025,1,0,0:0:0:0:
192,192,30238,1,0,0:0:0:0:
320,192,30345,1,0,0:0:0:0:
64,192,30345,1,0,0:0:0:0:
192,192,30452,1,0,0:0:0:0:
448,192,30452,1,0,0:0:0:0:
320,192,30557,1,0,0:0:0:0:
64,192,30663,1,0,0:0:0:0:
448,192,30716,1,0,0:0:0:0:
192,192,30768,1,0,0:0:0:0:
320,192,30821,1,0,0:0:0:0:
64,192,30875,1,0,0:0:0:0:
448,192,30875,1,0,0:0:0:0:
192,192,31084,1,0,0:0:0:0:
64,192,31189,1,0,0:0:0:0:
448,192,31295,1,0,0:0:0:0:
192,192,31295,1,0,0:0:0:0:
320,192,31295,1,0,0:0:0:0:
320,192,31399,1,0,0:0:0:0:
448,192,31399,1,0,0:0:0:0:
448,192,31503,1,0,0:0:0:0:
320,192,31503,1,0,0:0:0:0:
192,192,31503,1,0,0:0:0:0:
64,192,31607,1,0,0:0:0:0:
320,192,31712,1,0,0:0:0:0:
192,192,31712,1,0,0:0:0:0:
448,192,31712,1,0,0:0:0:0:
192,192,31918,1,0,0:0:0:0:
448,192,32022,1,0,0:0:0:0:
64,192,32022,1,0,0:0:0:0:
192,192,32126,1,0,0:0:0:0:
320,192,32126,1,0,0:0:0:0:
64,192,32228,1,0,0:0:0:0:
448,192,32331,1,0,0:0:0:0:
320,192,32382,1,0,0:0:0:0:
192,192,32434,1,0,0:0:0:0:
64,192,32485,1,0,0:0:0:0:
320,192,32537,1,0,0:0:0:0:
448,192,32537,1,0,0:0:0:0:
192,192,32537,1,0,0:0:0:0:
64,192,32639,1,0,0:0:0:0:
448,192,32741,1,0,0:0:0:0:
320,192,32843,1,0,0:0:0:0:
192,192,32843,1,0,0:0:0:0:
64,192,32843,1,0,0:0:0:0:
448,192,32945,1,0,0:0:0:0:
192,192,32945,1,0,0:0:0:0:
64,192,33046,1,0,0:0:0:0:
192,192,33097,1,0,0:0:0:0:
320,192,33147,1,0,0:0:0:0:
448,192,33147,1,0,0:0:0:0:
64,192,33249,1,0,0:0:0:0:
320,192,33299,1,0,0:0:0:0:
448,192,33350,1,0,0:0:0:0:
192,192,33350,1,0,0:0:0:0:
64,192,33350,1,0,0:0:0:0:
320,192,33551,1,0,0:0:0:0:
192,192,33652,1,0,0:0:0:0:
64,192,33652,1,0,0:0:0:0:
320,192,33753,1,0,0:0:0:0:
448,192,33753,1,0,0:0:0:0:
64,192,33853,1,0,0:0:0:0:
192,192,33953,1,0,0:0:0:0:
320,192,34003,1,0,0:0:0:0:
448,192,34053,1,0,0:0:0:0:
64,192,34103,1,0,0:0:0:0:
192,192,34153,1,0,0:0:0:0:
320,192,34153,1,0,0:0:0:0:
448,192,34252,1,0,0:0:0:0:
64,192,34252,1,0,0:0:0:0:
192,192,34351,1,0,0:0:0:0:
320,192,34451,1,0,0:0:0:0:
448,192,34550,1,0,0:0:0:0:
64,192,34550,1,0,0:0:0:0:
192,192,34550,1,0,0:0:0:0:
320,192,34648,1,0,0:0:0:0:
448,192,34747,1,0,0:0:0:0:
192,192,34747,1,0,0:0:0:0:
64,192,34747,1,0,0:0:0:0:
320,192,34796,1,0,0:0:0:0:
64,192,34846,1,0,0:0:0:0:
192,192,34895,1,0,0:0:0:0:
448,192,34945,1,0,0:0:0:0:
320,192,34945,1,0,0:0:0:0:
192,192,35141,1,0,0:0:0:0:
448,192,35239,1,0,0:0:0:0:
320,192,35239,1,0,0:0:0:0:
192,192,35337,1,0,0:0:0:0:
64,192,35337,1,0,0:0:0:0:
320,192,35531,1,0,0:0:0:0:
448,192,35629,1,0,0:0:0:0:
64,192,35727,1,0,0:0:0:0:
320,192,35727,1,0,0:0:0:0:
192,192,35727,1,0,0:0:0:0:
448,192,35823,1,0,0:0:0:0:
64,192,35920,1,0,0:0:0:0:
192,192,36017,1,0,0:0:0:0:
320,192,36017,1,0,0:0:0:0:
448,192,36017,1,0,0:0:0:0:
64,192,36065,1,0,0:0:0:0:
320,192,36114,1,0,0:0:0:0:
448,192,36114,1,0,0:0:0:0:
192,192,36210,1,0,0:0:0:0:
64,192,36306,1,0,0:0:0:0:
448,192,36306,1,0,0:0:0:0:
320,192,36402,1,0,0:0:0:0:
448,192,36499,1,0,0:0:0:0:
192,192,36499,1,0,0:0:0:0:
64,192,36499,1,0,0:0:0:0:
320,192,36690,1,0,0:0:0:0:
64,192,36785,1,0,0:0:0:0:
448,192,36785,1,0,0:0:0:0:
320,192,36881,1,0,0:0:0:0:
64,192,36881,1,0,0:0:0:0:
192,192,36975,1,0,0:0:0:0:
448,192,37070,1,0,0:0:0:0:
64,192,37165,1,0,0:0:0:0:
192,192,37165,1,0,0:0:0:0:
320,192,37261,1,0,0:0:0:0:
448,192,37261,1,0,0:0:0:0:
64,192,37261,1,0,0:0:0:0:
192,192,37449,1,0,0:0:0:0:
320,192,37544,1,0,0:0:0:0:
448,192,37544,1,0,0:0:0:0:
320,192,37638,1,0,0:0:0:0:
64,192,37638,1,0,0:0:0:0:
448,192,37731,1,0,0:0:0:0:
320,192,37825,1,0,0:0:0:0:
64,192,37825,1,0,0:0:0:0:
192,192,37919,1,0,0:0:0:0:
448,192,37919,1,0,0:0:0:0:
192,192,38013,1,0,0:0:0:0:
64,192,38013,1,0,0:0:0:0:
320,192,38199,1,0,0:0:0:0:
64,192,38292,1,0,0:0:0:0:
448,192,38292,1,0,0:0:0:0:
192,192,38386,1,0,0:0:0:0:
64,192,38386,1,0,0:0:0:0:
320,192,38478,1,0,0:0:0:0:
448,192,38571,1,0,0:0:0:0:
64,192,38617,1,0,0:0:0:0:
192,192,38663,1,0,0:0:0:0:
320,192,38663,1,0,0:0:0:0:
448,192,38756,1,0,0:0:0:0:
64,192,38756,1,0,0:0:0:0:
320,192,38756,1,0,0:0:0:0:
192,192,38940,1,0,0:0:0:0:
448,192,39032,1,0,0:0:0:0:
320,192,39032,1,0,0:0:0:0:
64,192,39032,1,0,0:0:0:0:
192,192,39124,1,0,0:0:0:0:
448,192,39124,1,0,0:0:0:0:
64,192,39215,1,0,0:0:0:0:
192,192,39306,1,0,0:0:0:0:
320,192,39306,1,0,0:0:0:0:
192,192,39398,1,0,0:0:0:0:
64,192,39398,1,0,0:0:0:0:
448,192,39444,1,0,0:0:0:0:
320,192,39490,1,0,0:0:0:0:
64,192,39490,1,0,0:0:0:0:
192,192,39671,1,0,0:0:0:0:
320,192,39671,1,0,0:0:0:0:
64,192,39671,1,0,0:0:0:0:
448,192,39762,1,0,0:0:0:0:
320,192,39854,1,0,0:0:0:0:
192,192,39854,1,0,0:0:0:0:
64,192,39854,1,0,0:0:0:0:
64,192,40034,1,0,0:0:0:0:
192,192,40034,1,0,0:0:0:0:
320,192,40034,1,0,0:0:0:0:
320,192,40215,1,0,0:0:0:0:
192,192,40215,1,0,0:0:0:0:
64,192,40215,1,0,0:0:0:0:
192,192,40394,1,0,0:0:0:0:
448,192,40574,1,0,0:0:0:0:
320,192,40574,1,0,0:0:0:0:
64,192,40574,1,0,0:0:0:0:
64,192,40752,1,0,0:0:0:0:
448,192,40752,1,0,0:0:0:0:
320,192,40752,1,0,0:0:0:0:
192,192,40931,1,0,0:0:0:0:
320,192,40931,1,0,0:0:0:0:
64,192,41108,1,0,0:0:0:0:
192,192,41108,1,0,0:0:0:0:
448,192,41108,1,0,0:0:0:0:
64,192,41286,1,0,0:0:0:0:
448,192,41286,1,0,0:0:0:0:
192,192,41286,1,0,0:0:0:0:
448,192,41462,1,0,0:0:0:0:
320,192,41639,1,0,0:0:0:0:
64,192,41639,1,0,0:0:0:0:
192,192,41639,1,0,0:0:0:0:
448,192,41814,1,0,0:0:0:0:
192,192,41902,1,0,0:0:0:0:
64,192,41902,1,0,0:0:0:0:
448,192,41990,1,0,0:0:0:0:
320,192,41990,1,0,0:0:0:0:
192,192,42164,1,0,0:0:0:0:
320,192,42164,1,0,0:0:0:0:
64,192,42164,1,0,0:0:0:0:
64,192,42339,1,0,0:0:0:0:
192,192,42339,1,0,0:0:0:0:
448,192,42339,1,0,0:0:0:0:
448,192,42512,1,0,0:0:0:0:
320,192,42512,1,0,0:0:0:0:
192,192,42599,1,0,0:0:0:0:
64,192,42599,1,0,0:0:0:0:
320,192,42686,1,0,0:0:0:0:
448,192,42686,1,0,0:0:0:0:
320,192,42858,1,0,0:0:0:0:
448,192,42858,1,0,0:0:0:0:
64,192,42858,1,0,0:0:0:0:
64,192,43031,1,0,0:0:0:0:
320,192,43031,1,0,0:0:0:0:
448,192,43031,1,0,0:0:0:0:
64,192,43202,1,0,0:0:0:0:
320,192,43374,1,0,0:0:0:0:
192,192,43374,1,0,0:0:0:0:
448,192,43374,1,0,0:0:0:0:
192,192,43544,1,0,0:0:0:0:
320,192,43544,1,0,0:0:0:0:
448,192,43544,1,0,0:0:0:0:
64,192,43715,1,0,0:0:0:0:
320,192,43715,1,0,0:0:0:0:
448,192,43884,1,0,0:0:0:0:
192,192,43884,1,0,0:0:0:0:
64,192,43884,1,0,0:0:0:0:
448,192,44054,1,0,0:0:0:0:
64,192,44054,1,0,0:0:0:0:
192,192,44054,1,0,0:0:0:0:
192,192,44222,1,0,0:0:0:0:
448,192,44391,1,0,0:0:0:0:
320,192,44391,1,0,0:0:0:0:
64,192,44391,1,0,0:0:0:0:
320,192,44558,1,0,0:0:0:0:
192,192,44642,1,0,0:0:0:0:
64,192,44642,1,0,0:0:0:0:
320,192,44726,1,0,0:0:0:0:
448,192,44726,1,0,0:0:0:0:
448,192,44892,1,0,0:0:0:0:
64,192,44892,1,0,0:0:0:0:
448,192,45059,1,0,0:0:0:0:
64,192,45059,1,0,0:0:0:0:
320,192,45224,1,0,0:0:0:0:
192,192,45224,1,0,0:0:0:0:
64,192,45224,1,0,0:0:0:0:
320,192,45391,1,0,0:0:0:0:
192,192,45391,1,0,0:0:0:0:
64,192,45391,1,0,0:0:0:0:
192,192,45555,1,0,0:0:0:0:
320,192,45555,1,0,0:0:0:0:
64,192,45555,1,0,0:0:0:0:
320,192,45721,1,0,0:0:0:0:
192,192,45721,1,0,0:0:0:0:
64,192,45721,1,0,0:0:0:0:
192,192,45884,1,0,0:0:0:0:
448,192,46049,1,0,0:0:0:0:
320,192,46049,1,0,0:0:0:0:
64,192,46049,1,0,0:0:0:0:
448,192,46212,1,0,0:0:0:0:
320,192,46212,1,0,0:0:0:0:
64,192,46212,1,0,0:0:0:0:
192,192,46375,1,0,0:0:0:0:
320,192,46375,1,0,0:0:0:0:
64,192,46537,1,0,0:0:0:0:
320,192,46537,1,0,0:0:0:0:
192,192,46618,1,0,0:0:0:0:
448,192,46618,1,0,0:0:0:0:
64,192,46699,1,0,0:0:0:0:
320,192,46699,1,0,0:0:0:0:
448,192,46860,1,0,0:0:0:0:
64,192,47022,1,0,0:0:0:0:
320,192,47022,1,0,0:0:0:0:
192,192,47022,1,0,0:0:0:0:
192,192,47182,1,0,0:0:0:0:
448,192,47262,1,0,0:0:0:0:
64,192,47262,1,0,0:0:0:0:
320,192,47343,1,0,0:0:0:0:
192,192,47343,1,0,0:0:0:0:
64,192,47502,1,0,0:0:0:0:
320,192,47502,1,0,0:0:0:0:
64,192,47662,1,0,0:0:0:0:
448,192,47662,1,0,0:0:0:0:
192,192,47662,1,0,0:0:0:0:
192,192,47820,1,0,0:0:0:0:
448,192,47979,1,0,0:0:0:0:
320,192,47979,1,0,0:0:0:0:
64,192,47979,1,0,0:0:0:0:
448,192,48136,1,0,0:0:0:0:
320,192,48136,1,0,0:0:0:0:
64,192,48136,1,0,0:0:0:0:
192,192,48295,1,0,0:0:0:0:
448,192,48295,1,0,0:0:0:0:
192,192,48452,1,0,0:0:0:0:
320,192,48452,1,0,0:0:0:0:
64,192,48452,1,0,0:0:0:0:
320,192,48609,1,0,0:0:0:0:
192,192,48609,1,0,0:0:0:0:
64,192,48609,1,0,0:0:0:0:
448,192,48765,1,0,0:0:0:0:
192,192,48765,1,0,0:0:0:0:
64,192,48922,1,0,0:0:0:0:
448,192,48922,1,0,0:0:0:0:
320,192,48922,1,0,0:0:0:0:
320,192,49077,1,0,0:0:0:0:
64,192,49077,1,0,0:0:0:0:
448,192,49077,1,0,0:0:0:0:
320,192,49233,1,0,0:0:0:0:
192,192,49233,1,0,0:0:0:0:
192,192,49387,1,0,0:0:0:0:
448,192,49387,1,0,0:0:0:0:
64,192,49464,1,0,0:0:0:0:
320,192,49464,1,0,0:0:0:0:
448,192,49542,1,0,0:0:0:0:
192,192,49542,1,0,0:0:0:0:
192,192,49695,1,0,0:0:0:0:
448,192,49772,1,0,0:0:0:0:
320,192,49772,1,0,0:0:0:0:
192,192,49850,1,0,0:0:0:0:
64,192,49850,1,0,0:0:0:0:
448,192,50003,1,0,0:0:0:0:
192,192,50003,1,0,0:0:0:0:
64,192,50003,1,0,0:0:0:0:
320,192,50156,1,0,0:0:0:0:
448,192,50156,1,0,0:0:0:0:
64,192,50156,1,0,0:0:0:0:
320,192,50308,1,0,0:0:0:0:
192,192,50308,1,0,0:0:0:0:
448,192,50308,1,0,0:0:0:0:
192,192,50461,1,0,0:0:0:0:
448,192,50461,1,0,0:0:0:0:
320,192,50461,1,0,0:0:0:0:
192,192,50612,1,0,0:0:0:0:
320,192,50612,1,0,0:0:0:0:
448,192,50612,1,0,0:0:0:0:
320,192,50764,1,0,0:0:0:0:
192,192,50764,1,0,0:0:0:0:
448,192,50764,1,0,0:0:0:0:
192,192,50914,1,0,0:0:0:0:
192,192,51066,1,0,0:0:0:0:
320,192,51066,1,0,0:0:0:0:
448,192,51066,1,0,0:0:0:0:
64,192,51066,1,0,0:0:0:0:
448,192,51216,1,0,0:0:0:0:
64,192,51216,1,0,0:0:0:0:
320,192,51216,1,0,0:0:0:0:
320,192,51366,1,0,0:0:0:0:
192,192,51366,1,0,0:0:0:0:
64,192,51515,1,0,0:0:0:0:
192,192,51515,1,0,0:0:0:0:
448,192,51515,1,0,0:0:0:0:
192,192,51665,1,0,0:0:0:0:
448,192,51665,1,0,0:0:0:0:
64,192,51665,1,0,0:0:0:0:
448,192,51813,1,0,0:0:0:0:
192,192,51962,1,0,0:0:0:0:
320,192,51962,1,0,0:0:0:0:
64,192,51962,1,0,0:0:0:0:
64,192,52109,1,0,0:0:0:0:
192,192,52258,1,0,0:0:0:0:
320,192,52258,1,0,0:0:0:0:
448,192,52258,1,0,0:0:0:0:
192,192,52405,1,0,0:0:0:0:
64,192,52405,1,0,0:0:0:0:
448,192,52552,1,0,0:0:0:0:
64,192,52552,1,0,0:0:0:0:
448,192,52698,1,0,0:0:0:0:
320,192,52698,1,0,0:0:0:0:
192,192,52771,1,0,0:0:0:0:
64,192,52771,1,0,0:0:0:0:
320,192,52845,1,0,0:0:0:0:
448,192,52845,1,0,0:0:0:0:
448,192,52990,1,0,0:0:0:0:
320,192,52990,1,0,0:0:0:0:
64,192,52990,1,0,0:0:0:0:
64,192,53136,1,0,0:0:0:0:
448,192,53136,1,0,0:0:0:0:
320,192,53136,1,0,0:0:0:0:
64,192,53280,1,0,0:0:0:0:
192,192,53426,1,0,0:0:0:0:
320,192,53426,1,0,0:0:0:0:
448,192,53426,1,0,0:0:0:0:
320,192,53570,1,0,0:0:0:0:
192,192,53570,1,0,0:0:0:0:
448,192,53570,1,0,0:0:0:0:
192,192,53714,1,0,0:0:0:0:
64,192,53714,1,0,0:0:0:0:
448,192,53857,1,0,0:0:0:0:
320,192,53857,1,0,0:0:0:0:
64,192,53857,1,0,0:0:0:0:
320,192,54001,1,0,0:0:0:0:
448,192,54001,1,0,0:0:0:0:
64,192,54001,1,0,0:0:0:0:
320,192,54143,1,0,0:0:0:0:
64,192,54287,1,0,0:0:0:0:
448,192,54287,1,0,0:0:0:0:
192,192,54287,1,0,0:0:0:0:
448,192,54429,1,0,0:0:0:0:
192,192,54500,1,0,0:0:0:0:
64,192,54500,1,0,0:0:0:0:
320,192,54571,1,0,0:0:0:0:
448,192,54571,1,0,0:0:0:0:
320,192,54712,1,0,0:0:0:0:
64,192,54712,1,0,0:0:0:0:
64,192,54854,1,0,0:0:0:0:
448,192,54854,1,0,0:0:0:0:
448,192,54994,1,0,0:0:0:0:
320,192,54994,1,0,0:0:0:0:
192,192,54994,1,0,0:0:0:0:
192,192,55136,1,0,0:0:0:0:
320,192,55136,1,0,0:0:0:0:
448,192,55136,1,0,0:0:0:0:
448,192,55276,1,0,0:0:0:0:
320,192,55276,1,0,0:0:0:0:
192,192,55276,1,0,0:0:0:0:
320,192,55416,1,0,0:0:0:0:
448,192,55416,1,0,0:0:0:0:
192,192,55416,1,0,0:0:0:0:
192,192,55555,1,0,0:0:0:0:
320,192,55695,1,0,0:0:0:0:
448,192,55695,1,0,0:0:0:0:
64,192,55695,1,0,0:0:0:0:
448,192,55833,1,0,0:0:0:0:
64,192,55833,1,0,0:0:0:0:
320,192,55833,1,0,0:0:0:0:
192,192,55973,1,0,0:0:0:0:
320,192,55973,1,0,0:0:0:0:
192,192,56111,1,0,0:0:0:0:
64,192,56111,1,0,0:0:0:0:
320,192,56180,1,0,0:0:0:0:
448,192,56180,1,0,0:0:0:0:
192,192,56249,1,0,0:0:0:0:
64,192,56249,1,0,0:0:0:0:
64,192,56387,1,0,0:0:0:0:
320,192,56525,1,0,0:0:0:0:
192,192,56525,1,0,0:0:0:0:
448,192,56525,1,0,0:0:0:0:
192,192,56661,1,0,0:0:0:0:
64,192,56799,1,0,0:0:0:0:
320,192,56799,1,0,0:0:0:0:
448,192,56799,1,0,0:0:0:0:
192,192,56935,1,0,0:0:0:0:
64,192,56935,1,0,0:0:0:0:
448,192,57072,1,0,0:0:0:0:
192,192,57072,1,0,0:0:0:0:
320,192,57072,1,0,0:0:0:0:
64,192,57207,1,0,0:0:0:0:
192,192,57343,1,0,0:0:0:0:
320,192,57343,1,0,0:0:0:0:
448,192,57343,1,0,0:0:0:0:
192,192,57478,1,0,0:0:0:0:
320,192,57478,1,0,0:0:0:0:
448,192,57478,1,0,0:0:0:0:
64,192,57613,1,0,0:0:0:0:
448,192,57613,1,0,0:0:0:0:
320,192,57747,1,0,0:0:0:0:
64,192,57747,1,0,0:0:0:0:
192,192,57747,1,0,0:0:0:0:
64,192,57882,1,0,0:0:0:0:
320,192,57882,1,0,0:0:0:0:
192,192,57882,1,0,0:0:0:0:
320,192,58015,1,0,0:0:0:0:
192,192,58150,1,0,0:0:0:0:
448,192,58150,1,0,0:0:0:0:
64,192,58150,1,0,0:0:0:0:
448,192,58283,1,0,0:0:0:0:
192,192,58283,1,0,0:0:0:0:
64,192,58283,1,0,0:0:0:0:
320,192,58417,1,0,0:0:0:0:
64,192,58417,1,0,0:0:0:0:
320,192,58549,1,0,0:0:0:0:
448,192,58616,1,0,0:0:0:0:
64,192,58616,1,0,0:0:0:0:
192,192,58682,1,0,0:0:0:0:
320,192,58682,1,0,0:0:0:0:
192,192,58814,1,0,0:0:0:0:
320,192,58880,1,0,0:0:0:0:
448,192,58880,1,0,0:0:0:0:
192,192,58946,1,0,0:0:0:0:
64,192,58946,1,0,0:0:0:0:
448,192,59077,1,0,0:0:0:0:
64,192,59077,1,0,0:0:0:0:
320,192,59209,1,0,0:0:0:0:
448,192,59209,1,0,0:0:0:0:
192,192,59209,1,0,0:0:0:0:
192,192,59340,1,0,0:0:0:0:
320,192,59471,1,0,0:0:0:0:
448,192,59471,1,0,0:0:0:0:
64,192,59471,1,0,0:0:0:0:
448,192,59601,1,0,0:0:0:0:
64,192,59732,1,0,0:0:0:0:
192,192,59732,1,0,0:0:0:0:
320,192,59861,1,0,0:0:0:0:
448,192,59861,1,0,0:0:0:0:
64,192,59861,1,0,0:0:0:0:
448,192,59992,1,0,0:0:0:0:
192,192,59992,1,0,0:0:0:0:
192,192,60121,1,0,0:0:0:0:
64,192,60121,1,0,0:0:0:0:
320,192,60121,1,0,0:0:0:0:
448,192,60251,1,0,0:0:0:0:
320,192,60251,1,0,0:0:0:0:
64,192,60251,1,0,0:0:0:0:
448,192,60379,1,0,0:0:0:0:
64,192,60509,1,0,0:0:0:0:
320,192,60509,1,0,0:0:0:0:
192,192,60509,1,0,0:0:0:0:
192,192,60637,1,0,0:0:0:0:
448,192,60765,1,0,0:0:0:0:
320,192,60765,1,0,0:0:0:0:
64,192,60765,1,0,0:0:0:0:
320,192,60892,1,0,0:0:0:0:
448,192,61020,1,0,0:0:0:0:
192,192,61020,1,0,0:0:0:0:
64,192,61020,1,0,0:0:0:0:
64,192,61147,1,0,0:0:0:0:
192,192,61274,1,0,0:0:0:0:
320,192,61274,1,0,0:0:0:0:
448,192,61274,1,0,0:0:0:0:
448,192,61400,1,0,0:0:0:0:
320,192,61527,1,0,0:0:0:0:
192,192,61527,1,0,0:0:0:0:
64,192,61527,1,0,0:0:0:0:
192,192,61653,1,0,0:0:0:0:
320,192,61779,1,0,0:0:0:0:
448,192,61779,1,0,0:0:0:0:
448,192,61904,1,0,0:0:0:0:
64,192,61904,1,0,0:0:0:0:
192,192,61904,1,0,0:0:0:0:
64,192,62030,1,0,0:0:0:0:
320,192,62030,1,0,0:0:0:0:
192,192,62155,1,0,0:0:0:0:
320,192,62155,1,0,0:0:0:0:
448,192,62155,1,0,0:0:0:0:
64,192,62280,1,0,0:0:0:0:
192,192,62280,1,0,0:0:0:0:
448,192,62280,1,0,0:0:0:0:
320,192,62404,1,0,0:0:0:0:
64,192,62404,1,0,0:0:0:0:
448,192,62404,1,0,0:0:0:0:
64,192,62529,1,0,0:0:0:0:
192,192,62529,1,0,0:0:0:0:
320,192,62529,1,0,0:0:0:0:
192,192,62652,1,0,0:0:0:0:
448,192,62776,1,0,0:0:0:0:
320,192,62776,1,0,0:0:0:0:
64,192,62776,1,0,0:0:0:0:
448,192,62899,1,0,0:0:0:0:
320,192,63022,1,0,0:0:0:0:
64,192,63022,1,0,0:0:0:0:
64,192,63146,1,0,0:0:0:0:
448,192,63270,1,0,0:0:0:0:
192,192,63270,1,0,0:0:0:0:
320,192,63270,1,0,0:0:0:0:
448,192,63392,1,0,0:0:0:0:
320,192,63515,1,0,0:0:0:0:
192,192,63515,1,0,0:0:0:0:
64,192,63515,1,0,0:0:0:0:
192,192,63636,1,0,0:0:0:0:
320,192,63759,1,0,0:0:0:0:
448,192,63759,1,0,0:0:0:0:
192,192,63880,1,0,0:0:0:0:
64,192,63880,1,0,0:0:0:0:
320,192,63880,1,0,0:0:0:0:
64,192,64002,1,0,0:0:0:0:
448,192,64002,1,0,0:0:0:0:
192,192,64122,1,0,0:0:0:0:
320,192,64122,1,0,0:0:0:0:
448,192,64122,1,0,0:0:0:0:
192,192,64244,1,0,0:0:0:0:
64,192,64244,1,0,0:0:0:0:
320,192,64244,1,0,0:0:0:0:
64,192,64364,1,0,0:0:0:0:
448,192,64485,1,0,0:0:0:0:
320,192,64485,1,0,0:0:0:0:
192,192,64485,1,0,0:0:0:0:
448,192,64605,1,0,0:0:0:0:
320,192,64725,1,0,0:0:0:0:
192,192,64725,1,0,0:0:0:0:
64,192,64725,1,0,0:0:0:0:
192,192,64844,1,0,0:0:0:0:
320,192,64964,1,0,0:0:0:0:
448,192,64964,1,0,0:0:0:0:
64,192,64964,1,0,0:0:0:0:
64,192,65083,1,0,0:0:0:0:
192,192,65202,1,0,0:0:0:0:
320,192,65202,1,0,0:0:0:0:
448,192,65202,1,0,0:0:0:0:
320,192,65320,1,0,0:0:0:0:
448,192,65439,1,0,0:0:0:0:
192,192,65439,1,0,0:0:0:0:
64,192,65439,1,0,0:0:0:0:
448,192,65557,1,0,0:0:0:0:
64,192,65675,1,0,0:0:0:0:
320,192,65675,1,0,0:0:0:0:
64,192,65792,1,0,0:0:0:0:
192,192,65792,1,0,0:0:0:0:
448,192,65792,1,0,0:0:0:0:
320,192,65910,1,0,0:0:0:0:
192,192,65910,1,0,0:0:0:0:
448,192,66027,1,0,0:0:0:0:
320,192,66027,1,0,0:0:0:0:
64,192,66027,1,0,0:0:0:0:
64,192,66144,1,0,0:0:0:0:
192,192,66144,1,0,0:0:0:0:
448,192,66144,1,0,0:0:0:0:
192,192,66260,1,0,0:0:0:0:
320,192,66260,1,0,0:0:0:0:
448,192,66260,1,0,0:0:0:0:
64,192,66377,1,0,0:0:0:0:
192,192,66377,1,0,0:0:0:0:
320,192,66377,1,0,0:0:0:0:
64,192,66493,1,0,0:0:0:0:
448,192,66493,1,0,0:0:0:0:
320,192,66493,1,0,0:0:0:0:
64,192,66609,1,0,0:0:0:0:
192,192,66609,1,0,0:0:0:0:
448,192,66609,1,0,0:0:0:0:
192,192,66724,1,0,0:0:0:0:
320,192,66842,1,0,0:0:0:0:
448,192,66842,1,0,0:0:0:0:
320,192,66957,1,0,0:0:0:0:
448,192,67073,1,0,0:0:0:0:
192,192,67073,1,0,0:0:0:0:
64,192,67073,1,0,0:0:0:0:
64,192,67187,1,0,0:0:0:0:
448,192,67303,1,0,0:0:0:0:
192,192,67303,1,0,0:0:0:0:
320,192,67303,1,0,0:0:0:0:
448,192,67417,1,0,0:0:0:0:
192,192,67532,1,0,0:0:0:0:
64,192,67532,1,0,0:0:0:0:
192,192,67646,1,0,0:0:0:0:
320,192,67646,1,0,0:0:0:0:
448,192,67646,1,0,0:0:0:0:
320,192,67760,1,0,0:0:0:0:
448,192,67873,1,0,0:0:0:0:
192,192,67873,1,0,0:0:0:0:
64,192,67873,1,0,0:0:0:0:
64,192,67987,1,0,0:0:0:0:
320,192,67987,1,0,0:0:0:0:
448,192,67987,1,0,0:0:0:0:
320,192,68100,1,0,0:0:0:0:
192,192,68213,1,0,0:0:0:0:
64,192,68213,1,0,0:0:0:0:
448,192,68213,1,0,0:0:0:0:
192,192,68325,1,0,0:0:0:0:
320,192,68439,1,0,0:0:0:0:
448,192,68439,1,0,0:0:0:0:
64,192,68439,1,0,0:0:0:0:
64,192,68551,1,0,0:0:0:0:
448,192,68664,1,0,0:0:0:0:
320,192,68664,1,0,0:0:0:0:
192,192,68664,1,0,0:0:0:0:
320,192,68775,1,0,0:0:0:0:
64,192,68888,1,0,0:0:0:0:
448,192,68888,1,0,0:0:0:0:
192,192,68888,1,0,0:0:0:0:
448,192,68999,1,0,0:0:0:0:
320,192,69111,1,0,0:0:0:0:
192,192,69111,1,0,0:0:0:0:
64,192,69111,1,0,0:0:0:0:
192,192,69222,1,0,0:0:0:0:
64,192,69333,1,0,0:0:0:0:
320,192,69333,1,0,0:0:0:0:
448,192,69443,1,0,0:0:0:0:
64,192,69443,1,0,0:0:0:0:
192,192,69443,1,0,0:0:0:0:
448,192,69554,1,0,0:0:0:0:
320,192,69554,1,0,0:0:0:0:
320,192,69664,1,0,0:0:0:0:
192,192,69664,1,0,0:0:0:0:
64,192,69664,1,0,0:0:0:0:
448,192,69775,1,0,0:0:0:0:
192,192,69775,1,0,0:0:0:0:
64,192,69775,1,0,0:0:0:0:
64,192,69884,1,0,0:0:0:0:
448,192,69884,1,0,0:0:0:0:
320,192,69884,1,0,0:0:0:0:
192,192,69995,1,0,0:0:0:0:
320,192,69995,1,0,0:0:0:0:
448,192,69995,1,0,0:0:0:0:
192,192,70104,1,0,0:0:0:0:
64,192,70214,1,0,0:0:0:0:
448,192,70214,1,0,0:0:0:0:
320,192,70214,1,0,0:0:0:0:
448,192,70323,1,0,0:0:0:0:
320,192,70432,1,0,0:0:0:0:
64,192,70432,1,0,0:0:0:0:
64,192,70540,1,0,0:0:0:0:
192,192,70649,1,0,0:0:0:0:
320,192,70649,1,0,0:0:0:0:
448,192,70649,1,0,0:0:0:0:
320,192,70757,1,0,0:0:0:0:
192,192,70866,1,0,0:0:0:0:
64,192,70866,1,0,0:0:0:0:
448,192,70866,1,0,0:0:0:0:
192,192,70973,1,0,0:0:0:0:
320,192,71082,1,0,0:0:0:0:
448,192,71082,1,0,0:0:0:0:
320,192,71189,1,0,0:0:0:0:
64,192,71189,1,0,0:0:0:0:
192,192,71189,1,0,0:0:0:0:
448,192,71297,1,0,0:0:0:0:
64,192,71297,1,0,0:0:0:0:
192,192,71404,1,0,0:0:0:0:
320,192,71404,1,0,0:0:0:0:
448,192,71404,1,0,0:0:0:0:
192,192,71511,1,0,0:0:0:0:
64,192,71511,1,0,0:0:0:0:
320,192,71511,1,0,0:0:0:0:
64,192,71617,1,0,0:0:0:0:
192,192,71725,1,0,0:0:0:0:
320,192,71725,1,0,0:0:0:0:
448,192,71725,1,0,0:0:0:0:
320,192,71831,1,0,0:0:0:0:
64,192,71938,1,0,0:0:0:0:
448,192,71938,1,0,0:0:0:0:
192,192,71938,1,0,0:0:0:0:
192,192,72044,1,0,0:0:0:0:
448,192,72150,1,0,0:0:0:0:
64,192,72150,1,0,0:0:0:0:
320,192,72150,1,0,0:0:0:0:
448,192,72255,1,0,0:0:0:0:
320,192,72361,1,0,0:0:0:0:
192,192,72361,1,0,0:0:0:0:
64,192,72361,1,0,0:0:0:0:
320,192,72466,1,0,0:0:0:0:
64,192,72572,1,0,0:0:0:0:
192,192,72572,1,0,0:0:0:0:
448,192,72572,1,0,0:0:0:0:
64,192,72676,1,0,0:0:0:0:
192,192,72782,1,0,0:0:0:0:
448,192,72782,1,0,0:0:0:0:
448,192,72886,1,0,0:0:0:0:
320,192,72886,1,0,0:0:0:0:
64,192,72886,1,0,0:0:0:0:
64,192,72991,1,0,0:0:0:0:
192,192,72991,1,0,0:0:0:0:
192,192,73095,1,0,0:0:0:0:
448,192,73095,1,0,0:0:0:0:
320,192,73095,1,0,0:0:0:0:
448,192,73199,1,0,0:0:0:0:
320,192,73199,1,0,0:0:0:0:
64,192,73199,1,0,0:0:0:0:
64,192,73302,1,0,0:0:0:0:
192,192,73302,1,0,0:0:0:0:
320,192,73302,1,0,0:0:0:0:
448,192,73407,1,0,0:0:0:0:
64,192,73407,1,0,0:0:0:0:
192,192,73407,1,0,0:0:0:0:
448,192,73510,1,0,0:0:0:0:
64,192,73510,1,0,0:0:0:0:
320,192,73510,1,0,0:0:0:0:
320,192,73614,1,0,0:0:0:0:
192,192,73614,1,0,0:0:0:0:
448,192,73614,1,0,0:0:0:0:
192,192,73717,1,0,0:0:0:0:
64,192,73717,1,0,0:0:0:0:
448,192,73717,1,0,0:0:0:0:
64,192,73820,1,0,0:0:0:0:
192,192,73820,1,0,0:0:0:0:
320,192,73820,1,0,0:0:0:0:
448,192,73922,1,0,0:0:0:0:
320,192,73922,1,0,0:0:0:0:
64,192,73922,1,0,0:0:0:0:
64,192,74025,1,0,0:0:0:0:
320,192,74025,1,0,0:0:0:0:
192,192,74025,1,0,0:0:0:0:
448,192,74025,1,0,0:0:0:0:
192,192,74127,1,0,0:0:0:0:
64,192,74230,1,0,0:0:0:0:
320,192,74230,1,0,0:0:0:0:
448,192,74230,1,0,0:0:0:0:
320,192,74332,1,0,0:0:0:0:
448,192,74434,1,0,0:0:0:0:
192,192,74434,1,0,0:0:0:0:
192,192,74535,1,0,0:0:0:0:
64,192,74637,1,0,0:0:0:0:
320,192,74637,1,0,0:0:0:0:
448,192,74637,1,0,0:0:0:0:
64,192,74738,1,0,0:0:0:0:
192,192,74840,1,0,0:0:0:0:
448,192,74840,1,0,0:0:0:0:
448,192,74941,1,0,0:0:0:0:
320,192,75042,1,0,0:0:0:0:
64,192,75042,1,0,0:0:0:0:
192,192,75042,1,0,0:0:0:0:
320,192,75142,1,0,0:0:0:0:
64,192,75243,1,0,0:0:0:0:
192,192,75243,1,0,0:0:0:0:
64,192,75343,1,0,0:0:0:0:
192,192,75444,1,0,0:0:0:0:
320,192,75444,1,0,0:0:0:0:
448,192,75444,1,0,0:0:0:0:
64,192,75444,1,0,0:0:0:0:
192,192,75544,1,0,0:0:0:0:
64,192,75644,1,0,0:0:0:0:
448,192,75644,1,0,0:0:0:0:
448,192,75743,1,0,0:0:0:0:
320,192,75843,1,0,0:0:0:0:
192,192,75843,1,0,0:0:0:0:
64,192,75843,1,0,0:0:0:0:
64,192,75942,1,0,0:0:0:0:
320,192,76042,1,0,0:0:0:0:
448,192,76042,1,0,0:0:0:0:
320,192,76141,1,0,0:0:0:0:
448,192,76240,1,0,0:0:0:0:
192,192,76240,1,0,0:0:0:0:
64,192,76240,1,0,0:0:0:0:
448,192,76437,1,0,0:0:0:0:
320,192,76437,1,0,0:0:0:0:
64,192,76437,1,0,0:0:0:0:
192,192,76633,1,0,0:0:0:0:
64,192,76633,1,0,0:0:0:0:
64,192,76732,1,0,0:0:0:0:
320,192,76732,1,0,0:0:0:0:
448,192,76732,1,0,0:0:0:0:
320,192,77025,1,0,0:0:0:0:
192,192,77025,1,0,0:0:0:0:
64,192,77025,1,0,0:0:0:0:
320,192,77220,1,0,0:0:0:0:
448,192,77220,1,0,0:0:0:0:
64,192,77220,1,0,0:0:0:0:
448,192,77317,1,0,0:0:0:0:
320,192,77414,1,0,0:0:0:0:
192,192,77414,1,0,0:0:0:0:
64,192,77414,1,0,0:0:0:0:
320,192,77510,1,0,0:0:0:0:
192,192,77608,1,0,0:0:0:0:
64,192,77608,1,0,0:0:0:0:
64,192,77704,1,0,0:0:0:0:
448,192,77801,1,0,0:0:0:0:
192,192,77801,1,0,0:0:0:0:
320,192,77801,1,0,0:0:0:0:
192,192,77897,1,0,0:0:0:0:
448,192,77993,1,0,0:0:0:0:
320,192,77993,1,0,0:0:0:0:
448,192,78088,1,0,0:0:0:0:
64,192,78185,1,0,0:0:0:0:
320,192,78185,1,0,0:0:0:0:
192,192,78185,1,0,0:0:0:0:
64,192,78280,1,0,0:0:0:0:
192,192,78376,1,0,0:0:0:0:
320,192,78376,1,0,0:0:0:0:
320,192,78471,1,0,0:0:0:0:
448,192,78566,1,0,0:0:0:0:
192,192,78566,1,0,0:0:0:0:
64,192,78566,1,0,0:0:0:0:
192,192,78660,1,0,0:0:0:0:
448,192,78756,1,0,0:0:0:0:
64,192,78756,1,0,0:0:0:0:
448,192,78850,1,0,0:0:0:0:
320,192,78945,1,0,0:0:0:0:
192,192,78945,1,0,0:0:0:0:
64,192,78945,1,0,0:0:0:0:
320,192,79039,1,0,0:0:0:0:
64,192,79134,1,0,0:0:0:0:
192,192,79134,1,0,0:0:0:0:
64,192,79228,1,0,0:0:0:0:
192,192,79322,1,0,0:0:0:0:
320,192,79322,1,0,0:0:0:0:
448,192,79322,1,0,0:0:0:0:
64,192,79510,1,0,0:0:0:0:
448,192,79510,1,0,0:0:0:0:
320,192,79510,1,0,0:0:0:0:
64,192,79697,1,0,0:0:0:0:
192,192,79697,1,0,0:0:0:0:
448,192,79697,1,0,0:0:0:0:
448,192,79790,1,0,0:0:0:0:
192,192,79790,1,0,0:0:0:0:
64,192,79790,1,0,0:0:0:0:
192,192,79975,1,0,0:0:0:0:
64,192,79975,1,0,0:0:0:0:
320,192,79975,1,0,0:0:0:0:
320,192,80069,1,0,0:0:0:0:
64,192,80069,1,0,0:0:0:0:
192,192,80069,1,0,0:0:0:0:
320,192,80254,1,0,0:0:0:0:
448,192,80254,1,0,0:0:0:0:
64,192,80254,1,0,0:0:0:0:
448,192,80346,1,0,0:0:0:0:
320,192,80438,1,0,0:0:0:0:
192,192,80438,1,0,0:0:0:0:
64,192,80438,1,0,0:0:0:0:
192,192,80530,1,0,0:0:0:0:
320,192,80623,1,0,0:0:0:0:
64,192,80623,1,0,0:0:0:0:
320,192,80714,1,0,0:0:0:0:
192,192,80805,1,0,0:0:0:0:
64,192,80805,1,0,0:0:0:0:
448,192,80805,1,0,0:0:0:0:
448,192,80896,1,0,0:0:0:0:
192,192,80989,1,0,0:0:0:0:
64,192,80989,1,0,0:0:0:0:
64,192,81080,1,0,0:0:0:0:
192,192,81171,1,0,0:0:0:0:
320,192,81171,1,0,0:0:0:0:
448,192,81171,1,0,0:0:0:0:
192,192,81261,1,0,0:0:0:0:
448,192,81353,1,0,0:0:0:0:
320,192,81353,1,0,0:0:0:0:
448,192,81443,1,0,0:0:0:0:
320,192,81534,1,0,0:0:0:0:
192,192,81534,1,0,0:0:0:0:
64,192,81534,1,0,0:0:0:0:
64,192,81624,1,0,0:0:0:0:
320,192,81715,1,0,0:0:0:0:
192,192,81715,1,0,0:0:0:0:
320,192,81805,1,0,0:0:0:0:
448,192,81895,1,0,0:0:0:0:
192,192,81895,1,0,0:0:0:0:
64,192,81895,1,0,0:0:0:0:
192,192,81984,1,0,0:0:0:0:
64,192,82075,1,0,0:0:0:0:
448,192,82075,1,0,0:0:0:0:
448,192,82164,1,0,0:0:0:0:
320,192,82254,1,0,0:0:0:0:
192,192,82254,1,0,0:0:0:0:
64,192,82254,1,0,0:0:0:0:
64,192,82433,1,0,0:0:0:0:
448,192,82433,1,0,0:0:0:0:
192,192,82433,1,0,0:0:0:0:
192,192,82611,1,0,0:0:0:0:
320,192,82611,1,0,0:0:0:0:
320,192,82699,1,0,0:0:0:0:
448,192,82699,1,0,0:0:0:0:
64,192,82699,1,0,0:0:0:0:
64,192,82966,1,0,0:0:0:0:
192,192,82966,1,0,0:0:0:0:
448,192,82966,1,0,0:0:0:0:
448,192,83142,1,0,0:0:0:0:
320,192,83142,1,0,0:0:0:0:
64,192,83142,1,0,0:0:0:0:
448,192,83229,1,0,0:0:0:0:
320,192,83318,1,0,0:0:0:0:
192,192,83318,1,0,0:0:0:0:
64,192,83318,1,0,0:0:0:0:
64,192,83405,1,0,0:0:0:0:
192,192,83493,1,0,0:0:0:0:
448,192,83493,1,0,0:0:0:0:
192,192,83580,1,0,0:0:0:0:
320,192,83668,1,0,0:0:0:0:
448,192,83668,1,0,0:0:0:0:
64,192,83668,1,0,0:0:0:0:
448,192,83755,1,0,0:0:0:0:
320,192,83842,1,0,0:0:0:0:
192,192,83842,1,0,0:0:0:0:
320,192,83928,1,0,0:0:0:0:
192,192,84016,1,0,0:0:0:0:
448,192,84016,1,0,0:0:0:0:
64,192,84016,1,0,0:0:0:0:
64,192,84102,1,0,0:0:0:0:
192,192,84189,1,0,0:0:0:0:
320,192,84189,1,0,0:0:0:0:
320,192,84275,1,0,0:0:0:0:
192,192,84362,1,0,0:0:0:0:
448,192,84362,1,0,0:0:0:0:
64,192,84362,1,0,0:0:0:0:
192,192,84448,1,0,0:0:0:0:
448,192,84534,1,0,0:0:0:0:
320,192,84534,1,0,0:0:0:0:
192,192,84619,1,0,0:0:0:0:
64,192,84619,1,0,0:0:0:0:
448,192,84706,1,0,0:0:0:0:
320,192,84706,1,0,0:0:0:0:
192,192,84791,1,0,0:0:0:0:
64,192,84877,1,0,0:0:0:0:
448,192,84877,1,0,0:0:0:0:
192,192,84962,1,0,0:0:0:0:
320,192,84962,1,0,0:0:0:0:
64,192,85048,1,0,0:0:0:0:
448,192,85048,1,0,0:0:0:0:
192,192,85133,1,0,0:0:0:0:
320,192,85218,1,0,0:0:0:0:
448,192,85218,1,0,0:0:0:0:
320,192,85302,1,0,0:0:0:0:
448,192,85302,1,0,0:0:0:0:
192,192,85388,1,0,0:0:0:0:
64,192,85388,1,0,0:0:0:0:
192,192,85472,1,0,0:0:0:0:
64,192,85472,1,0,0:0:0:0:
320,192,85557,1,0,0:0:0:0:
448,192,85641,1,0,0:0:0:0:
64,192,85641,1,0,0:0:0:0:
64,192,85726,1,0,0:0:0:0:
448,192,85726,1,0,0:0:0:0:
192,192,85810,1,0,0:0:0:0:
64,192,85895,1,0,0:0:0:0:
320,192,85895,1,0,0:0:0:0:
448,192,85895,1,0,0:0:0:0:
64,192,86063,1,0,0:0:0:0:
448,192,86063,1,0,0:0:0:0:
192,192,86063,1,0,0:0:0:0:
320,192,86231,1,0,0:0:0:0:
64,192,86231,1,0,0:0:0:0:
192,192,86231,1,0,0:0:0:0:
448,192,86398,1,0,0:0:0:0:
64,192,86398,1,0,0:0:0:0:
320,192,86398,1,0,0:0:0:0:
192,192,86564,1,0,0:0:0:0:
320,192,86564,1,0,0:0:0:0:
448,192,86564,1,0,0:0:0:0:
64,192,86731,1,0,0:0:0:0:
320,192,86731,1,0,0:0:0:0:
448,192,86731,1,0,0:0:0:0:
64,192,86897,1,0,0:0:0:0:
192,192,86897,1,0,0:0:0:0:
320,192,86897,1,0,0:0:0:0:
448,192,87062,1,0,0:0:0:0:
320,192,87062,1,0,0:0:0:0:
192,192,87062,1,0,0:0:0:0:
448,192,87227,1,0,0:0:0:0:
192,192,87227,1,0,0:0:0:0:
64,192,87227,1,0,0:0:0:0:
64,192,87391,1,0,0:0:0:0:
320,192,87391,1,0,0:0:0:0:
448,192,87391,1,0,0:0:0:0:
64,192,87555,1,0,0:0:0:0:
320,192,87555,1,0,0:0:0:0:
192,192,87555,1,0,0:0:0:0:
64,192,87718,1,0,0:0:0:0:
192,192,87718,1,0,0:0:0:0:
448,192,87718,1,0,0:0:0:0:
320,192,87718,1,0,0:0:0:0:
64,192,87881,1,0,0:0:0:0:
192,192,87881,1,0,0:0:0:0:
320,192,87881,1,0,0:0:0:0:
448,192,87881,1,0,0:0:0:0:
320,192,88043,1,0,0:0:0:0:
448,192,88125,1,0,0:0:0:0:
192,192,88125,1,0,0:0:0:0:
64,192,88125,1,0,0:0:0:0:
320,192,88206,1,0,0:0:0:0:
192,192,88368,1,0,0:0:0:0:
320,192,88368,1,0,0:0:0:0:
448,192,88368,1,0,0:0:0:0:
64,192,88368,1,0,0:0:0:0:
448,192,88529,1,0,0:0:0:0:
320,192,88529,1,0,0:0:0:0:
192,192,88529,1,0,0:0:0:0:
64,192,88529,1,0,0:0:0:0:
64,192,88690,1,0,0:0:0:0:
320,192,88690,1,0,0:0:0:0:
448,192,88690,1,0,0:0:0:0:
64,192,88850,1,0,0:0:0:0:
448,192,88850,1,0,0:0:0:0:
192,192,88850,1,0,0:0:0:0:
448,192,89010,1,0,0:0:0:0:
320,192,89010,1,0,0:0:0:0:
192,192,89010,1,0,0:0:0:0:
192,192,89170,1,0,0:0:0:0:
64,192,89170,1,0,0:0:0:0:
320,192,89170,1,0,0:0:0:0:
448,192,89329,1,0,0:0:0:0:
320,192,89329,1,0,0:0:0:0:
192,192,89329,1,0,0:0:0:0:
64,192,89488,1,0,0:0:0:0:
320,192,89488,1,0,0:0:0:0:
448,192,89488,1,0,0:0:0:0:
192,192,89646,1,0,0:0:0:0:
64,192,89646,1,0,0:0:0:0:
448,192,89646,1,0,0:0:0:0:
320,192,89804,1,0,0:0:0:0:
64,192,89804,1,0,0:0:0:0:
448,192,89804,1,0,0:0:0:0:
64,192,89961,1,0,0:0:0:0:
192,192,89961,1,0,0:0:0:0:
320,192,89961,1,0,0:0:0:0:
448,192,90118,1,0,0:0:0:0:
320,192,90118,1,0,0:0:0:0:
192,192,90118,1,0,0:0:0:0:
64,192,90275,1,0,0:0:0:0:
192,192,90275,1,0,0:0:0:0:
320,192,90275,1,0,0:0:0:0:
448,192,90275,1,0,0:0:0:0:
448,192,90431,1,0,0:0:0:0:
320,192,90431,1,0,0:0:0:0:
448,192,90508,1,0,0:0:0:0:
320,192,90508,1,0,0:0:0:0:
64,192,90587,1,0,0:0:0:0:
192,192,90587,1,0,0:0:0:0:
192,192,90664,1,0,0:0:0:0:
64,192,90664,1,0,0:0:0:0:
320,192,90742,1,0,0:0:0:0:
448,192,90742,1,0,0:0:0:0:
320,192,90897,1,0,0:0:0:0:
448,192,90897,1,0,0:0:0:0:
192,192,90897,1,0,0:0:0:0:
64,192,90897,1,0,0:0:0:0:
448,192,91052,1,0,0:0:0:0:
192,192,91052,1,0,0:0:0:0:
320,192,91052,1,0,0:0:0:0:
64,192,91052,1,0,0:0:0:0:
192,192,91206,1,0,0:0:0:0:
320,192,91206,1,0,0:0:0:0:
448,192,91206,1,0,0:0:0:0:
64,192,91360,1,0,0:0:0:0:
192,192,91360,1,0,0:0:0:0:
320,192,91360,1,0,0:0:0:0:
448,192,91513,1,0,0:0:0:0:
64,192,91513,1,0,0:0:0:0:
192,192,91513,1,0,0:0:0:0:
320,192,91666,1,0,0:0:0:0:
448,192,91666,1,0,0:0:0:0:
192,192,91666,1,0,0:0:0:0:
64,192,91819,1,0,0:0:0:0:
320,192,91819,1,0,0:0:0:0:
448,192,91819,1,0,0:0:0:0:
64,192,91971,1,0,0:0:0:0:
192,192,91971,1,0,0:0:0:0:
320,192,91971,1,0,0:0:0:0:
448,192,92123,1,0,0:0:0:0:
64,192,92123,1,0,0:0:0:0:
192,192,92123,1,0,0:0:0:0:
448,192,92275,1,0,0:0:0:0:
320,192,92275,1,0,0:0:0:0:
192,192,92275,1,0,0:0:0:0:
64,192,92426,1,0,0:0:0:0:
192,192,92426,1,0,0:0:0:0:
320,192,92426,1,0,0:0:0:0:
64,192,92577,1,0,0:0:0:0:
320,192,92577,1,0,0:0:0:0:
448,192,92577,1,0,0:0:0:0:
64,192,92727,1,0,0:0:0:0:
192,192,92727,1,0,0:0:0:0:
320,192,92727,1,0,0:0:0:0:
448,192,92727,1,0,0:0:0:0:
64,192,92877,1,0,0:0:0:0:
192,192,92877,1,0,0:0:0:0:
320,192,92877,1,0,0:0:0:0:
448,192,92877,1,0,0:0:0:0:
192,192,93027,1,0,0:0:0:0:
320,192,93101,1,0,0:0:0:0:
448,192,93101,1,0,0:0:0:0:
64,192,93101,1,0,0:0:0:0:
192,192,93176,1,0,0:0:0:0:
448,192,93325,1,0,0:0:0:0:
320,192,93325,1,0,0:0:0:0:
192,192,93325,1,0,0:0:0:0:
64,192,93325,1,0,0:0:0:0:
64,192,93474,1,0,0:0:0:0:
192,192,93474,1,0,0:0:0:0:
320,192,93474,1,0,0:0:0:0:
448,192,93474,1,0,0:0:0:0:
192,192,93622,1,0,0:0:0:0:
320,192,93622,1,0,0:0:0:0:
448,192,93622,1,0,0:0:0:0:
64,192,93770,1,0,0:0:0:0:
192,192,93770,1,0,0:0:0:0:
320,192,93770,1,0,0:0:0:0:
448,192,93917,1,0,0:0:0:0:
192,192,93917,1,0,0:0:0:0:
64,192,93917,1,0,0:0:0:0:
64,192,94064,1,0,0:0:0:0:
320,192,94064,1,0,0:0:0:0:
448,192,94064,1,0,0:0:0:0:
64,192,94211,1,0,0:0:0:0:
192,192,94211,1,0,0:0:0:0:
320,192,94211,1,0,0:0:0:0:
448,192,94357,1,0,0:0:0:0:
192,192,94357,1,0,0:0:0:0:
64,192,94357,1,0,0:0:0:0:
64,192,94503,1,0,0:0:0:0:
192,192,94503,1,0,0:0:0:0:
320,192,94503,1,0,0:0:0:0:
448,192,94649,1,0,0:0:0:0:
320,192,94649,1,0,0:0:0:0:
192,192,94649,1,0,0:0:0:0:
64,192,94794,1,0,0:0:0:0:
448,192,94794,1,0,0:0:0:0:
320,192,94794,1,0,0:0:0:0:
64,192,94939,1,0,0:0:0:0:
192,192,94939,1,0,0:0:0:0:
320,192,94939,1,0,0:0:0:0:
448,192,95084,1,0,0:0:0:0:
320,192,95084,1,0,0:0:0:0:
192,192,95084,1,0,0:0:0:0:
64,192,95084,1,0,0:0:0:0:
448,192,95228,1,0,0:0:0:0:
320,192,95228,1,0,0:0:0:0:
192,192,95228,1,0,0:0:0:0:
64,192,95228,1,0,0:0:0:0:
448,192,95372,1,0,0:0:0:0:
192,192,95372,1,0,0:0:0:0:
64,192,95372,1,0,0:0:0:0:
320,192,95372,1,0,0:0:0:0:
64,192,95516,1,0,0:0:0:0:
192,192,95516,1,0,0:0:0:0:
320,192,95516,1,0,0:0:0:0:
448,192,95516,1,0,0:0:0:0:
64,192,95659,1,0,0:0:0:0:
192,192,95659,1,0,0:0:0:0:
320,192,95659,1,0,0:0:0:0:
448,192,95659,1,0,0:0:0:0:
448,192,95802,1,0,0:0:0:0:
320,192,95802,1,0,0:0:0:0:
192,192,95802,1,0,0:0:0:0:
192,192,95945,1,0,0:0:0:0:
320,192,95945,1,0,0:0:0:0:
448,192,95945,1,0,0:0:0:0:
64,192,96087,1,0,0:0:0:0:
320,192,96087,1,0,0:0:0:0:
192,192,96087,1,0,0:0:0:0:
192,192,96229,1,0,0:0:0:0:
320,192,96229,1,0,0:0:0:0:
448,192,96229,1,0,0:0:0:0:
448,192,96371,1,0,0:0:0:0:
320,192,96512,1,0,0:0:0:0:
192,192,96512,1,0,0:0:0:0:
64,192,96512,1,0,0:0:0:0:
192,192,96653,1,0,0:0:0:0:
320,192,96653,1,0,0:0:0:0:
64,192,96794,1,0,0:0:0:0:
320,192,96794,1,0,0:0:0:0:
448,192,96794,1,0,0:0:0:0:
320,192,96934,1,0,0:0:0:0:
448,192,96934,1,0,0:0:0:0:
64,192,96934,1,0,0:0:0:0:
320,192,97074,1,0,0:0:0:0:
448,192,97074,1,0,0:0:0:0:
64,192,97074,1,0,0:0:0:0:
64,192,97214,1,0,0:0:0:0:
192,192,97214,1,0,0:0:0:0:
448,192,97214,1,0,0:0:0:0:
64,192,97353,1,0,0:0:0:0:
320,192,97353,1,0,0:0:0:0:
448,192,97353,1,0,0:0:0:0:
320,192,97492,1,0,0:0:0:0:
192,192,97631,1,0,0:0:0:0:
64,192,97631,1,0,0:0:0:0:
448,192,97631,1,0,0:0:0:0:
64,192,97769,1,0,0:0:0:0:
320,192,97769,1,0,0:0:0:0:
448,192,97769,1,0,0:0:0:0:
320,192,97907,1,0,0:0:0:0:
64,192,98045,1,0,0:0:0:0:
192,192,98045,1,0,0:0:0:0:
320,192,98045,1,0,0:0:0:0:
64,192,98182,1,0,0:0:0:0:
192,192,98182,1,0,0:0:0:0:
320,192,98182,1,0,0:0:0:0:
320,192,98319,1,0,0:0:0:0:
448,192,98319,1,0,0:0:0:0:
64,192,98319,1,0,0:0:0:0:
64,192,98456,1,0,0:0:0:0:
192,192,98456,1,0,0:0:0:0:
320,192,98456,1,0,0:0:0:0:
192,192,98592,1,0,0:0:0:0:
64,192,98728,1,0,0:0:0:0:
320,192,98728,1,0,0:0:0:0:
448,192,98728,1,0,0:0:0:0:
64,192,98864,1,0,0:0:0:0:
192,192,98864,1,0,0:0:0:0:
448,192,98999,1,0,0:0:0:0:
192,192,98999,1,0,0:0:0:0:
320,192,98999,1,0,0:0:0:0:
448,192,99134,1,0,0:0:0:0:
320,192,99134,1,0,0:0:0:0:
192,192,99134,1,0,0:0:0:0:
448,192,99269,1,0,0:0:0:0:
192,192,99269,1,0,0:0:0:0:
320,192,99269,1,0,0:0:0:0:
64,192,99404,1,0,0:0:0:0:
192,192,99404,1,0,0:0:0:0:
320,192,99404,1,0,0:0:0:0:
448,192,99538,1,0,0:0:0:0:
320,192,99538,1,0,0:0:0:0:
192,192,99538,1,0,0:0:0:0:
448,192,99672,1,0,0:0:0:0:
320,192,99672,1,0,0:0:0:0:
192,192,99672,1,0,0:0:0:0:
64,192,99806,1,0,0:0:0:0:
192,192,99806,1,0,0:0:0:0:
448,192,99806,1,0,0:0:0:0:
64,192,99939,1,0,0:0:0:0:
448,192,99939,1,0,0:0:0:0:
320,192,99939,1,0,0:0:0:0:
320,192,100072,1,0,0:0:0:0:
448,192,100205,1,0,0:0:0:0:
192,192,100205,1,0,0:0:0:0:
64,192,100205,1,0,0:0:0:0:
448,192,100337,1,0,0:0:0:0:
192,192,100337,1,0,0:0:0:0:
64,192,100337,1,0,0:0:0:0:
64,192,100469,1,0,0:0:0:0:
320,192,100469,1,0,0:0:0:0:
448,192,100469,1,0,0:0:0:0:
64,192,100601,1,0,0:0:0:0:
448,192,100601,1,0,0:0:0:0:
192,192,100601,1,0,0:0:0:0:
192,192,100733,1,0,0:0:0:0:
320,192,100864,1,0,0:0:0:0:
448,192,100864,1,0,0:0:0:0:
64,192,100864,1,0,0:0:0:0:
192,192,100995,1,0,0:0:0:0:
320,192,100995,1,0,0:0:0:0:
64,192,101126,1,0,0:0:0:0:
448,192,101126,1,0,0:0:0:0:
192,192,101126,1,0,0:0:0:0:
64,192,101256,1,0,0:0:0:0:
192,192,101256,1,0,0:0:0:0:
448,192,101256,1,0,0:0:0:0:
448,192,101386,1,0,0:0:0:0:
192,192,101386,1,0,0:0:0:0:
64,192,101386,1,0,0:0:0:0:
64,192,101516,1,0,0:0:0:0:
192,192,101516,1,0,0:0:0:0:
320,192,101516,1,0,0:0:0:0:
192,192,101646,1,0,0:0:0:0:
448,192,101646,1,0,0:0:0:0:
64,192,101646,1,0,0:0:0:0:
448,192,101775,1,0,0:0:0:0:
320,192,101904,1,0,0:0:0:0:
192,192,101904,1,0,0:0:0:0:
64,192,101904,1,0,0:0:0:0:
192,192,102033,1,0,0:0:0:0:
320,192,102033,1,0,0:0:0:0:
448,192,102033,1,0,0:0:0:0:
448,192,102161,1,0,0:0:0:0:
64,192,102289,1,0,0:0:0:0:
192,192,102289,1,0,0:0:0:0:
320,192,102289,1,0,0:0:0:0:
64,192,102417,1,0,0:0:0:0:
192,192,102417,1,0,0:0:0:0:
320,192,102417,1,0,0:0:0:0:
448,192,102545,1,0,0:0:0:0:
320,192,102545,1,0,0:0:0:0:
64,192,102545,1,0,0:0:0:0:
64,192,102672,1,0,0:0:0:0:
320,192,102672,1,0,0:0:0:0:
192,192,102672,1,0,0:0:0:0:
192,192,102799,1,0,0:0:0:0:
320,192,102926,1,0,0:0:0:0:
448,192,102926,1,0,0:0:0:0:
64,192,102926,1,0,0:0:0:0:
192,192,103053,1,0,0:0:0:0:
64,192,103053,1,0,0:0:0:0:
192,192,103179,1,0,0:0:0:0:
320,192,103179,1,0,0:0:0:0:
448,192,103179,1,0,0:0:0:0:
192,192,103305,1,0,0:0:0:0:
320,192,103305,1,0,0:0:0:0:
448,192,103305,1,0,0:0:0:0:
192,192,103431,1,0,0:0:0:0:
448,192,103431,1,0,0:0:0:0:
320,192,103431,1,0,0:0:0:0:
192,192,103557,1,0,0:0:0:0:
64,192,103557,1,0,0:0:0:0:
448,192,103557,1,0,0:0:0:0:
192,192,103682,1,0,0:0:0:0:
320,192,103682,1,0,0:0:0:0:
448,192,103682,1,0,0:0:0:0:
192,192,103807,1,0,0:0:0:0:
64,192,103807,1,0,0:0:0:0:
320,192,103807,1,0,0:0:0:0:
64,192,103932,1,0,0:0:0:0:
320,192,103932,1,0,0:0:0:0:
448,192,103932,1,0,0:0:0:0:
448,192,104056,1,0,0:0:0:0:
320,192,104056,1,0,0:0:0:0:
192,192,104056,1,0,0:0:0:0:
192,192,104180,1,0,0:0:0:0:
320,192,104304,1,0,0:0:0:0:
448,192,104304,1,0,0:0:0:0:
64,192,104304,1,0,0:0:0:0:
64,192,104428,1,0,0:0:0:0:
320,192,104428,1,0,0:0:0:0:
448,192,104428,1,0,0:0:0:0:
64,192,104551,1,0,0:0:0:0:
192,192,104551,1,0,0:0:0:0:
448,192,104551,1,0,0:0:0:0:
64,192,104674,1,0,0:0:0:0:
448,192,104674,1,0,0:0:0:0:
320,192,104674,1,0,0:0:0:0:
320,192,104797,1,0,0:0:0:0:
448,192,104920,1,0,0:0:0:0:
192,192,104920,1,0,0:0:0:0:
64,192,104920,1,0,0:0:0:0:
320,192,105042,1,0,0:0:0:0:
64,192,105042,1,0,0:0:0:0:
448,192,105164,1,0,0:0:0:0:
320,192,105164,1,0,0:0:0:0:
192,192,105164,1,0,0:0:0:0:
448,192,105286,1,0,0:0:0:0:
320,192,105286,1,0,0:0:0:0:
192,192,105286,1,0,0:0:0:0:
320,192,105408,1,0,0:0:0:0:
192,192,105408,1,0,0:0:0:0:
448,192,105408,1,0,0:0:0:0:
64,192,105529,1,0,0:0:0:0:
192,192,105529,1,0,0:0:0:0:
320,192,105529,1,0,0:0:0:0:
448,192,105650,1,0,0:0:0:0:
320,192,105650,1,0,0:0:0:0:
192,192,105650,1,0,0:0:0:0:
448,192,105771,1,0,0:0:0:0:
320,192,105892,1,0,0:0:0:0:
192,192,105892,1,0,0:0:0:0:
64,192,105892,1,0,0:0:0:0:
448,192,106012,1,0,0:0:0:0:
320,192,106012,1,0,0:0:0:0:
192,192,106012,1,0,0:0:0:0:
448,192,106132,1,0,0:0:0:0:
64,192,106132,1,0,0:0:0:0:
192,192,106252,1,0,0:0:0:0:
320,192,106252,1,0,0:0:0:0:
64,192,106252,1,0,0:0:0:0:
320,192,106372,1,0,0:0:0:0:
64,192,106372,1,0,0:0:0:0:
192,192,106372,1,0,0:0:0:0:
448,192,106492,1,0,0:0:0:0:
64,192,106492,1,0,0:0:0:0:
192,192,106492,1,0,0:0:0:0:
64,192,106611,1,0,0:0:0:0:
192,192,106611,1,0,0:0:0:0:
320,192,106611,1,0,0:0:0:0:
320,192,106730,1,0,0:0:0:0:
448,192,106849,1,0,0:0:0:0:
192,192,106849,1,0,0:0:0:0:
64,192,106849,1,0,0:0:0:0:
320,192,106968,1,0,0:0:0:0:
192,192,106968,1,0,0:0:0:0:
448,192,107086,1,0,0:0:0:0:
320,192,107086,1,0,0:0:0:0:
64,192,107086,1,0,0:0:0:0:
448,192,107204,1,0,0:0:0:0:
320,192,107204,1,0,0:0:0:0:
64,192,107204,1,0,0:0:0:0:
448,192,107322,1,0,0:0:0:0:
320,192,107322,1,0,0:0:0:0:
64,192,107322,1,0,0:0:0:0:
64,192,107440,1,0,0:0:0:0:
448,192,107440,1,0,0:0:0:0:
192,192,107440,1,0,0:0:0:0:
192,192,107557,1,0,0:0:0:0:
320,192,107557,1,0,0:0:0:0:
448,192,107557,1,0,0:0:0:0:
448,192,107674,1,0,0:0:0:0:
192,192,107674,1,0,0:0:0:0:
64,192,107674,1,0,0:0:0:0:
64,192,107791,1,0,0:0:0:0:
192,192,107791,1,0,0:0:0:0:
320,192,107791,1,0,0:0:0:0:
448,192,107908,1,0,0:0:0:0:
320,192,107908,1,0,0:0:0:0:
192,192,107908,1,0,0:0:0:0:
448,192,108024,1,0,0:0:0:0:
64,192,108141,1,0,0:0:0:0:
192,192,108141,1,0,0:0:0:0:
320,192,108141,1,0,0:0:0:0:
64,192,108257,1,0,0:0:0:0:
192,192,108257,1,0,0:0:0:0:
320,192,108257,1,0,0:0:0:0:
64,192,108373,1,0,0:0:0:0:
448,192,108373,1,0,0:0:0:0:
192,192,108373,1,0,0:0:0:0:
320,192,108489,1,0,0:0:0:0:
192,192,108489,1,0,0:0:0:0:
64,192,108489,1,0,0:0:0:0:
320,192,108604,1,0,0:0:0:0:
448,192,108719,1,0,0:0:0:0:
192,192,108719,1,0,0:0:0:0:
64,192,108719,1,0,0:0:0:0:
320,192,108834,1,0,0:0:0:0:
64,192,108834,1,0,0:0:0:0:
448,192,108949,1,0,0:0:0:0:
320,192,108949,1,0,0:0:0:0:
192,192,108949,1,0,0:0:0:0:
192,192,109064,1,0,0:0:0:0:
320,192,109064,1,0,0:0:0:0:
448,192,109064,1,0,0:0:0:0:
448,192,109178,1,0,0:0:0:0:
320,192,109178,1,0,0:0:0:0:
192,192,109178,1,0,0:0:0:0:
64,192,109292,1,0,0:0:0:0:
448,192,109292,1,0,0:0:0:0:
192,192,109292,1,0,0:0:0:0:
448,192,109406,1,0,0:0:0:0:
320,192,109406,1,0,0:0:0:0:
192,192,109406,1,0,0:0:0:0:
320,192,109520,1,0,0:0:0:0:
448,192,109633,1,0,0:0:0:0:
64,192,109633,1,0,0:0:0:0:
192,192,109633,1,0,0:0:0:0:
64,192,109746,1,0,0:0:0:0:
192,192,109746,1,0,0:0:0:0:
320,192,109746,1,0,0:0:0:0:
320,192,109859,1,0,0:0:0:0:
192,192,109972,1,0,0:0:0:0:
64,192,109972,1,0,0:0:0:0:
448,192,109972,1,0,0:0:0:0:
448,192,110085,1,0,0:0:0:0:
192,192,110085,1,0,0:0:0:0:
64,192,110085,1,0,0:0:0:0:
64,192,110197,1,0,0:0:0:0:
192,192,110197,1,0,0:0:0:0:
320,192,110197,1,0,0:0:0:0:
64,192,110309,1,0,0:0:0:0:
192,192,110309,1,0,0:0:0:0:
448,192,110309,1,0,0:0:0:0:
448,192,110421,1,0,0:0:0:0:
320,192,110533,1,0,0:0:0:0:
192,192,110533,1,0,0:0:0:0:
64,192,110533,1,0,0:0:0:0:
448,192,110645,1,0,0:0:0:0:
192,192,110645,1,0,0:0:0:0:
64,192,110756,1,0,0:0:0:0:
448,192,110756,1,0,0:0:0:0:
320,192,110756,1,0,0:0:0:0:
448,192,110867,1,0,0:0:0:0:
320,192,110867,1,0,0:0:0:0:
64,192,110867,1,0,0:0:0:0:
448,192,110978,1,0,0:0:0:0:
320,192,110978,1,0,0:0:0:0:
64,192,110978,1,0,0:0:0:0:
192,192,111089,1,0,0:0:0:0:
320,192,111089,1,0,0:0:0:0:
448,192,111089,1,0,0:0:0:0:
448,192,111199,1,0,0:0:0:0:
320,192,111199,1,0,0:0:0:0:
64,192,111199,1,0,0:0:0:0:
64,192,111309,1,0,0:0:0:0:
192,192,111309,1,0,0:0:0:0:
320,192,111309,1,0,0:0:0:0:
448,192,111419,1,0,0:0:0:0:
192,192,111419,1,0,0:0:0:0:
64,192,111419,1,0,0:0:0:0:
448,192,111529,1,0,0:0:0:0:
320,192,111529,1,0,0:0:0:0:
192,192,111529,1,0,0:0:0:0:
448,192,111639,1,0,0:0:0:0:
64,192,111639,1,0,0:0:0:0:
64,192,111748,1,0,0:0:0:0:
192,192,111748,1,0,0:0:0:0:
320,192,111748,1,0,0:0:0:0:
64,192,111857,1,0,0:0:0:0:
320,192,111857,1,0,0:0:0:0:
192,192,111857,1,0,0:0:0:0:
64,192,111966,1,0,0:0:0:0:
192,192,111966,1,0,0:0:0:0:
320,192,111966,1,0,0:0:0:0:
320,192,112075,1,0,0:0:0:0:
192,192,112075,1,0,0:0:0:0:
64,192,112075,1,0,0:0:0:0:
64,192,112184,1,0,0:0:0:0:
192,192,112184,1,0,0:0:0:0:
320,192,112184,1,0,0:0:0:0:
64,192,112293,1,0,0:0:0:0:
192,192,112293,1,0,0:0:0:0:
320,192,112293,1,0,0:0:0:0:
64,192,112401,1,0,0:0:0:0:
192,192,112401,1,0,0:0:0:0:
320,192,112401,1,0,0:0:0:0:
64,192,112509,1,0,0:0:0:0:
448,192,112509,1,0,0:0:0:0:
448,192,112617,1,0,0:0:0:0:
320,192,112617,1,0,0:0:0:0:
192,192,112617,1,0,0:0:0:0:
448,192,112725,1,0,0:0:0:0:
320,192,112725,1,0,0:0:0:0:
192,192,112725,1,0,0:0:0:0:
448,192,112833,1,0,0:0:0:0:
320,192,112833,1,0,0:0:0:0:
192,192,112833,1,0,0:0:0:0:
192,192,112940,1,0,0:0:0:0:
320,192,112940,1,0,0:0:0:0:
448,192,112940,1,0,0:0:0:0:
448,192,113047,1,0,0:0:0:0:
320,192,113047,1,0,0:0:0:0:
192,192,113047,1,0,0:0:0:0:
448,192,113154,1,0,0:0:0:0:
320,192,113154,1,0,0:0:0:0:
192,192,113154,1,0,0:0:0:0:
320,192,113261,1,0,0:0:0:0:
192,192,113261,1,0,0:0:0:0:
448,192,113261,1,0,0:0:0:0:
64,192,113368,1,0,0:0:0:0:
320,192,113368,1,0,0:0:0:0:
64,192,113474,1,0,0:0:0:0:
192,192,113474,1,0,0:0:0:0:
448,192,113474,1,0,0:0:0:0:
64,192,113580,1,0,0:0:0:0:
192,192,113580,1,0,0:0:0:0:
448,192,113580,1,0,0:0:0:0:
448,192,113686,1,0,0:0:0:0:
192,192,113686,1,0,0:0:0:0:
64,192,113686,1,0,0:0:0:0:
448,192,113792,1,0,0:0:0:0:
192,192,113792,1,0,0:0:0:0:
64,192,113792,1,0,0:0:0:0:
448,192,113898,1,0,0:0:0:0:
192,192,113898,1,0,0:0:0:0:
64,192,113898,1,0,0:0:0:0:
448,192,114003,1,0,0:0:0:0:
192,192,114003,1,0,0:0:0:0:
64,192,114003,1,0,0:0:0:0:
448,192,114108,1,0,0:0:0:0:
192,192,114108,1,0,0:0:0:0:
64,192,114108,1,0,0:0:0:0:
448,192,114213,1,0,0:0:0:0:
320,192,114213,1,0,0:0:0:0:
64,192,114318,1,0,0:0:0:0:
192,192,114318,1,0,0:0:0:0:
320,192,114318,1,0,0:0:0:0:
448,192,114318,1,0,0:0:0:0:
