osu file format v14

[General]
AudioFilename: deltaMAX.mp3
AudioLeadIn: 0
PreviewTime: 39392
Countdown: 0
SampleSet: Normal
StackLeniency: 0.7
Mode: 3
LetterboxInBreaks: 0
SpecialStyle: 0
WidescreenStoryboard: 1

[Editor]
DistanceSpacing: 2
BeatDivisor: 4
GridSize: 8
TimelineZoom: 2

[Metadata]
Title:deltaMAX
TitleUnicode:ΔMAX
Artist:DM Ashura
ArtistUnicode:DM Ashura
Creator:Mage
Version:Expert
Source:DanceDanceRevolution UNIVERSE3
Tags:X2 REFLEC BEAT groovin'!! Upper Myle
BeatmapID:1203157
BeatmapSetID:567654

[Difficulty]
HPDrainRate:8
CircleSize:4
OverallDifficulty:8
ApproachRate:5
SliderMultiplier:1.4
SliderTickRate:1

[Events]
//Background and Video events
Video,261,"video.avi"
0,0,"bege.jpg",0,0
//Break Periods
//Storyboard Layer 0 (Background)
//Storyboard Layer 1 (Fail)
//Storyboard Layer 2 (Pass)
//Storyboard Layer 3 (Foreground)
//Storyboard Sound Samples

[TimingPoints]
9915,594.088816278034,4,1,0,15,1,0
9915,-99.9950495049504,4,1,0,15,0,0
10509,588.264130594637,4,1,0,15,1,0
10509,-100.985148514851,4,1,0,15,0,0
11097,582.552551094713,4,1,0,15,1,0
11097,-101.975247524753,4,1,0,15,0,0
11680,576.950814943026,4,1,0,15,1,0
11680,-102.965346534653,4,1,0,15,0,0
12257,571.455783608743,4,1,0,15,1,0
12257,-103.955445544554,4,1,0,15,0,0
12828,566.064437001745,4,1,0,15,1,0
12828,-104.945544554456,4,1,0,15,0,0
13394,560.773867937754,4,1,0,15,1,0
13394,-105.935643564356,4,1,0,15,0,0
13955,555.581276910968,4,1,0,15,1,0
13955,-106.925742574257,4,1,0,15,0,0
14511,550.483967154457,4,1,0,15,1,0
14511,-107.915841584158,4,1,0,15,0,0
15061,545.479339969999,4,1,0,15,1,0
15061,-108.905940594059,4,1,0,15,0,0
15606,540.564890310374,4,1,0,15,1,0
15606,-109.89603960396,4,1,0,15,0,0
16147,535.73820259833,4,1,0,15,1,0
16147,-110.886138613861,4,1,0,15,0,0
16683,530.996946767556,4,1,0,15,1,0
16683,-111.876237623762,4,1,0,15,0,0
17214,526.33887451204,4,1,0,15,1,0
17214,-112.866336633663,4,1,0,15,0,0
17740,521.761815731119,4,1,0,15,1,0
17740,-113.856435643564,4,1,0,15,0,0
18262,517.263675158412,4,1,0,15,1,0
18262,-114.846534653465,4,1,0,15,0,0
18779,512.84242916364,4,1,0,15,1,0
18779,-115.836633663366,4,1,0,15,0,0
19292,508.496122717064,4,1,0,15,1,0
19292,-116.826732673267,4,1,0,15,0,0
19800,504.222866506996,4,1,0,15,1,0
19800,-117.816831683168,4,1,0,15,0,0
20304,500.020834201425,4,1,0,15,1,0
20304,-118.806930693069,4,1,0,15,0,0
20804,495.888259845448,4,1,0,15,1,0
20804,-119.79702970297,4,1,0,15,0,0
21300,491.823435386696,4,1,0,15,1,0
21300,-120.787128712871,4,1,0,15,0,0
21792,487.824708321476,4,1,0,15,1,0
21792,-121.777227722772,4,1,0,15,0,0
22280,483.890479454817,4,1,0,15,1,0
22280,-122.767326732673,4,1,0,15,0,0
22764,480.019200768031,4,1,0,15,1,0
22764,-123.757425742574,4,1,0,15,0,0
23244,476.209373387833,4,1,0,15,1,0
23244,-124.747524752475,4,1,0,15,0,0
23720,472.459545651404,4,1,0,15,1,0
23720,-125.737623762376,4,1,0,15,0,0
24192,468.768311262159,4,1,0,15,1,0
24192,-126.727722772277,4,1,0,15,0,0
24661,465.1343075313,4,1,0,15,1,0
24661,-127.717821782178,4,1,0,15,0,0
25126,461.556213700527,4,1,0,15,1,0
25126,-128.707920792079,4,1,0,15,0,0
25588,458.032749341578,4,1,0,15,1,0
25588,-129.69801980198,4,1,0,15,0,0
26046,454.562672828516,4,1,0,15,1,0
26046,-130.688118811881,4,1,0,15,0,0
26501,451.144779878943,4,1,0,15,1,0
26501,-131.678217821782,4,1,0,15,0,0
26952,447.777902160528,4,1,0,15,1,0
26952,-132.668316831683,4,1,0,15,0,0
27400,444.46090595948,4,1,0,15,1,0
27400,-133.658415841584,4,1,0,15,0,0
27844,441.192690907754,4,1,0,15,1,0
27844,-134.648514851485,4,1,0,15,0,0
28285,437.972188766013,4,1,0,15,1,0
28285,-135.638613861386,4,1,0,15,0,0
28723,434.798362259502,4,1,0,15,1,0
28723,-136.628712871287,4,1,0,15,0,0
29158,431.670203964171,4,1,0,15,1,0
29158,-137.618811881188,4,1,0,15,0,0
29590,428.586735240544,4,1,0,15,1,0
29590,-138.608910891089,4,1,0,15,0,0
30019,425.547005212951,4,1,0,15,1,0
30019,-139.59900990099,4,1,0,15,0,0
30445,422.550089791894,4,1,0,15,1,0
30445,-140.589108910891,4,1,0,15,0,0
30868,419.595090737438,4,1,0,15,1,0
30868,-141.579207920792,4,1,0,15,0,0
31288,416.681134761624,4,1,0,15,1,0
31288,-142.569306930693,4,1,0,15,0,0
31705,413.807372668023,4,1,0,15,1,0
31705,-143.559405940594,4,1,0,15,0,0
32119,410.972978526662,4,1,0,15,1,0
32119,-144.549504950495,4,1,0,15,0,0
32530,408.177148882615,4,1,0,15,1,0
32530,-145.539603960396,4,1,0,15,0,0
32938,405.419101996689,4,1,0,15,1,0
32938,-146.529702970297,4,1,0,15,0,0
33343,402.698077116682,4,1,0,15,1,0
33343,-147.519801980198,4,1,0,15,0,0
33746,400.013333777793,4,1,0,15,1,0
33746,-148.509900990099,4,1,0,15,0,0
34146,397.364151130832,4,1,0,15,1,0
34146,-149.5,4,1,0,15,0,0
34543,394.749827296951,4,1,0,15,1,0
34543,-150.490099009901,4,1,0,15,0,0
34938,392.169678747671,4,1,0,15,1,0
34938,-151.480198019802,4,1,0,15,0,0
35330,389.623039709081,4,1,0,15,1,0
35330,-152.470297029703,4,1,0,15,0,0
35720,387.109261589084,4,1,0,15,1,0
35720,-153.460396039604,4,1,0,15,0,0
36107,384.62771242668,4,1,0,15,1,0
36107,-154.450495049505,4,1,0,15,0,0
36492,382.177776362305,4,1,0,15,1,0
36492,-155.440594059406,4,1,0,15,0,0
36874,379.758853128264,4,1,0,15,1,0
36874,-156.430693069307,4,1,0,15,0,0
37254,377.370357558414,4,1,0,15,1,0
37254,-157.420792079208,4,1,0,15,0,0
37631,375.011719116222,4,1,0,15,1,0
37631,-158.410891089109,4,1,0,15,0,0
38006,372.682381440417,4,1,0,15,1,0
38006,-159.40099009901,4,1,0,15,0,0
38379,370.381801907466,4,1,0,15,1,0
38379,-160.391089108911,4,1,0,15,0,0
38749,368.10945121016,4,1,0,15,1,0
38749,-161.381188118812,4,1,0,15,0,0
39117,365.864812951614,4,1,0,15,1,0
39117,-162.371287128713,4,1,0,15,0,0
39483,363.647383254038,4,1,0,15,1,0
39483,-163.361386138614,4,1,0,15,0,0
39847,363.647383254038,4,1,0,15,1,0
39847,-163.361386138614,4,1,0,15,0,0
40208,359.292194377077,4,1,0,15,1,0
40208,-165.341584158416,4,1,0,15,0,0
40567,357.153486710914,4,1,0,15,1,0
40567,-166.331683168317,4,1,0,15,0,0
40924,355.040089943489,4,1,0,15,1,0
40924,-167.321782178218,4,1,0,15,0,0
41279,352.951557398747,4,1,0,15,1,0
41279,-168.311881188119,4,1,0,15,0,0
41632,350.887452849499,4,1,0,15,1,0
41632,-169.30198019802,4,1,0,15,0,0
41983,348.847350213669,4,1,0,15,1,0
41983,-170.292079207921,4,1,0,15,0,0
42332,346.830833261077,4,1,0,15,1,0
42332,-171.282178217822,4,1,0,15,0,0
42679,344.837495330326,4,1,0,15,1,0
42679,-172.272277227723,4,1,0,15,0,0
43024,342.866939055402,4,1,0,15,1,0
43024,-173.262376237624,4,1,0,15,0,0
43367,340.918776101594,4,1,0,15,1,0
43367,-174.252475247525,4,1,0,15,0,0
43708,338.992626910365,4,1,0,15,1,0
43708,-175.242574257426,4,1,0,15,0,0
44047,337.088120452822,4,1,0,15,1,0
44047,-176.232673267327,4,1,0,15,0,0
44384,335.204893991452,4,1,0,15,1,0
44384,-177.222772277228,4,1,0,15,0,0
44719,333.342592849801,4,1,0,15,1,0
44719,-178.212871287129,4,1,0,15,0,0
45052,331.500870189784,4,1,0,15,1,0
45052,-179.20297029703,4,1,0,15,0,0
45384,329.679386796341,4,1,0,15,1,0
45384,-180.19306930693,4,1,0,15,0,0
45714,327.877810869149,4,1,0,15,1,0
45714,-181.183168316832,4,1,0,15,0,0
46042,326.095817821136,4,1,0,15,1,0
46042,-182.173267326733,4,1,0,15,0,0
46368,324.333090083516,4,1,0,15,1,0
46368,-183.163366336634,4,1,0,15,0,0
46692,322.589316917121,4,1,0,15,1,0
46692,-184.153465346535,4,1,0,15,0,0
47015,320.864194229792,4,1,0,15,1,0
47015,-185.143564356436,4,1,0,15,0,0
47336,319.157424399585,4,1,0,15,1,0
47336,-186.133663366337,4,1,0,15,0,0
47655,317.468716103601,4,1,0,15,1,0
47655,-187.123762376237,4,1,0,15,0,0
47972,315.797784152215,4,1,0,15,1,0
47972,-188.113861386138,4,1,0,15,0,0
48288,314.144349328516,4,1,0,15,1,0
48288,-189.10396039604,4,1,0,15,0,0
48602,312.508138232766,4,1,0,15,1,0
48602,-190.094059405941,4,1,0,15,0,0
48915,310.888883131687,4,1,0,15,1,0
48915,-191.084158415842,4,1,0,15,0,0
49226,309.286321812418,4,1,0,15,1,0
49226,-192.074257425742,4,1,0,15,0,0
49535,307.70019744096,4,1,0,15,1,0
49535,-193.064356435644,4,1,0,15,0,0
49843,306.13025842496,4,1,0,15,1,0
49843,-194.054455445544,4,1,0,15,0,0
50149,304.576258280667,4,1,0,15,1,0
50149,-195.044554455446,4,1,0,15,0,0
50454,303.037955503927,4,1,0,15,1,0
50454,-196.034653465346,4,1,0,15,0,0
50757,301.515113445061,4,1,0,15,1,0
50757,-197.024752475248,4,1,0,15,0,0
51059,300.007500187505,4,1,0,15,1,0
51059,-198.014851485148,4,1,0,15,0,0
51359,298.51488843006,4,1,0,15,1,0
51359,-199.00495049505,4,1,0,15,0,0
51658,297.037055372658,4,1,0,15,1,0
51658,-199.99504950495,4,1,0,15,0,0
51955,295.573782605483,4,1,0,15,1,0
51955,-200.985148514851,4,1,0,15,0,0
52251,294.124856001373,4,1,0,15,1,0
52251,-201.975247524752,4,1,0,15,0,0
52545,292.690065611356,4,1,0,15,1,0
52545,-202.965346534654,4,1,0,15,0,0
52838,291.269205563242,4,1,0,15,1,0
52838,-203.955445544554,4,1,0,15,0,0
53129,289.862073963139,4,1,0,15,1,0
53129,-204.945544554456,4,1,0,15,0,0
53419,288.468472799827,4,1,0,15,1,0
53419,-205.935643564356,4,1,0,15,0,0
53707,287.088207851862,4,1,0,15,1,0
53707,-206.925742574258,4,1,0,15,0,0
53994,285.721088597348,4,1,0,15,1,0
53994,-207.915841584158,4,1,0,15,0,0
54280,284.366928126259,4,1,0,15,1,0
54280,-208.905940594059,4,1,0,15,0,0
54564,283.025543055261,4,1,0,15,1,0
54564,-209.89603960396,4,1,0,15,0,0
54847,281.696753444917,4,1,0,15,1,0
54847,-210.886138613861,4,1,0,15,0,0
55129,280.380382719222,4,1,0,15,1,0
55129,-211.876237623763,4,1,0,15,0,0
55409,279.076257587386,4,1,0,15,1,0
55409,-212.866336633663,4,1,0,15,0,0
55688,277.784207967777,4,1,0,15,1,0
55688,-213.856435643564,4,1,0,15,0,0
55966,276.504066913984,4,1,0,15,1,0
55966,-214.846534653465,4,1,0,15,0,0
56243,275.235670542902,4,1,0,15,1,0
56243,-215.836633663367,4,1,0,15,0,0
56518,273.978857964794,4,1,0,15,1,0
56518,-216.826732673267,4,1,0,15,0,0
56792,272.733471215255,4,1,0,15,1,0
56792,-217.816831683168,4,1,0,15,0,0
57065,271.499355189031,4,1,0,15,1,0
57065,-218.80693069307,4,1,0,15,0,0
57336,270.276357575621,4,1,0,15,1,0
57336,-219.79702970297,4,1,0,15,0,0
57606,269.06432879661,4,1,0,15,1,0
57606,-220.787128712871,4,1,0,15,0,0
57875,267.863121944686,4,1,0,15,1,0
57875,-221.777227722772,4,1,0,15,0,0
58143,266.672592724283,4,1,0,15,1,0
58143,-222.767326732673,4,1,0,15,0,0
58410,265.492599393792,4,1,0,15,1,0
58410,-223.757425742574,4,1,0,15,0,0
58675,264.323002709311,4,1,0,15,1,0
58675,-224.747524752475,4,1,0,15,0,0
58939,263.163665869866,4,1,0,15,1,0
58939,-225.737623762376,4,1,0,15,0,0
59202,262.014454464071,4,1,0,15,1,1
59202,-226.727722772277,4,1,0,15,0,0
59464,260.875236418183,4,1,0,15,1,0
59464,-227.717821782178,4,1,0,15,0,0
59725,259.745881945497,4,1,0,15,1,0
59725,-228.707920792079,4,1,0,15,0,0
59985,258.626263497058,4,1,0,15,1,0
59985,-229.69801980198,4,1,0,15,0,0
60244,257.516255713642,4,1,0,15,1,0
60244,-230.688118811881,4,1,0,15,0,0
60502,256.415735378961,4,1,0,15,1,0
60502,-231.678217821782,4,1,0,15,0,0
60758,255.324581374072,4,1,0,15,1,0
60758,-232.668316831683,4,1,0,15,0,0
61013,254.242674632937,4,1,0,15,1,0
61013,-233.658415841584,4,1,0,15,0,0
61267,253.169898099116,4,1,0,15,1,0
61267,-234.648514851485,4,1,0,15,0,0
61520,252.106136683544,4,1,0,15,1,0
61520,-235.638613861386,4,1,0,15,0,0
61772,251.051277223373,4,1,0,15,1,0
61772,-236.628712871287,4,1,0,15,0,0
62023,250.005208441843,4,1,0,15,1,0
62023,-237.618811881188,4,1,0,15,0,0
62273,248.967820909147,4,1,0,15,1,0
62273,-238.60891089109,4,1,0,15,0,0
62522,247.939007004277,4,1,0,15,1,0
62522,-239.59900990099,4,1,0,15,0,0
62770,246.918660877796,4,1,0,15,1,0
62770,-240.589108910891,4,1,0,15,0,0
63017,245.906678415541,4,1,0,15,1,0
63017,-241.579207920792,4,1,0,15,0,0
63263,244.902957203208,4,1,0,15,1,0
63263,-242.569306930693,4,1,0,15,0,0
63508,243.907396491799,4,1,0,15,1,0
63508,-243.559405940594,4,1,0,15,0,0
63752,242.91989716391,4,1,0,15,1,0
63752,-244.549504950495,4,1,0,15,0,0
63995,241.940361700841,4,1,0,15,1,0
63995,-245.539603960396,4,1,0,15,0,0
64237,240.968694150485,4,1,0,15,1,0
64237,-246.529702970297,4,1,0,15,0,0
64478,240.004800096002,4,1,0,15,1,0
64478,-247.519801980198,4,1,0,15,0,0
64718,239.048586625232,4,1,0,15,1,0
64718,-248.509900990099,4,1,0,15,0,0
64957,238.099962300839,4,1,0,15,1,0
64957,-249.5,4,1,0,15,0,0
65195,237.158837131169,4,1,0,15,1,0
65195,-250.490099009901,4,1,0,15,0,0
65432,236.225122541782,4,1,0,15,1,0
65432,-251.480198019802,4,1,0,15,0,0
65668,235.298731347673,4,1,0,15,1,0
65668,-252.470297029703,4,1,0,15,0,0
65903,234.379577726127,4,1,0,15,1,0
65903,-253.460396039604,4,1,0,15,0,0
66137,233.467577190218,4,1,0,15,1,0
66137,-254.450495049505,4,1,0,15,0,0
66370,232.562646562918,4,1,0,15,1,0
66370,-255.440594059406,4,1,0,15,0,0
66603,231.664703951814,4,1,0,15,1,0
66603,-256.430693069307,4,1,0,15,0,0
66835,230.773668724399,4,1,0,15,1,0
66835,-257.420792079207,4,1,0,15,0,0
67066,229.889461483936,4,1,0,15,1,0
67066,-258.410891089109,4,1,0,15,0,0
67296,229.012004045879,4,1,0,15,1,0
67296,-259.40099009901,4,1,0,15,0,0
67525,228.141219414818,4,1,0,15,1,0
67525,-260.391089108911,4,1,0,15,0,0
67753,227.277031761965,4,1,0,15,1,0
67753,-261.381188118812,4,1,0,15,0,0
67980,226.41936640314,4,1,0,15,1,0
67980,-262.371287128712,4,1,0,15,0,0
68206,225.568149777251,4,1,0,15,1,0
68206,-263.361386138614,4,1,0,15,0,0
68432,224.72330942527,4,1,0,15,1,0
68432,-264.351485148515,4,1,0,15,0,0
68657,223.884773969664,4,1,0,15,1,0
68657,-265.341584158415,4,1,0,15,0,0
68880,223.052473094295,4,1,0,15,1,0
68880,-266.331683168317,4,1,0,15,0,0
69104,222.226337524769,4,1,0,15,1,0
69104,-267.321782178218,4,1,0,15,0,0
69326,221.406299009207,4,1,0,15,1,0
69326,-268.311881188119,4,1,0,15,0,0
69547,220.592290299454,4,1,0,15,1,0
69547,-269.30198019802,4,1,0,15,0,0
69768,219.784245132695,4,1,0,15,1,0
69768,-270.29207920792,4,1,0,15,0,0
69988,218.982098213471,4,1,0,15,1,0
69988,-271.282178217822,4,1,0,15,0,0
70207,218.185785196094,4,1,0,15,1,0
70207,-272.272277227723,4,1,0,15,0,0
70425,217.39524266744,4,1,0,15,1,0
70425,-273.262376237623,4,1,0,15,0,0
70642,216.610408130111,4,1,0,15,1,0
70642,-274.252475247524,4,1,0,15,0,0
70859,215.831219985971,4,1,0,15,1,0
70859,-275.242574257426,4,1,0,15,0,0
71075,215.057617520027,4,1,0,15,1,0
71075,-276.232673267327,4,1,0,15,0,0
71290,214.289540884659,4,1,0,15,1,0
71290,-277.222772277227,4,1,0,15,0,0
71504,213.526931084183,4,1,0,15,1,0
71504,-278.212871287129,4,1,0,15,0,0
71718,212.769729959751,4,1,0,15,1,0
71718,-279.20297029703,4,1,0,15,0,0
71931,212.017880174561,4,1,0,15,1,0
71931,-280.193069306931,4,1,0,15,0,0
72143,211.271325199387,4,1,0,15,1,0
72143,-281.183168316832,4,1,0,15,0,0
72354,210.530009298409,4,1,0,15,1,0
72354,-282.173267326732,4,1,0,15,0,0
72565,209.793877515341,4,1,0,15,1,0
72565,-283.163366336634,4,1,0,15,0,0
72775,209.062875659855,4,1,0,15,1,0
72775,-284.153465346534,4,1,0,15,0,0
72984,208.336950294276,4,1,0,15,1,0
72984,-285.143564356436,4,1,0,15,0,0
73192,207.616048720566,4,1,0,15,1,0
73192,-286.133663366337,4,1,0,15,0,0
73400,206.900118967568,4,1,0,15,1,0
73400,-287.123762376238,4,1,0,15,0,0
73607,206.189109778519,4,1,0,15,1,0
73607,-288.113861386138,4,1,0,15,0,0
73813,205.482970598812,4,1,0,15,1,0
73813,-289.103960396039,4,1,0,15,0,0
74018,204.78165156402,4,1,0,15,1,0
74018,-290.09405940594,4,1,0,15,0,0
74223,204.085103488155,4,1,0,15,1,0
74223,-291.084158415841,4,1,0,15,0,0
74427,203.393277852167,4,1,0,15,1,0
74427,-292.074257425743,4,1,0,15,0,0
74630,202.706126792682,4,1,0,15,1,0
74630,-293.064356435644,4,1,0,15,0,0
74833,202.023603090961,4,1,0,15,1,0
74833,-294.054455445545,4,1,0,15,0,0
75035,201.345660162083,4,1,0,15,1,0
75035,-295.044554455446,4,1,0,15,0,0
75236,200.672252044349,4,1,0,15,1,0
75236,-296.034653465346,4,1,0,15,0,0
75437,200.00333338889,4,1,0,15,1,0
75437,-297.024752475247,4,1,0,15,0,0
75637,199.338859449493,4,1,0,15,1,0
75637,-298.014851485148,4,1,0,15,0,0
75836,198.678786072617,4,1,0,15,1,0
75836,-299.00495049505,4,1,0,15,0,0
76035,198.023069687619,4,1,0,15,1,0
76035,-299.99504950495,4,1,0,15,0,0
76233,197.371667297159,4,1,0,15,1,0
76233,-300.985148514852,4,1,0,15,0,0
76430,196.724536467811,4,1,0,15,1,0
76430,-301.975247524752,4,1,0,15,0,0
76627,196.081635320839,4,1,0,15,1,0
76627,-302.965346534653,4,1,0,15,0,0
76823,195.442922523168,4,1,0,15,1,0
76823,-303.955445544555,4,1,0,15,0,0
77018,194.808357278527,4,1,0,15,1,0
77018,-304.945544554456,4,1,0,15,0,0
77213,194.177899318759,4,1,0,15,1,0
77213,-305.935643564357,4,1,0,15,0,0
77407,193.551508895305,4,1,0,15,1,0
77407,-306.925742574257,4,1,0,15,0,0
77601,192.929146770848,4,1,0,15,1,0
77601,-307.915841584159,4,1,0,15,0,0
77794,192.310774211125,4,1,0,15,1,0
77794,-308.90594059406,4,1,0,15,0,0
77986,191.696352976885,4,1,0,15,1,0
77986,-309.89603960396,4,1,0,15,0,0
78178,191.085845316008,4,1,0,15,1,0
78178,-310.886138613862,4,1,0,15,0,0
78369,190.479213955777,4,1,0,15,1,0
78369,-311.876237623763,4,1,0,15,0,0
78559,189.876422095286,4,1,0,15,1,0
78559,-312.866336633664,4,1,0,15,0,0
78749,189.277433398003,4,1,0,15,1,0
78749,-313.856435643565,4,1,0,15,0,0
78938,188.682211984465,4,1,0,15,1,0
78938,-314.846534653466,4,1,0,15,0,0
79127,188.090722425116,4,1,0,15,1,0
79127,-315.836633663367,4,1,0,15,0,0
79315,187.502929733277,4,1,0,15,1,0
79315,-316.826732673267,4,1,0,15,0,0
79503,186.918799358245,4,1,0,15,1,0
79503,-317.816831683169,4,1,0,15,0,0
79690,186.338297178528,4,1,0,15,1,0
79690,-318.806930693069,4,1,0,15,0,0
79876,185.761389495193,4,1,0,15,1,0
79876,-319.797029702971,4,1,0,15,0,0
80062,185.188043025355,4,1,0,15,1,0
80062,-320.787128712872,4,1,0,15,0,0
80247,184.618224895768,4,1,0,15,1,0
80247,-321.777227722772,4,1,0,15,0,0
80432,184.051902636544,4,1,0,15,1,0
80432,-322.767326732672,4,1,0,15,0,0
80616,183.489044174987,4,1,0,15,1,0
80616,-323.757425742575,4,1,0,15,0,0
80799,182.92961782954,4,1,0,15,1,0
80799,-324.747524752475,4,1,0,15,0,0
80982,182.373592303834,4,1,0,15,1,0
80982,-325.737623762377,4,1,0,15,0,0
81164,181.820936680859,4,1,0,15,1,0
81164,-326.727722772277,4,1,0,15,0,0
81346,181.271620417227,4,1,0,15,1,0
81346,-327.717821782178,4,1,0,15,0,0
81527,180.72561333755,4,1,0,15,1,0
81527,-328.70792079208,4,1,0,15,0,0
81708,180.182885628913,4,1,0,15,1,0
81708,-329.698019801981,4,1,0,15,0,0
81888,179.643407835447,4,1,0,15,1,0
81888,-330.688118811881,4,1,0,15,0,0
82068,179.107150852998,4,1,0,15,1,0
82068,-331.678217821782,4,1,0,15,0,0
82247,178.574085923898,4,1,0,15,1,0
82247,-332.668316831683,4,1,0,15,0,0
82426,178.044184631819,4,1,0,15,1,0
82426,-333.658415841585,4,1,0,15,0,0
82604,177.517418896729,4,1,0,15,1,0
82604,-334.648514851486,4,1,0,15,0,0
82782,176.993760969926,4,1,0,15,1,0
82782,-335.638613861386,4,1,0,15,0,0
82959,176.473183429168,4,1,0,15,1,0
82959,-336.628712871287,4,1,0,15,0,0
83135,175.955659173888,4,1,0,15,1,0
83135,-337.618811881188,4,1,0,15,0,0
83311,175.441161420489,4,1,0,15,1,0
83311,-338.608910891088,4,1,0,15,0,0
83486,174.929663697722,4,1,0,15,1,0
83486,-339.599009900989,4,1,0,15,0,0
83661,174.421139842149,4,1,0,15,1,0
83661,-340.589108910891,4,1,0,15,0,0
83835,173.915563993681,4,1,0,15,1,0
83835,-341.579207920792,4,1,0,15,0,0
84009,173.412910591194,4,1,0,15,1,0
84009,-342.569306930692,4,1,0,15,0,0
84182,172.913154368219,4,1,0,15,1,0
84182,-343.559405940593,4,1,0,15,0,0
84355,172.416270348712,4,1,0,15,1,0
84355,-344.549504950495,4,1,0,15,0,0
84527,171.922233842892,4,1,0,15,1,0
84527,-345.539603960395,4,1,0,15,0,0
84699,171.431020443149,4,1,0,15,1,0
84699,-346.529702970297,4,1,0,15,0,0
84870,170.942606020029,4,1,0,15,1,0
84870,-347.519801980198,4,1,0,15,0,0
85041,170.456966718277,4,1,0,15,1,0
85041,-348.509900990099,4,1,0,15,0,0
85211,169.97407895296,4,1,0,15,1,0
85211,-349.499999999999,4,1,0,15,0,0
85381,169.493919405641,4,1,0,15,1,0
85381,-350.490099009902,4,1,0,15,0,0
85550,169.016465020634,4,1,0,15,1,0
85550,-351.480198019802,4,1,0,15,0,0
85719,168.541693001306,4,1,0,15,1,0
85719,-352.470297029703,4,1,0,15,0,0
85888,168.069580806454,4,1,0,15,1,0
85888,-353.460396039604,4,1,0,15,0,0
86056,167.600106146734,4,1,0,15,1,0
86056,-354.450495049505,4,1,0,15,0,0
86224,167.133246981156,4,1,0,15,1,0
86224,-355.440594059405,4,1,0,15,0,0
86391,166.668981513632,4,1,0,15,1,0
86391,-356.430693069307,4,1,0,15,0,0
86558,166.207288189587,4,1,0,15,1,0
86558,-357.420792079208,4,1,0,15,0,0
86724,165.74814569262,4,1,0,15,1,0
86724,-358.410891089109,4,1,0,15,0,0
86890,165.291532941225,4,1,0,15,1,0
86890,-359.40099009901,4,1,0,15,0,0
87055,164.837429085564,4,1,0,15,1,0
87055,-360.391089108912,4,1,0,15,0,0
87220,164.385813504295,4,1,0,15,1,0
87220,-361.381188118811,4,1,0,15,0,0
87384,163.936665801445,4,1,0,15,1,0
87384,-362.371287128714,4,1,0,15,0,0
87548,163.489965803349,4,1,0,15,1,0
87548,-363.361386138613,4,1,0,15,0,0
87711,163.045693555619,4,1,0,15,1,0
87711,-364.351485148515,4,1,0,15,0,0
87874,162.60382932018,4,1,0,15,1,0
87874,-365.341584158417,4,1,0,15,0,0
88037,162.164353572346,4,1,0,15,1,0
88037,-366.331683168316,4,1,0,15,0,0
88199,161.727246997938,4,1,0,15,1,0
88199,-367.321782178218,4,1,0,15,0,0
88361,161.292490490464,4,1,0,15,1,0
88361,-368.311881188118,4,1,0,15,0,0
88522,160.860065148326,4,1,0,15,1,0
88522,-369.301980198021,4,1,0,15,0,0
88683,160.429952272089,4,1,0,15,1,0
88683,-370.292079207921,4,1,0,15,0,0
88843,160.002133361778,4,1,0,15,1,0
88843,-371.282178217822,4,1,0,15,0,0
89003,159.57659011423,4,1,0,15,1,0
89003,-372.272277227723,4,1,0,15,0,0
89163,159.153304420483,4,1,0,15,1,0
89163,-373.262376237624,4,1,0,15,0,0
89322,158.732258363206,4,1,0,15,1,0
89322,-374.252475247524,4,1,0,15,0,0
89481,158.313434214172,4,1,0,15,1,0
89481,-375.242574257425,4,1,0,15,0,0
89639,157.896814431769,4,1,0,15,1,0
89639,-376.232673267326,4,1,0,15,0,0
89797,157.482381658552,4,1,0,15,1,0
89797,-377.222772277228,4,1,0,15,0,0
89954,157.070118718831,4,1,0,15,1,0
89954,-378.21287128713,4,1,0,15,0,0
90111,156.6600086163,4,1,0,15,1,0
90111,-379.202970297031,4,1,0,15,0,0
90268,156.2520345317,4,1,0,15,1,0
90268,-380.19306930693,4,1,0,15,0,0
90424,155.846179820517,4,1,0,15,1,0
90424,-381.183168316832,4,1,0,15,0,0
90580,155.442428010726,4,1,0,15,1,0
90580,-382.173267326732,4,1,0,15,0,0
90735,155.040762800553,4,1,0,15,1,0
90735,-383.163366336634,4,1,0,15,0,0
90890,154.641168056289,4,1,0,15,1,0
90890,-384.153465346536,4,1,0,15,0,0
91045,154.243627810126,4,1,0,15,1,0
91045,-385.143564356436,4,1,0,15,0,0
91199,153.848126258029,4,1,0,15,1,0
91199,-386.133663366337,4,1,0,15,0,0
91353,153.454647757644,4,1,0,15,1,0
91353,-387.123762376237,4,1,0,15,0,0
91506,153.063176826235,4,1,0,15,1,0
91506,-388.113861386139,4,1,0,15,0,0
91659,152.673698138653,4,1,0,15,1,0
91659,-389.10396039604,4,1,0,15,0,0
91812,152.286196525337,4,1,0,15,1,0
91812,-390.09405940594,4,1,0,15,0,0
91964,151.900656970341,4,1,0,15,1,0
91964,-391.084158415843,4,1,0,15,0,0
92116,151.517064609402,4,1,0,15,1,0
92116,-392.074257425742,4,1,0,15,0,0
92268,151.135404728019,4,1,0,15,1,0
92268,-393.064356435644,4,1,0,15,0,0
92419,150.755662759582,4,1,0,15,1,0
92419,-394.054455445546,4,1,0,15,0,0
92570,150.377824283512,4,1,0,15,1,0
92570,-395.044554455446,4,1,0,15,0,0
92720,150.001875023438,4,1,0,15,1,0
92720,-396.034653465346,4,1,0,15,0,0
92870,149.627800845397,4,1,0,15,1,0
92870,-397.024752475248,4,1,0,15,0,0
93020,149.255587756067,4,1,0,15,1,0
93020,-398.014851485148,4,1,0,15,0,0
93169,148.885221901016,4,1,0,15,1,0
93169,-399.00495049505,4,1,0,15,0,0
93318,148.51668956299,4,1,0,15,1,0
93318,-399.99504950495,4,1,0,15,0,0
93467,148.149977160212,4,1,0,15,1,0
93467,-400.985148514851,4,1,0,15,0,0
93615,147.78507124472,4,1,0,15,1,0
93615,-401.975247524752,4,1,0,15,0,0
93763,147.421958500719,4,1,0,15,1,0
93763,-402.965346534653,4,1,0,15,0,0
93910,147.060625742963,4,1,0,15,1,0
93910,-403.955445544553,4,1,0,15,0,0
94057,146.701059915158,4,1,0,15,1,0
94057,-404.945544554455,4,1,0,15,0,0
94204,146.343248088391,4,1,0,15,1,0
94204,-405.935643564357,4,1,0,15,0,0
94350,145.98717745958,4,1,0,15,1,0
94350,-406.925742574257,4,1,0,15,0,0
94496,145.632835349944,4,1,0,15,1,0
94496,-407.915841584157,4,1,0,15,0,0
94642,145.280209203501,4,1,0,15,1,0
94642,-408.90594059406,4,1,0,15,0,0
94787,144.929286585587,4,1,0,15,1,0
94787,-409.89603960396,4,1,0,15,0,0
94932,144.580055181388,4,1,0,15,1,0
94932,-410.886138613861,4,1,0,15,0,0
95077,144.232502794505,4,1,0,15,1,0
95077,-411.876237623762,4,1,0,15,0,0
95221,143.886617345532,4,1,0,15,1,0
95221,-412.866336633663,4,1,0,15,0,0
95365,143.542386870656,4,1,0,15,1,0
95365,-413.856435643565,4,1,0,15,0,0
95509,143.199799520281,4,1,0,15,1,0
95509,-414.846534653464,4,1,0,15,0,0
95652,142.858843557661,4,1,0,15,1,0
95652,-415.836633663367,4,1,0,15,0,0
95795,142.51950735757,4,1,0,15,1,0
95795,-416.826732673266,4,1,0,15,0,0
95938,142.181779404969,4,1,0,15,1,0
95938,-417.816831683169,4,1,0,15,0,0
96080,141.845648293715,4,1,0,15,1,0
96080,-418.80693069307,4,1,0,15,0,0
96222,141.511102725268,4,1,0,15,1,0
96222,-419.79702970297,4,1,0,15,0,0
96364,141.178131507429,4,1,0,15,1,0
96364,-420.787128712873,4,1,0,15,0,0
96505,140.846723553093,4,1,0,15,1,0
96505,-421.777227722773,4,1,0,15,0,0
96646,140.516867879015,4,1,0,15,1,0
96646,-422.767326732673,4,1,0,15,0,0
96787,140.188553604598,4,1,0,15,1,0
96787,-423.757425742575,4,1,0,15,0,0
96927,139.861769950699,4,1,0,15,1,0
96927,-424.747524752474,4,1,0,15,0,0
97067,139.536506238445,4,1,0,15,1,0
97067,-425.737623762375,4,1,0,15,0,0
97207,139.212751888073,4,1,0,15,1,0
97207,-426.727722772277,4,1,0,15,0,0
97346,138.890496417783,4,1,0,15,1,0
97346,-427.717821782177,4,1,0,15,0,0
97485,138.569729442603,4,1,0,15,1,0
97485,-428.70792079208,4,1,0,15,0,0
97624,138.25044067328,4,1,0,15,1,0
97624,-429.698019801979,4,1,0,15,0,0
97762,137.932619915171,4,1,0,15,1,0
97762,-430.688118811883,4,1,0,15,0,0
97900,137.616257067168,4,1,0,15,1,0
97900,-431.678217821783,4,1,0,15,0,0
98038,137.301342120619,4,1,0,15,1,0
98038,-432.668316831684,4,1,0,15,0,0
98175,136.987865158278,4,1,0,15,1,0
98175,-433.658415841584,4,1,0,15,0,0
98312,136.675816353261,4,1,0,15,1,0
98312,-434.648514851486,4,1,0,15,0,0
98449,136.365185968022,4,1,0,15,1,0
98449,-435.638613861387,4,1,0,15,0,0
98585,136.055964353337,4,1,0,15,1,0
98585,-436.628712871288,4,1,0,15,0,0
98721,135.748141947307,4,1,0,15,1,0
98721,-437.618811881188,4,1,0,15,0,0
98857,135.441709274371,4,1,0,15,1,0
98857,-438.608910891089,4,1,0,15,0,0
98992,135.136656944335,4,1,0,15,1,0
98992,-439.59900990099,4,1,0,15,0,0
99127,134.832975651412,4,1,0,15,1,0
99127,-440.58910891089,4,1,0,15,0,0
99262,134.530656173275,4,1,0,15,1,0
99262,-441.579207920794,4,1,0,15,0,0
99397,134.229689370127,4,1,0,15,1,0
99397,-442.569306930694,4,1,0,15,0,0
99531,133.930066183774,4,1,0,15,1,0
99531,-443.559405940595,4,1,0,15,0,0
99665,133.631777636722,4,1,0,15,1,0
99665,-444.549504950495,4,1,0,15,0,0
99799,133.334814831276,4,1,0,15,1,0
99799,-445.539603960396,4,1,0,15,0,0
99932,133.039168948658,4,1,0,15,1,0
99932,-446.529702970297,4,1,0,15,0,0
100065,132.744831248133,4,1,0,15,1,0
100065,-447.519801980199,4,1,0,15,0,0
100198,132.451793066149,4,1,0,15,1,0
100198,-448.509900990098,4,1,0,15,0,0
100330,132.160045815483,4,1,0,15,1,0
100330,-449.499999999998,4,1,0,15,0,0
100462,131.869580984406,4,1,0,15,1,0
100462,-450.490099009902,4,1,0,15,0,0
100594,131.580390135857,4,1,0,15,1,0
100594,-451.480198019801,4,1,0,15,0,0
100726,131.292464906618,4,1,0,15,1,0
100726,-452.470297029704,4,1,0,15,0,0
100857,131.005797006518,4,1,0,15,1,0
100857,-453.460396039602,4,1,0,15,0,0
100988,130.720378217628,4,1,0,15,1,0
100988,-454.450495049504,4,1,0,15,0,0
101119,130.436200393483,4,1,0,15,1,0
101119,-455.440594059404,4,1,0,15,0,0
101249,130.153255458302,4,1,0,15,1,0
101249,-456.430693069307,4,1,0,15,0,0
101379,129.871535406227,4,1,0,15,1,0
101379,-457.420792079209,4,1,0,15,0,0
101509,129.591032300565,4,1,0,15,1,0
101509,-458.410891089108,4,1,0,15,0,0
101639,129.311738273042,4,1,0,15,1,0
101639,-459.400990099009,4,1,0,15,0,0
101768,129.03364552307,4,1,0,15,1,0
101768,-460.391089108911,4,1,0,15,0,0
101897,128.756746317021,4,1,0,15,1,0
101897,-461.38118811881,4,1,0,15,0,0
102026,128.481032987505,4,1,0,15,1,0
102026,-462.371287128714,4,1,0,15,0,0
102154,128.20649793267,4,1,0,15,1,0
102154,-463.361386138615,4,1,0,15,0,0
102282,127.933133615497,4,1,0,15,1,0
102282,-464.351485148515,4,1,0,15,0,0
102410,127.660932563112,4,1,0,15,1,0
102410,-465.341584158417,4,1,0,15,0,0
102538,127.389887366108,4,1,0,15,1,0
102538,-466.331683168317,4,1,0,15,0,0
102665,127.119990677867,4,1,0,15,1,0
102665,-467.321782178219,4,1,0,15,0,0
102792,126.851235213903,4,1,0,15,1,0
102792,-468.311881188118,4,1,0,15,0,0
102919,126.5836137512,4,1,0,15,1,0
102919,-469.301980198019,4,1,0,15,0,0
103046,126.31711912757,4,1,0,15,1,0
103046,-470.29207920792,4,1,0,15,0,0
103172,126.051744241011,4,1,0,15,1,0
103172,-471.282178217822,4,1,0,15,0,0
103298,125.787482049078,4,1,0,15,1,0
103298,-472.272277227723,4,1,0,15,0,0
103424,125.524325568259,4,1,0,15,1,0
103424,-473.262376237624,4,1,0,15,0,0
103550,125.26226787336,4,1,0,15,1,0
103550,-474.252475247524,4,1,0,15,0,0
103675,125.001302096897,4,1,0,15,1,0
103675,-475.242574257425,4,1,0,15,0,0
103800,124.741421428497,4,1,0,15,1,0
103800,-476.232673267327,4,1,0,15,0,0
103925,124.482619114306,4,1,0,15,1,0
103925,-477.222772277228,4,1,0,15,0,0
104049,124.224888456402,4,1,0,15,1,0
104049,-478.21287128713,4,1,0,15,0,0
104173,123.968222812219,4,1,0,15,1,0
104173,-479.20297029703,4,1,0,15,0,0
104297,123.712615593975,4,1,0,15,1,0
104297,-480.193069306931,4,1,0,15,0,0
104421,123.45806026811,4,1,0,15,1,0
104421,-481.183168316831,4,1,0,15,0,0
104544,123.204550354726,4,1,0,15,1,0
104544,-482.173267326734,4,1,0,15,0,0
104667,122.952079427043,4,1,0,15,1,0
104667,-483.163366336635,4,1,0,15,0,0
104790,122.70064111085,4,1,0,15,1,0
104790,-484.153465346534,4,1,0,15,0,0
104913,122.45022908397,4,1,0,15,1,0
104913,-485.143564356437,4,1,0,15,0,0
105035,122.200837075734,4,1,0,15,1,0
105035,-486.133663366337,4,1,0,15,0,0
105157,121.952458866452,4,1,0,15,1,0
105157,-487.123762376237,4,1,0,15,0,0
105279,121.705088286899,4,1,0,15,1,0
105279,-488.11386138614,4,1,0,15,0,0
105401,121.458719217806,4,1,0,15,1,0
105401,-489.103960396039,4,1,0,15,0,0
105522,121.213345589349,4,1,0,15,1,0
105522,-490.094059405942,4,1,0,15,0,0
105643,120.968961380659,4,1,0,15,1,0
105643,-491.084158415842,4,1,0,15,0,0
105764,120.725560619322,4,1,0,15,1,0
105764,-492.074257425743,4,1,0,15,0,0
105885,120.483137380897,4,1,0,15,1,0
105885,-493.064356435645,4,1,0,15,0,0
106005,120.241685788435,4,1,0,15,1,0
106005,-494.054455445543,4,1,0,15,0,0
106125,120.001200012,4,1,0,15,1,0
106125,-495.044554455446,4,1,0,15,0,0
106245,119.761674268206,4,1,0,15,1,0
106245,-496.034653465348,4,1,0,15,0,0
106365,119.523102819749,4,1,0,15,1,0
106365,-497.024752475248,4,1,0,15,0,0
106485,119.28547997495,4,1,0,15,1,0
106485,-498.014851485149,4,1,0,15,0,0
106604,119.048800087302,4,1,0,15,1,0
106604,-499.004950495051,4,1,0,15,0,0
106723,118.813057555025,4,1,0,15,1,0
106723,-499.995049504952,4,1,0,15,0,0
106842,118.578246820621,4,1,0,15,1,0
106842,-500.98514851485,4,1,0,15,0,0
106961,118.344362370438,4,1,0,15,1,0
106961,-501.975247524751,4,1,0,15,0,0
107079,118.11139873424,4,1,0,15,1,0
107079,-502.965346534651,4,1,0,15,0,0
107197,117.879350484779,4,1,0,15,1,0
107197,-503.955445544554,4,1,0,15,0,0
107315,117.648212237375,4,1,0,15,1,0
107315,-504.945544554455,4,1,0,15,0,0
107433,117.417978649498,4,1,0,15,1,0
107433,-505.935643564355,4,1,0,15,0,0
107550,117.188644420356,4,1,0,15,1,0
107550,-506.925742574256,4,1,0,15,0,0
107667,116.96020429049,4,1,0,15,1,0
107667,-507.915841584159,4,1,0,15,0,0
107784,116.732653041372,4,1,0,15,1,0
107784,-508.905940594059,4,1,0,15,0,0
107901,116.505985495005,4,1,0,15,1,0
107901,-509.896039603959,4,1,0,15,0,0
108018,116.280196513532,4,1,0,15,1,0
108018,-510.886138613862,4,1,0,15,0,0
108134,116.055280998849,4,1,0,15,1,0
108134,-511.876237623763,4,1,0,15,0,0
108250,115.831233892219,4,1,0,15,1,0
108250,-512.866336633664,4,1,0,15,0,0
108366,115.608050173894,4,1,0,15,1,0
108366,-513.856435643563,4,1,0,15,0,0
108482,115.385724862739,4,1,0,15,1,0
108482,-514.846534653466,4,1,0,15,0,0
108597,115.164253015864,4,1,0,15,1,0
108597,-515.836633663366,4,1,0,15,0,0
108712,114.943629728254,4,1,0,15,1,0
108712,-516.826732673268,4,1,0,15,0,0
108827,114.72385013241,4,1,0,15,1,0
108827,-517.81683168317,4,1,0,15,0,0
108942,114.50490939799,4,1,0,15,1,0
108942,-518.806930693071,4,1,0,15,0,0
109057,114.286802731455,4,1,0,15,1,0
109057,-519.797029702968,4,1,0,15,0,0
109171,114.069525375716,4,1,0,15,1,0
109171,-520.787128712874,4,1,0,15,0,0
109285,113.853072609797,4,1,0,15,1,0
109285,-521.777227722773,4,1,0,15,0,0
109399,113.637439748482,4,1,0,15,1,0
109399,-522.767326732675,4,1,0,15,0,0
109513,113.422622141986,4,1,0,15,1,0
109513,-523.757425742575,4,1,0,15,0,0
109626,113.208615175615,4,1,0,15,1,0
109626,-524.747524752475,4,1,0,15,0,0
109739,112.995414269438,4,1,0,15,1,0
109739,-525.737623762374,4,1,0,15,0,0
109852,112.783014877959,4,1,0,15,1,0
109852,-526.727722772279,4,1,0,15,0,0
109965,112.571412489798,4,1,0,15,1,0
109965,-527.717821782179,4,1,0,15,0,0
110078,112.360602627365,4,1,0,15,1,0
110078,-528.707920792081,4,1,0,15,0,0
110190,112.15058084655,4,1,0,15,1,0
110190,-529.69801980198,4,1,0,15,0,0
110302,111.941342736406,4,1,0,15,1,0
110302,-530.688118811882,4,1,0,15,0,0
110414,111.732883918845,4,1,0,15,1,0
110414,-531.678217821781,4,1,0,15,0,0
110526,111.525200048328,4,1,0,15,1,0
110526,-532.668316831681,4,1,0,15,0,0
110638,111.318286811566,4,1,0,15,1,0
110638,-533.658415841584,4,1,0,15,0,0
110749,111.112139927222,4,1,0,15,1,0
110749,-534.648514851483,4,1,0,15,0,0
110860,110.906755145611,4,1,0,15,1,0
110860,-535.638613861388,4,1,0,15,0,0
110971,110.702128248416,4,1,0,15,1,0
110971,-536.628712871285,4,1,0,15,0,0
111082,110.498255048389,4,1,0,15,1,0
111082,-537.618811881188,4,1,0,15,0,0
111192,110.295131389075,4,1,0,15,1,0
111192,-538.608910891091,4,1,0,15,0,0
111302,110.092753144524,4,1,0,15,1,0
111302,-539.599009900992,4,1,0,15,0,0
111412,109.891116219013,4,1,0,15,1,0
111412,-540.589108910891,4,1,0,15,0,0
111522,109.690216546769,4,1,0,15,1,0
111522,-541.579207920793,4,1,0,15,0,0
111632,109.490050091698,4,1,0,15,1,0
111632,-542.569306930693,4,1,0,15,0,0
111741,109.290612847112,4,1,0,15,1,0
111741,-543.559405940592,4,1,0,15,0,0
111850,109.091900835462,4,1,0,15,1,0
111850,-544.549504950496,4,1,0,15,0,0
111959,108.893910108077,4,1,0,15,1,0
111959,-545.539603960397,4,1,0,15,0,0
112068,108.696636744898,4,1,0,15,1,0
112068,-546.529702970297,4,1,0,15,0,0
112177,108.500076854221,4,1,0,15,1,0
112177,-547.519801980199,4,1,0,15,0,0
112286,108.304226572442,4,1,0,15,1,0
112286,-548.509900990099,4,1,0,15,0,0
112394,108.109082063802,4,1,0,15,1,0
112394,-549.500000000002,4,1,0,15,0,0
112502,107.91463952014,4,1,0,15,1,0
112502,-550.490099009899,4,1,0,15,0,0
112610,107.720895160639,4,1,0,15,1,0
112610,-551.480198019801,4,1,0,15,0,0
112718,107.527845231588,4,1,0,15,1,0
112718,-552.470297029703,4,1,0,15,0,0
112826,107.335486006136,4,1,0,15,1,0
112826,-553.460396039604,4,1,0,15,0,0
112933,107.143813784052,4,1,0,15,1,0
112933,-554.450495049503,4,1,0,15,0,0
113040,106.952824891487,4,1,0,15,1,0
113040,-555.440594059408,4,1,0,15,0,0
113147,106.762515680744,4,1,0,15,1,0
113147,-556.43069306931,4,1,0,15,0,0
113254,106.57288253004,4,1,0,15,1,0
113254,-557.420792079209,4,1,0,15,0,0
113361,106.383921843279,4,1,0,15,1,0
113361,-558.410891089108,4,1,0,15,0,0
113467,106.195630049823,4,1,0,15,1,0
113467,-559.400990099012,4,1,0,15,0,0
113573,106.008003604272,4,1,0,15,1,0
113573,-560.391089108911,4,1,0,15,0,0
113679,105.821038986234,4,1,0,15,1,0
113679,-561.381188118814,4,1,0,15,0,0
113785,105.634732700112,4,1,0,15,1,0
113785,-562.371287128712,4,1,0,15,0,0
113891,105.449081274879,4,1,0,15,1,0
113891,-563.361386138616,4,1,0,15,0,0
113996,105.264081263871,4,1,0,15,1,0
113996,-564.351485148513,4,1,0,15,0,0
114101,105.079729244564,4,1,0,15,1,0
114101,-565.341584158418,4,1,0,15,0,0
114206,104.896021818373,4,1,0,15,1,0
114206,-566.331683168314,4,1,0,15,0,0
114311,104.712955610433,4,1,0,15,1,0
114311,-567.321782178217,4,1,0,15,0,0

[HitObjects]
64,192,9915,5,0,0:0:0:0:
448,192,9915,1,0,0:0:0:0:
320,192,9915,1,0,0:0:0:0:
192,192,10212,1,0,0:0:0:0:
320,192,10360,1,0,0:0:0:0:
448,192,10360,1,0,0:0:0:0:
64,192,10509,1,0,0:0:0:0:
192,192,10509,1,0,0:0:0:0:
448,192,10803,1,0,0:0:0:0:
320,192,10876,1,0,0:0:0:0:
192,192,10950,1,0,0:0:0:0:
64,192,11023,1,0,0:0:0:0:
320,192,11097,1,0,0:0:0:0:
448,192,11097,1,0,0:0:0:0:
64,192,11388,1,0,0:0:0:0:
448,192,11533,1,0,0:0:0:0:
192,192,11680,1,0,0:0:0:0:
320,192,11824,1,0,0:0:0:0:
64,192,11968,1,0,0:0:0:0:
192,192,11968,1,0,0:0:0:0:
320,192,12256,1,0,0:0:0:0:
448,192,12256,1,0,0:0:0:0:
320,192,12542,1,0,0:0:0:0:
64,192,12685,1,0,0:0:0:0:
192,192,12685,1,0,0:0:0:0:
320,192,12828,1,0,0:0:0:0:
448,192,12828,1,0,0:0:0:0:
192,192,13111,1,0,0:0:0:0:
64,192,13111,1,0,0:0:0:0:
64,192,13394,1,0,0:0:0:0:
448,192,13394,1,0,0:0:0:0:
192,192,13534,1,0,0:0:0:0:
320,192,13674,1,0,0:0:0:0:
64,192,13814,1,0,0:0:0:0:
192,192,13884,1,0,0:0:0:0:
320,192,13954,1,0,0:0:0:0:
448,192,13954,1,0,0:0:0:0:
64,192,14232,1,0,0:0:0:0:
192,192,14232,1,0,0:0:0:0:
448,192,14371,1,0,0:0:0:0:
320,192,14441,1,0,0:0:0:0:
64,192,14510,1,0,0:0:0:0:
192,192,14511,1,0,0:0:0:0:
192,192,14786,1,0,0:0:0:0:
320,192,14923,1,0,0:0:0:0:
448,192,14923,1,0,0:0:0:0:
192,192,15061,1,0,0:0:0:0:
64,192,15061,1,0,0:0:0:0:
192,192,15333,1,0,0:0:0:0:
448,192,15470,1,0,0:0:0:0:
320,192,15538,1,0,0:0:0:0:
192,192,15606,1,0,0:0:0:0:
64,192,15606,1,0,0:0:0:0:
320,192,15876,1,0,0:0:0:0:
192,192,16011,1,0,0:0:0:0:
64,192,16146,1,0,0:0:0:0:
448,192,16147,1,0,0:0:0:0:
320,192,16280,1,0,0:0:0:0:
192,192,16280,1,0,0:0:0:0:
64,192,16414,1,0,0:0:0:0:
448,192,16414,1,0,0:0:0:0:
320,192,16682,1,0,0:0:0:0:
192,192,16683,1,0,0:0:0:0:
320,192,16948,1,0,0:0:0:0:
64,192,17081,1,0,0:0:0:0:
192,192,17081,1,0,0:0:0:0:
320,192,17213,1,0,0:0:0:0:
448,192,17214,1,0,0:0:0:0:
64,192,17477,1,0,0:0:0:0:
192,192,17542,1,0,0:0:0:0:
320,192,17608,1,0,0:0:0:0:
448,192,17674,1,0,0:0:0:0:
64,192,17740,1,0,0:0:0:0:
192,192,17740,1,0,0:0:0:0:
320,192,18000,1,0,0:0:0:0:
448,192,18131,1,0,0:0:0:0:
192,192,18131,1,0,0:0:0:0:
320,192,18261,1,0,0:0:0:0:
64,192,18261,1,0,0:0:0:0:
192,192,18391,1,0,0:0:0:0:
320,192,18455,1,0,0:0:0:0:
448,192,18520,1,0,0:0:0:0:
64,192,18520,1,0,0:0:0:0:
320,192,18649,1,0,0:0:0:0:
192,192,18714,1,0,0:0:0:0:
448,192,18779,1,0,0:0:0:0:
64,192,18779,1,0,0:0:0:0:
192,192,19035,1,0,0:0:0:0:
320,192,19163,1,0,0:0:0:0:
448,192,19163,1,0,0:0:0:0:
192,192,19291,1,0,0:0:0:0:
64,192,19292,1,0,0:0:0:0:
448,192,19546,1,0,0:0:0:0:
320,192,19609,1,0,0:0:0:0:
192,192,19673,1,0,0:0:0:0:
64,192,19736,1,0,0:0:0:0:
448,192,19800,1,0,0:0:0:0:
192,192,19926,1,0,0:0:0:0:
64,192,19926,1,0,0:0:0:0:
320,192,20052,1,0,0:0:0:0:
448,192,20052,1,0,0:0:0:0:
64,192,20304,1,0,0:0:0:0:
192,192,20304,1,0,0:0:0:0:
192,192,20554,1,0,0:0:0:0:
320,192,20554,1,0,0:0:0:0:
448,192,20804,1,0,0:0:0:0:
320,192,20804,1,0,0:0:0:0:
192,192,21051,1,0,0:0:0:0:
64,192,21175,1,0,0:0:0:0:
320,192,21175,1,0,0:0:0:0:
192,192,21299,1,0,0:0:0:0:
448,192,21299,1,0,0:0:0:0:
320,192,21545,1,0,0:0:0:0:
64,192,21792,1,0,0:0:0:0:
192,192,21792,1,0,0:0:0:0:
320,192,22035,1,0,0:0:0:0:
448,192,22157,1,0,0:0:0:0:
64,192,22157,1,0,0:0:0:0:
192,192,22279,1,0,0:0:0:0:
320,192,22280,1,0,0:0:0:0:
448,192,22521,1,0,0:0:0:0:
320,192,22521,1,0,0:0:0:0:
64,192,22763,1,0,0:0:0:0:
192,192,22763,1,0,0:0:0:0:
192,192,23004,1,0,0:0:0:0:
320,192,23124,1,0,0:0:0:0:
448,192,23124,1,0,0:0:0:0:
192,192,23244,1,0,0:0:0:0:
64,192,23244,1,0,0:0:0:0:
448,192,23482,1,0,0:0:0:0:
320,192,23541,1,0,0:0:0:0:
192,192,23601,1,0,0:0:0:0:
64,192,23660,1,0,0:0:0:0:
320,192,23720,1,0,0:0:0:0:
448,192,23720,1,0,0:0:0:0:
192,192,23956,1,0,0:0:0:0:
320,192,24074,1,0,0:0:0:0:
448,192,24074,1,0,0:0:0:0:
192,192,24192,1,0,0:0:0:0:
64,192,24192,1,0,0:0:0:0:
320,192,24426,1,0,0:0:0:0:
64,192,24426,1,0,0:0:0:0:
192,192,24661,1,0,0:0:0:0:
448,192,24661,1,0,0:0:0:0:
64,192,25009,1,0,0:0:0:0:
320,192,25009,1,0,0:0:0:0:
192,192,25126,1,0,0:0:0:0:
448,192,25126,1,0,0:0:0:0:
320,192,25356,1,0,0:0:0:0:
192,192,25356,1,0,0:0:0:0:
448,192,25587,1,0,0:0:0:0:
320,192,25702,1,0,0:0:0:0:
64,192,25702,1,0,0:0:0:0:
192,192,25817,1,0,0:0:0:0:
320,192,25931,1,0,0:0:0:0:
448,192,26046,1,0,0:0:0:0:
64,192,26046,1,0,0:0:0:0:
192,192,26273,1,0,0:0:0:0:
320,192,26273,1,0,0:0:0:0:
448,192,26501,1,0,0:0:0:0:
192,192,26501,1,0,0:0:0:0:
320,192,26726,1,0,0:0:0:0:
192,192,26839,1,0,0:0:0:0:
64,192,26839,1,0,0:0:0:0:
320,192,26952,1,0,0:0:0:0:
448,192,26952,1,0,0:0:0:0:
64,192,27175,1,0,0:0:0:0:
192,192,27231,1,0,0:0:0:0:
320,192,27287,1,0,0:0:0:0:
448,192,27343,1,0,0:0:0:0:
64,192,27400,1,0,0:0:0:0:
192,192,27400,1,0,0:0:0:0:
320,192,27622,1,0,0:0:0:0:
448,192,27844,1,0,0:0:0:0:
64,192,28064,1,0,0:0:0:0:
320,192,28064,1,0,0:0:0:0:
192,192,28285,1,0,0:0:0:0:
448,192,28285,1,0,0:0:0:0:
192,192,28503,1,0,0:0:0:0:
320,192,28613,1,0,0:0:0:0:
448,192,28613,1,0,0:0:0:0:
64,192,28723,1,0,0:0:0:0:
192,192,28723,1,0,0:0:0:0:
320,192,28940,1,0,0:0:0:0:
448,192,28940,1,0,0:0:0:0:
192,192,29157,1,0,0:0:0:0:
320,192,29157,1,0,0:0:0:0:
64,192,29481,1,0,0:0:0:0:
192,192,29535,1,0,0:0:0:0:
320,192,29590,1,0,0:0:0:0:
448,192,29590,1,0,0:0:0:0:
192,192,29804,1,0,0:0:0:0:
320,192,29804,1,0,0:0:0:0:
64,192,30018,1,0,0:0:0:0:
448,192,30019,1,0,0:0:0:0:
320,192,30231,1,0,0:0:0:0:
192,192,30338,1,0,0:0:0:0:
64,192,30338,1,0,0:0:0:0:
320,192,30444,1,0,0:0:0:0:
448,192,30444,1,0,0:0:0:0:
64,192,30656,1,0,0:0:0:0:
192,192,30709,1,0,0:0:0:0:
320,192,30761,1,0,0:0:0:0:
448,192,30814,1,0,0:0:0:0:
64,192,30867,1,0,0:0:0:0:
192,192,30867,1,0,0:0:0:0:
320,192,31077,1,0,0:0:0:0:
448,192,31182,1,0,0:0:0:0:
64,192,31288,1,0,0:0:0:0:
192,192,31288,1,0,0:0:0:0:
320,192,31392,1,0,0:0:0:0:
448,192,31392,1,0,0:0:0:0:
192,192,31496,1,0,0:0:0:0:
64,192,31496,1,0,0:0:0:0:
320,192,31704,1,0,0:0:0:0:
448,192,31705,1,0,0:0:0:0:
192,192,31911,1,0,0:0:0:0:
64,192,32015,1,0,0:0:0:0:
320,192,32015,1,0,0:0:0:0:
448,192,32118,1,0,0:0:0:0:
192,192,32118,1,0,0:0:0:0:
320,192,32324,1,0,0:0:0:0:
64,192,32530,1,0,0:0:0:0:
192,192,32530,1,0,0:0:0:0:
448,192,32734,1,0,0:0:0:0:
320,192,32836,1,0,0:0:0:0:
192,192,32836,1,0,0:0:0:0:
64,192,32938,1,0,0:0:0:0:
448,192,32938,1,0,0:0:0:0:
448,192,33140,1,0,0:0:0:0:
320,192,33140,1,0,0:0:0:0:
64,192,33242,1,0,0:0:0:0:
192,192,33292,1,0,0:0:0:0:
320,192,33343,1,0,0:0:0:0:
448,192,33343,1,0,0:0:0:0:
192,192,33544,1,0,0:0:0:0:
320,192,33645,1,0,0:0:0:0:
448,192,33645,1,0,0:0:0:0:
64,192,33746,1,0,0:0:0:0:
192,192,33746,1,0,0:0:0:0:
448,192,33946,1,0,0:0:0:0:
320,192,33996,1,0,0:0:0:0:
192,192,34046,1,0,0:0:0:0:
64,192,34096,1,0,0:0:0:0:
320,192,34146,1,0,0:0:0:0:
448,192,34146,1,0,0:0:0:0:
192,192,34245,1,0,0:0:0:0:
64,192,34344,1,0,0:0:0:0:
448,192,34344,1,0,0:0:0:0:
320,192,34444,1,0,0:0:0:0:
192,192,34543,1,0,0:0:0:0:
64,192,34543,1,0,0:0:0:0:
320,192,34740,1,0,0:0:0:0:
192,192,34740,1,0,0:0:0:0:
448,192,34938,1,0,0:0:0:0:
320,192,34938,1,0,0:0:0:0:
192,192,35134,1,0,0:0:0:0:
320,192,35232,1,0,0:0:0:0:
64,192,35232,1,0,0:0:0:0:
448,192,35330,1,0,0:0:0:0:
192,192,35330,1,0,0:0:0:0:
320,192,35524,1,0,0:0:0:0:
192,192,35622,1,0,0:0:0:0:
64,192,35719,1,0,0:0:0:0:
448,192,35719,1,0,0:0:0:0:
320,192,35913,1,0,0:0:0:0:
192,192,36010,1,0,0:0:0:0:
64,192,36010,1,0,0:0:0:0:
320,192,36107,1,0,0:0:0:0:
448,192,36107,1,0,0:0:0:0:
192,192,36299,1,0,0:0:0:0:
320,192,36299,1,0,0:0:0:0:
192,192,36491,1,0,0:0:0:0:
64,192,36492,1,0,0:0:0:0:
320,192,36683,1,0,0:0:0:0:
192,192,36778,1,0,0:0:0:0:
448,192,36778,1,0,0:0:0:0:
64,192,36874,1,0,0:0:0:0:
320,192,36874,1,0,0:0:0:0:
192,192,37063,1,0,0:0:0:0:
320,192,37158,1,0,0:0:0:0:
448,192,37158,1,0,0:0:0:0:
192,192,37253,1,0,0:0:0:0:
64,192,37253,1,0,0:0:0:0:
320,192,37442,1,0,0:0:0:0:
192,192,37537,1,0,0:0:0:0:
64,192,37537,1,0,0:0:0:0:
320,192,37631,1,0,0:0:0:0:
448,192,37631,1,0,0:0:0:0:
192,192,37818,1,0,0:0:0:0:
64,192,37912,1,0,0:0:0:0:
320,192,37912,1,0,0:0:0:0:
192,192,38006,1,0,0:0:0:0:
448,192,38006,1,0,0:0:0:0:
320,192,38192,1,0,0:0:0:0:
192,192,38285,1,0,0:0:0:0:
448,192,38285,1,0,0:0:0:0:
320,192,38379,1,0,0:0:0:0:
64,192,38379,1,0,0:0:0:0:
448,192,38564,1,0,0:0:0:0:
320,192,38656,1,0,0:0:0:0:
192,192,38656,1,0,0:0:0:0:
64,192,38749,1,0,0:0:0:0:
448,192,38749,1,0,0:0:0:0:
192,192,38933,1,0,0:0:0:0:
64,192,39025,1,0,0:0:0:0:
448,192,39025,1,0,0:0:0:0:
320,192,39117,1,0,0:0:0:0:
192,192,39117,1,0,0:0:0:0:
448,192,39299,1,0,0:0:0:0:
192,192,39391,1,0,0:0:0:0:
64,192,39391,1,0,0:0:0:0:
320,192,39483,1,0,0:0:0:0:
448,192,39483,1,0,0:0:0:0:
64,192,39664,128,0,40028:0:0:0:0:
192,192,39664,1,0,0:0:0:0:
448,192,39846,1,0,0:0:0:0:
320,192,40028,1,0,0:0:0:0:
448,192,40208,128,0,40567:0:0:0:0:
64,192,40208,1,0,0:0:0:0:
320,192,40387,1,0,0:0:0:0:
64,192,40567,1,0,0:0:0:0:
192,192,40745,128,0,41101:0:0:0:0:
320,192,40745,1,0,0:0:0:0:
448,192,40924,1,0,0:0:0:0:
64,192,41101,1,0,0:0:0:0:
320,192,41279,128,0,41455:0:0:0:0:
448,192,41279,1,0,0:0:0:0:
192,192,41455,1,0,0:0:0:0:
448,192,41631,1,0,0:0:0:0:
64,192,41632,128,0,41807:0:0:0:0:
320,192,41807,1,0,0:0:0:0:
192,192,41982,128,0,42157:0:0:0:0:
64,192,41982,1,0,0:0:0:0:
448,192,42157,1,0,0:0:0:0:
64,192,42332,1,0,0:0:0:0:
320,192,42505,1,0,0:0:0:0:
192,192,42592,1,0,0:0:0:0:
320,192,42678,1,0,0:0:0:0:
192,192,42851,1,0,0:0:0:0:
320,192,43023,1,0,0:0:0:0:
448,192,43024,128,0,43367:0:0:0:0:
64,192,43195,1,0,0:0:0:0:
320,192,43367,1,0,0:0:0:0:
64,192,43537,128,0,43877:0:0:0:0:
192,192,43537,1,0,0:0:0:0:
448,192,43707,1,0,0:0:0:0:
192,192,43877,1,0,0:0:0:0:
320,192,44046,128,0,44215:0:0:0:0:
448,192,44046,1,0,0:0:0:0:
64,192,44215,1,0,0:0:0:0:
192,192,44384,128,0,44551:0:0:0:0:
320,192,44384,1,0,0:0:0:0:
64,192,44551,1,0,0:0:0:0:
448,192,44719,128,0,44885:0:0:0:0:
320,192,44719,1,0,0:0:0:0:
192,192,44885,1,0,0:0:0:0:
448,192,45052,1,0,0:0:0:0:
64,192,45217,128,0,45548:0:0:0:0:
192,192,45217,1,0,0:0:0:0:
320,192,45384,1,0,0:0:0:0:
448,192,45548,1,0,0:0:0:0:
64,192,45713,1,0,0:0:0:0:
320,192,45714,128,0,46041:0:0:0:0:
448,192,45877,1,0,0:0:0:0:
192,192,46042,1,0,0:0:0:0:
448,192,46205,128,0,46530:0:0:0:0:
320,192,46205,1,0,0:0:0:0:
64,192,46368,1,0,0:0:0:0:
192,192,46530,1,0,0:0:0:0:
320,192,46611,1,0,0:0:0:0:
64,192,46692,128,0,46853:0:0:0:0:
448,192,46692,1,0,0:0:0:0:
320,192,46853,1,0,0:0:0:0:
448,192,47014,1,0,0:0:0:0:
192,192,47014,128,0,47175:0:0:0:0:
64,192,47175,1,0,0:0:0:0:
320,192,47335,128,0,47495:0:0:0:0:
448,192,47336,1,0,0:0:0:0:
192,192,47495,1,0,0:0:0:0:
448,192,47655,128,0,47972:0:0:0:0:
320,192,47655,1,0,0:0:0:0:
64,192,47813,1,0,0:0:0:0:
192,192,47972,1,0,0:0:0:0:
320,192,48129,128,0,48445:0:0:0:0:
448,192,48129,1,0,0:0:0:0:
192,192,48287,1,0,0:0:0:0:
64,192,48445,1,0,0:0:0:0:
192,192,48602,128,0,48914:0:0:0:0:
448,192,48602,1,0,0:0:0:0:
64,192,48758,1,0,0:0:0:0:
320,192,48915,1,0,0:0:0:0:
64,192,49070,128,0,49380:0:0:0:0:
448,192,49070,1,0,0:0:0:0:
192,192,49226,1,0,0:0:0:0:
320,192,49380,1,0,0:0:0:0:
192,192,49457,1,0,0:0:0:0:
448,192,49535,128,0,49688:0:0:0:0:
64,192,49535,1,0,0:0:0:0:
320,192,49688,1,0,0:0:0:0:
192,192,49842,128,0,49996:0:0:0:0:
64,192,49842,1,0,0:0:0:0:
448,192,49996,1,0,0:0:0:0:
192,192,50149,1,0,0:0:0:0:
64,192,50149,1,0,0:0:0:0:
448,192,50301,128,0,50605:0:0:0:0:
192,192,50301,1,0,0:0:0:0:
64,192,50453,1,0,0:0:0:0:
320,192,50453,1,0,0:0:0:0:
192,192,50605,1,0,0:0:0:0:
64,192,50757,128,0,51058:0:0:0:0:
448,192,50757,1,0,0:0:0:0:
192,192,50757,1,0,0:0:0:0:
320,192,50907,1,0,0:0:0:0:
192,192,51058,1,0,0:0:0:0:
448,192,51058,1,0,0:0:0:0:
320,192,51209,128,0,51508:0:0:0:0:
448,192,51209,1,0,0:0:0:0:
192,192,51359,1,0,0:0:0:0:
64,192,51359,1,0,0:0:0:0:
448,192,51508,1,0,0:0:0:0:
320,192,51657,1,0,0:0:0:0:
448,192,51657,1,0,0:0:0:0:
192,192,51658,128,0,51806:0:0:0:0:
64,192,51806,1,0,0:0:0:0:
448,192,51955,128,0,52102:0:0:0:0:
192,192,51955,1,0,0:0:0:0:
320,192,51955,1,0,0:0:0:0:
64,192,52102,1,0,0:0:0:0:
448,192,52250,1,0,0:0:0:0:
320,192,52250,1,0,0:0:0:0:
64,192,52251,128,0,52398:0:0:0:0:
192,192,52398,1,0,0:0:0:0:
64,192,52545,1,0,0:0:0:0:
448,192,52545,1,0,0:0:0:0:
320,192,52691,1,0,0:0:0:0:
192,192,52764,1,0,0:0:0:0:
320,192,52837,1,0,0:0:0:0:
448,192,52838,1,0,0:0:0:0:
192,192,52983,1,0,0:0:0:0:
320,192,53129,128,0,53419:0:0:0:0:
64,192,53129,1,0,0:0:0:0:
448,192,53129,1,0,0:0:0:0:
192,192,53273,1,0,0:0:0:0:
64,192,53418,1,0,0:0:0:0:
448,192,53419,1,0,0:0:0:0:
64,192,53563,128,0,53850:0:0:0:0:
320,192,53563,1,0,0:0:0:0:
192,192,53707,1,0,0:0:0:0:
448,192,53707,1,0,0:0:0:0:
320,192,53850,1,0,0:0:0:0:
448,192,53994,128,0,54136:0:0:0:0:
320,192,53994,1,0,0:0:0:0:
64,192,53994,1,0,0:0:0:0:
192,192,54136,1,0,0:0:0:0:
192,192,54279,128,0,54422:0:0:0:0:
320,192,54279,1,0,0:0:0:0:
448,192,54279,1,0,0:0:0:0:
64,192,54422,1,0,0:0:0:0:
320,192,54564,128,0,54705:0:0:0:0:
192,192,54564,1,0,0:0:0:0:
448,192,54564,1,0,0:0:0:0:
64,192,54705,1,0,0:0:0:0:
320,192,54847,1,0,0:0:0:0:
448,192,54847,1,0,0:0:0:0:
64,192,54987,128,0,55269:0:0:0:0:
192,192,54987,1,0,0:0:0:0:
320,192,55128,1,0,0:0:0:0:
448,192,55128,1,0,0:0:0:0:
192,192,55269,1,0,0:0:0:0:
320,192,55409,128,0,55688:0:0:0:0:
448,192,55409,1,0,0:0:0:0:
192,192,55409,1,0,0:0:0:0:
64,192,55548,1,0,0:0:0:0:
192,192,55688,1,0,0:0:0:0:
448,192,55688,1,0,0:0:0:0:
192,192,55826,128,0,56104:0:0:0:0:
320,192,55826,1,0,0:0:0:0:
64,192,55966,1,0,0:0:0:0:
448,192,55966,1,0,0:0:0:0:
448,192,56104,1,0,0:0:0:0:
320,192,56173,1,0,0:0:0:0:
64,192,56242,128,0,56380:0:0:0:0:
192,192,56242,1,0,0:0:0:0:
320,192,56380,1,0,0:0:0:0:
448,192,56518,128,0,56654:0:0:0:0:
192,192,56518,1,0,0:0:0:0:
64,192,56518,1,0,0:0:0:0:
320,192,56654,1,0,0:0:0:0:
192,192,56791,128,0,56928:0:0:0:0:
448,192,56791,1,0,0:0:0:0:
64,192,56792,1,0,0:0:0:0:
320,192,56928,1,0,0:0:0:0:
448,192,57064,128,0,57336:0:0:0:0:
320,192,57065,1,0,0:0:0:0:
64,192,57065,1,0,0:0:0:0:
192,192,57200,1,0,0:0:0:0:
64,192,57336,1,0,0:0:0:0:
320,192,57336,1,0,0:0:0:0:
320,192,57471,128,0,57740:0:0:0:0:
192,192,57471,1,0,0:0:0:0:
64,192,57606,1,0,0:0:0:0:
448,192,57606,1,0,0:0:0:0:
192,192,57740,1,0,0:0:0:0:
192,192,57875,128,0,58142:0:0:0:0:
448,192,57875,1,0,0:0:0:0:
64,192,57875,1,0,0:0:0:0:
320,192,58008,1,0,0:0:0:0:
64,192,58142,1,0,0:0:0:0:
448,192,58142,1,0,0:0:0:0:
64,192,58276,128,0,58542:0:0:0:0:
320,192,58276,1,0,0:0:0:0:
192,192,58409,1,0,0:0:0:0:
448,192,58409,1,0,0:0:0:0:
320,192,58542,1,0,0:0:0:0:
192,192,58609,1,0,0:0:0:0:
64,192,58675,1,0,0:0:0:0:
448,192,58675,1,0,0:0:0:0:
320,192,58807,1,0,0:0:0:0:
192,192,58873,1,0,0:0:0:0:
64,192,58873,1,0,0:0:0:0:
320,192,58939,1,0,0:0:0:0:
448,192,58939,1,0,0:0:0:0:
64,192,59070,1,0,0:0:0:0:
192,192,59070,1,0,0:0:0:0:
320,192,59202,1,0,0:0:0:0:
64,192,59202,1,0,0:0:0:0:
448,192,59202,1,0,0:0:0:0:
64,192,59464,1,0,0:0:0:0:
192,192,59464,1,0,0:0:0:0:
448,192,59464,1,0,0:0:0:0:
448,192,59854,1,0,0:0:0:0:
320,192,59854,1,0,0:0:0:0:
192,192,59854,1,0,0:0:0:0:
64,192,60114,1,0,0:0:0:0:
192,192,60114,1,0,0:0:0:0:
320,192,60114,1,0,0:0:0:0:
320,192,60244,1,0,0:0:0:0:
192,192,60244,1,0,0:0:0:0:
448,192,60244,1,0,0:0:0:0:
64,192,60501,1,0,0:0:0:0:
192,192,60501,1,0,0:0:0:0:
448,192,60501,1,0,0:0:0:0:
448,192,60758,1,0,0:0:0:0:
64,192,60758,1,0,0:0:0:0:
320,192,60758,1,0,0:0:0:0:
64,192,61013,1,0,0:0:0:0:
192,192,61013,1,0,0:0:0:0:
320,192,61013,1,0,0:0:0:0:
448,192,61267,1,0,0:0:0:0:
320,192,61267,1,0,0:0:0:0:
192,192,61267,1,0,0:0:0:0:
64,192,61520,1,0,0:0:0:0:
192,192,61520,1,0,0:0:0:0:
448,192,61520,1,0,0:0:0:0:
448,192,61897,1,0,0:0:0:0:
320,192,61897,1,0,0:0:0:0:
64,192,61897,1,0,0:0:0:0:
64,192,62148,1,0,0:0:0:0:
192,192,62148,1,0,0:0:0:0:
320,192,62273,1,0,0:0:0:0:
448,192,62273,1,0,0:0:0:0:
192,192,62397,1,0,0:0:0:0:
64,192,62397,1,0,0:0:0:0:
320,192,62521,1,0,0:0:0:0:
448,192,62521,1,0,0:0:0:0:
64,192,62770,1,0,0:0:0:0:
192,192,62770,1,0,0:0:0:0:
448,192,62770,1,0,0:0:0:0:
320,192,63262,1,0,0:0:0:0:
448,192,63263,1,0,0:0:0:0:
192,192,63263,1,0,0:0:0:0:
64,192,63508,1,0,0:0:0:0:
192,192,63508,1,0,0:0:0:0:
320,192,63508,1,0,0:0:0:0:
448,192,63873,1,0,0:0:0:0:
320,192,63873,1,0,0:0:0:0:
64,192,63873,1,0,0:0:0:0:
64,192,64115,1,0,0:0:0:0:
192,192,64115,1,0,0:0:0:0:
320,192,64115,1,0,0:0:0:0:
320,192,64237,1,0,0:0:0:0:
192,192,64237,1,0,0:0:0:0:
448,192,64237,1,0,0:0:0:0:
192,192,64478,1,0,0:0:0:0:
448,192,64478,1,0,0:0:0:0:
64,192,64478,1,0,0:0:0:0:
64,192,64718,1,0,0:0:0:0:
320,192,64718,1,0,0:0:0:0:
448,192,64718,1,0,0:0:0:0:
64,192,64957,1,0,0:0:0:0:
192,192,64957,1,0,0:0:0:0:
320,192,64957,1,0,0:0:0:0:
448,192,65195,1,0,0:0:0:0:
320,192,65195,1,0,0:0:0:0:
192,192,65195,1,0,0:0:0:0:
64,192,65432,1,0,0:0:0:0:
192,192,65432,1,0,0:0:0:0:
448,192,65432,1,0,0:0:0:0:
448,192,65785,1,0,0:0:0:0:
320,192,65785,1,0,0:0:0:0:
64,192,65785,1,0,0:0:0:0:
64,192,66020,1,0,0:0:0:0:
192,192,66020,1,0,0:0:0:0:
320,192,66137,1,0,0:0:0:0:
448,192,66137,1,0,0:0:0:0:
192,192,66253,1,0,0:0:0:0:
64,192,66253,1,0,0:0:0:0:
320,192,66370,1,0,0:0:0:0:
448,192,66370,1,0,0:0:0:0:
64,192,66486,1,0,0:0:0:0:
192,192,66486,1,0,0:0:0:0:
320,192,66603,1,0,0:0:0:0:
448,192,66603,1,0,0:0:0:0:
192,192,67065,1,0,0:0:0:0:
64,192,67066,1,0,0:0:0:0:
448,192,67066,1,0,0:0:0:0:
192,192,67295,1,0,0:0:0:0:
448,192,67296,1,0,0:0:0:0:
320,192,67296,1,0,0:0:0:0:
64,192,67639,1,0,0:0:0:0:
192,192,67639,1,0,0:0:0:0:
320,192,67639,1,0,0:0:0:0:
192,192,67866,1,0,0:0:0:0:
320,192,67866,1,0,0:0:0:0:
448,192,67866,1,0,0:0:0:0:
64,192,67980,1,0,0:0:0:0:
448,192,67980,1,0,0:0:0:0:
320,192,67980,1,0,0:0:0:0:
64,192,68206,1,0,0:0:0:0:
192,192,68206,1,0,0:0:0:0:
448,192,68206,1,0,0:0:0:0:
320,192,68431,1,0,0:0:0:0:
64,192,68432,1,0,0:0:0:0:
192,192,68432,1,0,0:0:0:0:
448,192,68657,1,0,0:0:0:0:
320,192,68657,1,0,0:0:0:0:
192,192,68657,1,0,0:0:0:0:
448,192,68880,1,0,0:0:0:0:
192,192,68880,1,0,0:0:0:0:
64,192,68880,1,0,0:0:0:0:
64,192,69104,1,0,0:0:0:0:
320,192,69104,1,0,0:0:0:0:
448,192,69104,1,0,0:0:0:0:
448,192,69436,1,0,0:0:0:0:
320,192,69436,1,0,0:0:0:0:
192,192,69436,1,0,0:0:0:0:
192,192,69657,1,0,0:0:0:0:
64,192,69657,1,0,0:0:0:0:
320,192,69767,1,0,0:0:0:0:
448,192,69767,1,0,0:0:0:0:
192,192,69877,1,0,0:0:0:0:
64,192,69877,1,0,0:0:0:0:
320,192,69988,1,0,0:0:0:0:
448,192,69988,1,0,0:0:0:0:
192,192,70206,1,0,0:0:0:0:
64,192,70207,1,0,0:0:0:0:
448,192,70207,1,0,0:0:0:0:
448,192,70642,1,0,0:0:0:0:
320,192,70642,1,0,0:0:0:0:
192,192,70642,1,0,0:0:0:0:
64,192,70859,1,0,0:0:0:0:
192,192,70859,1,0,0:0:0:0:
320,192,70859,1,0,0:0:0:0:
448,192,71182,1,0,0:0:0:0:
320,192,71182,1,0,0:0:0:0:
64,192,71182,1,0,0:0:0:0:
64,192,71397,1,0,0:0:0:0:
192,192,71397,1,0,0:0:0:0:
320,192,71397,1,0,0:0:0:0:
192,192,71504,1,0,0:0:0:0:
320,192,71504,1,0,0:0:0:0:
448,192,71504,1,0,0:0:0:0:
192,192,71717,1,0,0:0:0:0:
448,192,71717,1,0,0:0:0:0:
64,192,71718,1,0,0:0:0:0:
448,192,71930,1,0,0:0:0:0:
320,192,71930,1,0,0:0:0:0:
64,192,71930,1,0,0:0:0:0:
64,192,72143,1,0,0:0:0:0:
192,192,72143,1,0,0:0:0:0:
320,192,72143,1,0,0:0:0:0:
448,192,72354,1,0,0:0:0:0:
320,192,72354,1,0,0:0:0:0:
192,192,72354,1,0,0:0:0:0:
64,192,72565,1,0,0:0:0:0:
192,192,72565,1,0,0:0:0:0:
448,192,72565,1,0,0:0:0:0:
64,192,72879,1,0,0:0:0:0:
320,192,72879,1,0,0:0:0:0:
448,192,72879,1,0,0:0:0:0:
64,192,73088,1,0,0:0:0:0:
192,192,73088,1,0,0:0:0:0:
320,192,73192,1,0,0:0:0:0:
448,192,73192,1,0,0:0:0:0:
192,192,73295,1,0,0:0:0:0:
64,192,73295,1,0,0:0:0:0:
320,192,73400,1,0,0:0:0:0:
448,192,73400,1,0,0:0:0:0:
64,192,73503,1,0,0:0:0:0:
192,192,73503,1,0,0:0:0:0:
320,192,73607,1,0,0:0:0:0:
448,192,73607,1,0,0:0:0:0:
192,192,73710,1,0,0:0:0:0:
64,192,73710,1,0,0:0:0:0:
320,192,73813,1,0,0:0:0:0:
448,192,73813,1,0,0:0:0:0:
192,192,73915,1,0,0:0:0:0:
64,192,73915,1,0,0:0:0:0:
320,192,74018,1,0,0:0:0:0:
448,192,74018,1,0,0:0:0:0:
192,192,74120,1,0,0:0:0:0:
64,192,74222,1,0,0:0:0:0:
448,192,74223,1,0,0:0:0:0:
320,192,74325,1,0,0:0:0:0:
192,192,74427,1,0,0:0:0:0:
64,192,74427,1,0,0:0:0:0:
448,192,74528,1,0,0:0:0:0:
320,192,74630,1,0,0:0:0:0:
192,192,74630,1,0,0:0:0:0:
64,192,74731,1,0,0:0:0:0:
320,192,74832,1,0,0:0:0:0:
448,192,74833,1,0,0:0:0:0:
192,192,74934,1,0,0:0:0:0:
64,192,75035,1,0,0:0:0:0:
320,192,75035,1,0,0:0:0:0:
448,192,75135,1,0,0:0:0:0:
64,192,75236,1,0,0:0:0:0:
192,192,75236,1,0,0:0:0:0:
320,192,75336,1,0,0:0:0:0:
64,192,75436,1,0,0:0:0:0:
448,192,75437,1,0,0:0:0:0:
192,192,75537,1,0,0:0:0:0:
320,192,75637,1,0,0:0:0:0:
448,192,75637,1,0,0:0:0:0:
192,192,75736,1,0,0:0:0:0:
448,192,75836,1,0,0:0:0:0:
64,192,75836,1,0,0:0:0:0:
320,192,75935,1,0,0:0:0:0:
192,192,76035,1,0,0:0:0:0:
64,192,76035,1,0,0:0:0:0:
448,192,76134,1,0,0:0:0:0:
320,192,76233,1,0,0:0:0:0:
64,192,76233,1,0,0:0:0:0:
192,192,76233,1,0,0:0:0:0:
320,192,76430,1,0,0:0:0:0:
448,192,76430,1,0,0:0:0:0:
192,192,76430,1,0,0:0:0:0:
64,192,76725,1,0,0:0:0:0:
192,192,76725,1,0,0:0:0:0:
448,192,76725,1,0,0:0:0:0:
320,192,77018,1,0,0:0:0:0:
448,192,77018,1,0,0:0:0:0:
64,192,77018,1,0,0:0:0:0:
64,192,77213,1,0,0:0:0:0:
192,192,77213,1,0,0:0:0:0:
448,192,77213,1,0,0:0:0:0:
320,192,77310,1,0,0:0:0:0:
448,192,77407,1,0,0:0:0:0:
192,192,77407,1,0,0:0:0:0:
64,192,77503,1,0,0:0:0:0:
448,192,77600,1,0,0:0:0:0:
320,192,77601,1,0,0:0:0:0:
192,192,77697,1,0,0:0:0:0:
64,192,77793,1,0,0:0:0:0:
448,192,77793,1,0,0:0:0:0:
320,192,77890,1,0,0:0:0:0:
192,192,77986,1,0,0:0:0:0:
64,192,77986,1,0,0:0:0:0:
448,192,78081,1,0,0:0:0:0:
320,192,78178,1,0,0:0:0:0:
192,192,78178,1,0,0:0:0:0:
64,192,78273,1,0,0:0:0:0:
192,192,78369,1,0,0:0:0:0:
448,192,78369,1,0,0:0:0:0:
320,192,78464,1,0,0:0:0:0:
192,192,78559,1,0,0:0:0:0:
64,192,78559,1,0,0:0:0:0:
448,192,78653,1,0,0:0:0:0:
320,192,78748,1,0,0:0:0:0:
64,192,78749,1,0,0:0:0:0:
192,192,78843,1,0,0:0:0:0:
320,192,78938,1,0,0:0:0:0:
448,192,78938,1,0,0:0:0:0:
64,192,79032,1,0,0:0:0:0:
192,192,79127,1,0,0:0:0:0:
448,192,79127,1,0,0:0:0:0:
320,192,79221,1,0,0:0:0:0:
192,192,79315,1,0,0:0:0:0:
64,192,79315,1,0,0:0:0:0:
448,192,79315,1,0,0:0:0:0:
64,192,79503,1,0,0:0:0:0:
320,192,79503,1,0,0:0:0:0:
448,192,79503,1,0,0:0:0:0:
64,192,79690,1,0,0:0:0:0:
192,192,79690,1,0,0:0:0:0:
320,192,79783,1,0,0:0:0:0:
448,192,79783,1,0,0:0:0:0:
320,192,79968,1,0,0:0:0:0:
448,192,79968,1,0,0:0:0:0:
64,192,80062,1,0,0:0:0:0:
192,192,80062,1,0,0:0:0:0:
448,192,80247,1,0,0:0:0:0:
320,192,80247,1,0,0:0:0:0:
64,192,80247,1,0,0:0:0:0:
192,192,80339,1,0,0:0:0:0:
448,192,80431,1,0,0:0:0:0:
320,192,80432,1,0,0:0:0:0:
64,192,80524,1,0,0:0:0:0:
192,192,80616,1,0,0:0:0:0:
320,192,80616,1,0,0:0:0:0:
448,192,80707,1,0,0:0:0:0:
64,192,80799,1,0,0:0:0:0:
320,192,80799,1,0,0:0:0:0:
192,192,80890,1,0,0:0:0:0:
320,192,80981,1,0,0:0:0:0:
448,192,80981,1,0,0:0:0:0:
64,192,81073,1,0,0:0:0:0:
192,192,81164,1,0,0:0:0:0:
448,192,81164,1,0,0:0:0:0:
320,192,81254,1,0,0:0:0:0:
192,192,81346,1,0,0:0:0:0:
64,192,81346,1,0,0:0:0:0:
448,192,81436,1,0,0:0:0:0:
320,192,81527,1,0,0:0:0:0:
192,192,81527,1,0,0:0:0:0:
64,192,81617,1,0,0:0:0:0:
448,192,81707,1,0,0:0:0:0:
320,192,81708,1,0,0:0:0:0:
192,192,81798,1,0,0:0:0:0:
64,192,81888,1,0,0:0:0:0:
448,192,81888,1,0,0:0:0:0:
320,192,81977,1,0,0:0:0:0:
192,192,82067,1,0,0:0:0:0:
64,192,82067,1,0,0:0:0:0:
320,192,82157,1,0,0:0:0:0:
448,192,82247,1,0,0:0:0:0:
64,192,82247,1,0,0:0:0:0:
192,192,82247,1,0,0:0:0:0:
448,192,82425,1,0,0:0:0:0:
320,192,82426,1,0,0:0:0:0:
192,192,82426,1,0,0:0:0:0:
64,192,82692,1,0,0:0:0:0:
320,192,82692,1,0,0:0:0:0:
448,192,82692,1,0,0:0:0:0:
192,192,82959,1,0,0:0:0:0:
64,192,82959,1,0,0:0:0:0:
320,192,82959,1,0,0:0:0:0:
64,192,83135,1,0,0:0:0:0:
448,192,83135,1,0,0:0:0:0:
192,192,83135,1,0,0:0:0:0:
320,192,83222,1,0,0:0:0:0:
192,192,83310,1,0,0:0:0:0:
448,192,83311,1,0,0:0:0:0:
64,192,83398,1,0,0:0:0:0:
320,192,83486,1,0,0:0:0:0:
448,192,83486,1,0,0:0:0:0:
192,192,83573,1,0,0:0:0:0:
64,192,83661,1,0,0:0:0:0:
448,192,83661,1,0,0:0:0:0:
320,192,83748,1,0,0:0:0:0:
192,192,83835,1,0,0:0:0:0:
64,192,83835,1,0,0:0:0:0:
320,192,83921,1,0,0:0:0:0:
64,192,84008,1,0,0:0:0:0:
448,192,84009,1,0,0:0:0:0:
192,192,84095,1,0,0:0:0:0:
320,192,84182,1,0,0:0:0:0:
448,192,84182,1,0,0:0:0:0:
64,192,84268,1,0,0:0:0:0:
192,192,84354,1,0,0:0:0:0:
320,192,84355,1,0,0:0:0:0:
448,192,84441,1,0,0:0:0:0:
64,192,84527,1,0,0:0:0:0:
192,192,84527,1,0,0:0:0:0:
320,192,84612,1,0,0:0:0:0:
448,192,84612,1,0,0:0:0:0:
64,192,84698,5,0,0:0:0:0:
192,192,84698,1,0,0:0:0:0:
448,192,84870,1,0,0:0:0:0:
320,192,84870,1,0,0:0:0:0:
192,192,84955,1,0,0:0:0:0:
64,192,85040,1,0,0:0:0:0:
320,192,85041,1,0,0:0:0:0:
448,192,85041,1,0,0:0:0:0:
64,192,85211,1,0,0:0:0:0:
192,192,85211,1,0,0:0:0:0:
320,192,85295,1,0,0:0:0:0:
448,192,85295,1,0,0:0:0:0:
192,192,85380,1,0,0:0:0:0:
64,192,85381,1,0,0:0:0:0:
320,192,85465,1,0,0:0:0:0:
448,192,85465,1,0,0:0:0:0:
64,192,85634,1,0,0:0:0:0:
192,192,85634,1,0,0:0:0:0:
320,192,85719,1,0,0:0:0:0:
448,192,85719,1,0,0:0:0:0:
64,192,85888,5,0,0:0:0:0:
320,192,85888,1,0,0:0:0:0:
64,192,86056,1,0,0:0:0:0:
192,192,86056,1,0,0:0:0:0:
320,192,86223,1,0,0:0:0:0:
448,192,86224,1,0,0:0:0:0:
448,192,86391,1,0,0:0:0:0:
192,192,86391,1,0,0:0:0:0:
192,192,86558,1,0,0:0:0:0:
320,192,86558,1,0,0:0:0:0:
320,192,86724,1,0,0:0:0:0:
64,192,86724,1,0,0:0:0:0:
64,192,86890,1,0,0:0:0:0:
448,192,86890,1,0,0:0:0:0:
448,192,87055,1,0,0:0:0:0:
192,192,87055,1,0,0:0:0:0:
192,192,87220,1,0,0:0:0:0:
320,192,87220,1,0,0:0:0:0:
320,192,87384,1,0,0:0:0:0:
448,192,87384,1,0,0:0:0:0:
448,192,87548,1,0,0:0:0:0:
64,192,87548,1,0,0:0:0:0:
64,192,87711,1,0,0:0:0:0:
192,192,87711,1,0,0:0:0:0:
320,192,87711,1,0,0:0:0:0:
192,192,87874,1,0,0:0:0:0:
448,192,87874,1,0,0:0:0:0:
320,192,87874,1,0,0:0:0:0:
64,192,88118,1,0,0:0:0:0:
192,192,88118,1,0,0:0:0:0:
320,192,88118,1,0,0:0:0:0:
448,192,88360,1,0,0:0:0:0:
320,192,88360,1,0,0:0:0:0:
192,192,88360,1,0,0:0:0:0:
64,192,88522,1,0,0:0:0:0:
192,192,88522,1,0,0:0:0:0:
320,192,88522,1,0,0:0:0:0:
448,192,88682,1,0,0:0:0:0:
64,192,88683,1,0,0:0:0:0:
448,192,88843,1,0,0:0:0:0:
192,192,88843,1,0,0:0:0:0:
192,192,89003,1,0,0:0:0:0:
64,192,89003,1,0,0:0:0:0:
320,192,89163,1,0,0:0:0:0:
64,192,89163,1,0,0:0:0:0:
192,192,89322,1,0,0:0:0:0:
320,192,89322,1,0,0:0:0:0:
448,192,89481,1,0,0:0:0:0:
192,192,89481,1,0,0:0:0:0:
448,192,89639,1,0,0:0:0:0:
320,192,89639,1,0,0:0:0:0:
320,192,89797,1,0,0:0:0:0:
192,192,89797,1,0,0:0:0:0:
64,192,89954,1,0,0:0:0:0:
192,192,89954,1,0,0:0:0:0:
64,192,90111,1,0,0:0:0:0:
320,192,90111,1,0,0:0:0:0:
320,192,90267,1,0,0:0:0:0:
448,192,90268,1,0,0:0:0:0:
192,192,90268,1,0,0:0:0:0:
64,192,90424,1,0,0:0:0:0:
192,192,90424,1,0,0:0:0:0:
320,192,90501,1,0,0:0:0:0:
448,192,90501,1,0,0:0:0:0:
192,192,90580,1,0,0:0:0:0:
64,192,90580,1,0,0:0:0:0:
320,192,90657,1,0,0:0:0:0:
448,192,90657,1,0,0:0:0:0:
64,192,90735,1,0,0:0:0:0:
192,192,90735,1,0,0:0:0:0:
448,192,90890,1,0,0:0:0:0:
320,192,90890,1,0,0:0:0:0:
192,192,90890,1,0,0:0:0:0:
64,192,91045,1,0,0:0:0:0:
320,192,91045,1,0,0:0:0:0:
448,192,91045,1,0,0:0:0:0:
64,192,91199,1,0,0:0:0:0:
192,192,91199,1,0,0:0:0:0:
192,192,91353,1,0,0:0:0:0:
320,192,91353,1,0,0:0:0:0:
320,192,91506,1,0,0:0:0:0:
448,192,91506,1,0,0:0:0:0:
448,192,91659,1,0,0:0:0:0:
64,192,91659,1,0,0:0:0:0:
64,192,91812,1,0,0:0:0:0:
320,192,91812,1,0,0:0:0:0:
192,192,91964,1,0,0:0:0:0:
320,192,91964,1,0,0:0:0:0:
448,192,92115,1,0,0:0:0:0:
192,192,92116,1,0,0:0:0:0:
320,192,92268,1,0,0:0:0:0:
448,192,92268,1,0,0:0:0:0:
320,192,92419,1,0,0:0:0:0:
64,192,92419,1,0,0:0:0:0:
64,192,92569,1,0,0:0:0:0:
192,192,92569,1,0,0:0:0:0:
192,192,92720,1,0,0:0:0:0:
448,192,92720,1,0,0:0:0:0:
320,192,92720,1,0,0:0:0:0:
64,192,92870,1,0,0:0:0:0:
192,192,92870,1,0,0:0:0:0:
320,192,92870,1,0,0:0:0:0:
448,192,93094,1,0,0:0:0:0:
320,192,93094,1,0,0:0:0:0:
64,192,93094,1,0,0:0:0:0:
64,192,93317,1,0,0:0:0:0:
192,192,93317,1,0,0:0:0:0:
448,192,93317,1,0,0:0:0:0:
192,192,93467,1,0,0:0:0:0:
320,192,93467,1,0,0:0:0:0:
448,192,93467,1,0,0:0:0:0:
320,192,93615,1,0,0:0:0:0:
64,192,93615,1,0,0:0:0:0:
192,192,93763,1,0,0:0:0:0:
64,192,93763,1,0,0:0:0:0:
192,192,93910,1,0,0:0:0:0:
448,192,93910,1,0,0:0:0:0:
448,192,94057,1,0,0:0:0:0:
320,192,94057,1,0,0:0:0:0:
320,192,94204,1,0,0:0:0:0:
64,192,94204,1,0,0:0:0:0:
64,192,94350,1,0,0:0:0:0:
192,192,94350,1,0,0:0:0:0:
192,192,94495,1,0,0:0:0:0:
448,192,94495,1,0,0:0:0:0:
448,192,94641,1,0,0:0:0:0:
320,192,94641,1,0,0:0:0:0:
320,192,94787,1,0,0:0:0:0:
192,192,94787,1,0,0:0:0:0:
64,192,94932,1,0,0:0:0:0:
192,192,94932,1,0,0:0:0:0:
64,192,95076,1,0,0:0:0:0:
448,192,95076,1,0,0:0:0:0:
320,192,95076,1,0,0:0:0:0:
448,192,95221,1,0,0:0:0:0:
192,192,95221,1,0,0:0:0:0:
320,192,95221,1,0,0:0:0:0:
64,192,95365,1,0,0:0:0:0:
192,192,95365,1,0,0:0:0:0:
320,192,95365,1,0,0:0:0:0:
64,192,95508,1,0,0:0:0:0:
192,192,95508,1,0,0:0:0:0:
448,192,95508,1,0,0:0:0:0:
448,192,95652,1,0,0:0:0:0:
320,192,95652,1,0,0:0:0:0:
64,192,95652,1,0,0:0:0:0:
192,192,95794,1,0,0:0:0:0:
320,192,95794,1,0,0:0:0:0:
64,192,95937,1,0,0:0:0:0:
448,192,95937,1,0,0:0:0:0:
320,192,96080,1,0,0:0:0:0:
192,192,96080,1,0,0:0:0:0:
448,192,96222,1,0,0:0:0:0:
64,192,96222,1,0,0:0:0:0:
192,192,96505,1,0,0:0:0:0:
320,192,96505,1,0,0:0:0:0:
64,192,96786,1,0,0:0:0:0:
192,192,96787,1,0,0:0:0:0:
448,192,96927,1,0,0:0:0:0:
320,192,96927,1,0,0:0:0:0:
64,192,97067,1,0,0:0:0:0:
192,192,97067,1,0,0:0:0:0:
320,192,97206,1,0,0:0:0:0:
448,192,97207,1,0,0:0:0:0:
64,192,97346,1,0,0:0:0:0:
192,192,97346,1,0,0:0:0:0:
448,192,97624,1,0,0:0:0:0:
320,192,97624,1,0,0:0:0:0:
64,192,97762,1,0,0:0:0:0:
192,192,97762,1,0,0:0:0:0:
448,192,98037,1,0,0:0:0:0:
192,192,98037,1,0,0:0:0:0:
64,192,98175,1,0,0:0:0:0:
320,192,98175,1,0,0:0:0:0:
448,192,98311,1,0,0:0:0:0:
192,192,98311,1,0,0:0:0:0:
320,192,98448,1,0,0:0:0:0:
64,192,98449,1,0,0:0:0:0:
192,192,98721,1,0,0:0:0:0:
448,192,98721,1,0,0:0:0:0:
64,192,98992,1,0,0:0:0:0:
192,192,98992,1,0,0:0:0:0:
320,192,99127,1,0,0:0:0:0:
448,192,99127,1,0,0:0:0:0:
192,192,99261,1,0,0:0:0:0:
64,192,99262,1,0,0:0:0:0:
320,192,99397,1,0,0:0:0:0:
448,192,99397,1,0,0:0:0:0:
64,192,99531,1,0,0:0:0:0:
320,192,99531,1,0,0:0:0:0:
192,192,99664,1,0,0:0:0:0:
448,192,99665,1,0,0:0:0:0:
64,192,99799,1,0,0:0:0:0:
320,192,99799,1,0,0:0:0:0:
192,192,99932,1,0,0:0:0:0:
448,192,99932,1,0,0:0:0:0:
192,192,100197,1,0,0:0:0:0:
64,192,100198,1,0,0:0:0:0:
320,192,100330,1,0,0:0:0:0:
448,192,100330,1,0,0:0:0:0:
192,192,100462,1,0,0:0:0:0:
64,192,100462,1,0,0:0:0:0:
320,192,100594,1,0,0:0:0:0:
448,192,100594,1,0,0:0:0:0:
64,192,100857,1,0,0:0:0:0:
192,192,100857,1,0,0:0:0:0:
448,192,101118,1,0,0:0:0:0:
192,192,101118,1,0,0:0:0:0:
320,192,101249,1,0,0:0:0:0:
64,192,101249,1,0,0:0:0:0:
192,192,101379,1,0,0:0:0:0:
448,192,101379,1,0,0:0:0:0:
320,192,101508,1,0,0:0:0:0:
64,192,101508,1,0,0:0:0:0:
192,192,101638,1,0,0:0:0:0:
448,192,101638,1,0,0:0:0:0:
64,192,101897,1,0,0:0:0:0:
320,192,101897,1,0,0:0:0:0:
192,192,102026,1,0,0:0:0:0:
448,192,102026,1,0,0:0:0:0:
64,192,102282,1,0,0:0:0:0:
448,192,102282,1,0,0:0:0:0:
320,192,102409,1,0,0:0:0:0:
192,192,102409,1,0,0:0:0:0:
64,192,102538,1,0,0:0:0:0:
448,192,102538,1,0,0:0:0:0:
320,192,102665,1,0,0:0:0:0:
192,192,102665,1,0,0:0:0:0:
64,192,102919,1,0,0:0:0:0:
448,192,102919,1,0,0:0:0:0:
448,192,103172,1,0,0:0:0:0:
192,192,103172,1,0,0:0:0:0:
64,192,103298,1,0,0:0:0:0:
320,192,103298,1,0,0:0:0:0:
192,192,103424,1,0,0:0:0:0:
448,192,103424,1,0,0:0:0:0:
320,192,103550,1,0,0:0:0:0:
64,192,103550,1,0,0:0:0:0:
192,192,103675,1,0,0:0:0:0:
64,192,103675,1,0,0:0:0:0:
448,192,103800,1,0,0:0:0:0:
320,192,103800,1,0,0:0:0:0:
64,192,103925,1,0,0:0:0:0:
192,192,103925,1,0,0:0:0:0:
320,192,104049,1,0,0:0:0:0:
448,192,104049,1,0,0:0:0:0:
64,192,104296,1,0,0:0:0:0:
192,192,104296,1,0,0:0:0:0:
64,192,104420,1,0,0:0:0:0:
320,192,104421,1,0,0:0:0:0:
192,192,104544,1,0,0:0:0:0:
448,192,104544,1,0,0:0:0:0:
448,192,104667,1,0,0:0:0:0:
320,192,104667,1,0,0:0:0:0:
192,192,104912,1,0,0:0:0:0:
320,192,104912,1,0,0:0:0:0:
448,192,105157,1,0,0:0:0:0:
64,192,105157,1,0,0:0:0:0:
448,192,105278,1,0,0:0:0:0:
192,192,105278,1,0,0:0:0:0:
320,192,105400,1,0,0:0:0:0:
64,192,105401,1,0,0:0:0:0:
448,192,105522,1,0,0:0:0:0:
64,192,105522,1,0,0:0:0:0:
320,192,105643,1,0,0:0:0:0:
192,192,105643,1,0,0:0:0:0:
64,192,105884,1,0,0:0:0:0:
320,192,105884,1,0,0:0:0:0:
192,192,106005,1,0,0:0:0:0:
448,192,106005,1,0,0:0:0:0:
64,192,106245,1,0,0:0:0:0:
448,192,106245,1,0,0:0:0:0:
64,192,106365,1,0,0:0:0:0:
192,192,106365,1,0,0:0:0:0:
320,192,106484,1,0,0:0:0:0:
448,192,106485,1,0,0:0:0:0:
448,192,106604,1,0,0:0:0:0:
64,192,106604,1,0,0:0:0:0:
192,192,106841,1,0,0:0:0:0:
448,192,106841,1,0,0:0:0:0:
448,192,107079,1,0,0:0:0:0:
320,192,107079,1,0,0:0:0:0:
448,192,107197,1,0,0:0:0:0:
192,192,107197,1,0,0:0:0:0:
320,192,107314,1,0,0:0:0:0:
64,192,107315,1,0,0:0:0:0:
64,192,107432,1,0,0:0:0:0:
192,192,107433,1,0,0:0:0:0:
448,192,107550,1,0,0:0:0:0:
320,192,107550,1,0,0:0:0:0:
192,192,107667,1,0,0:0:0:0:
448,192,107667,1,0,0:0:0:0:
320,192,107783,1,0,0:0:0:0:
64,192,107784,1,0,0:0:0:0:
192,192,107900,1,0,0:0:0:0:
64,192,107901,1,0,0:0:0:0:
320,192,108134,1,0,0:0:0:0:
192,192,108134,1,0,0:0:0:0:
320,192,108250,1,0,0:0:0:0:
448,192,108250,1,0,0:0:0:0:
192,192,108365,1,0,0:0:0:0:
64,192,108365,1,0,0:0:0:0:
192,192,108481,1,0,0:0:0:0:
320,192,108481,1,0,0:0:0:0:
448,192,108712,1,0,0:0:0:0:
64,192,108712,1,0,0:0:0:0:
192,192,108941,1,0,0:0:0:0:
320,192,108942,1,0,0:0:0:0:
192,192,109056,1,0,0:0:0:0:
448,192,109056,1,0,0:0:0:0:
320,192,109171,1,0,0:0:0:0:
64,192,109171,1,0,0:0:0:0:
192,192,109285,1,0,0:0:0:0:
320,192,109285,1,0,0:0:0:0:
64,192,109399,1,0,0:0:0:0:
448,192,109399,1,0,0:0:0:0:
448,192,109626,1,0,0:0:0:0:
320,192,109626,1,0,0:0:0:0:
64,192,109739,1,0,0:0:0:0:
192,192,109739,1,0,0:0:0:0:
320,192,109964,1,0,0:0:0:0:
448,192,109964,1,0,0:0:0:0:
320,192,110077,1,0,0:0:0:0:
64,192,110077,1,0,0:0:0:0:
448,192,110190,1,0,0:0:0:0:
192,192,110190,1,0,0:0:0:0:
192,192,110302,1,0,0:0:0:0:
64,192,110302,1,0,0:0:0:0:
320,192,110525,1,0,0:0:0:0:
448,192,110526,1,0,0:0:0:0:
192,192,110749,1,0,0:0:0:0:
64,192,110749,1,0,0:0:0:0:
192,192,110860,1,0,0:0:0:0:
448,192,110860,1,0,0:0:0:0:
64,192,110971,1,0,0:0:0:0:
320,192,110971,1,0,0:0:0:0:
448,192,111081,1,0,0:0:0:0:
320,192,111082,1,0,0:0:0:0:
192,192,111192,1,0,0:0:0:0:
64,192,111192,1,0,0:0:0:0:
448,192,111302,1,0,0:0:0:0:
192,192,111302,1,0,0:0:0:0:
64,192,111412,1,0,0:0:0:0:
320,192,111412,1,0,0:0:0:0:
320,192,111521,1,0,0:0:0:0:
448,192,111522,1,0,0:0:0:0:
64,192,111741,1,0,0:0:0:0:
192,192,111741,1,0,0:0:0:0:
64,192,111850,1,0,0:0:0:0:
192,192,111850,1,0,0:0:0:0:
320,192,111959,1,0,0:0:0:0:
448,192,111959,1,0,0:0:0:0:
320,192,112067,1,0,0:0:0:0:
448,192,112067,1,0,0:0:0:0:
64,192,112176,1,0,0:0:0:0:
192,192,112176,1,0,0:0:0:0:
192,192,112286,1,0,0:0:0:0:
320,192,112286,1,0,0:0:0:0:
448,192,112394,1,0,0:0:0:0:
320,192,112394,1,0,0:0:0:0:
64,192,112502,1,0,0:0:0:0:
192,192,112502,1,0,0:0:0:0:
448,192,112609,1,0,0:0:0:0:
320,192,112609,1,0,0:0:0:0:
448,192,112717,1,0,0:0:0:0:
320,192,112718,1,0,0:0:0:0:
64,192,112826,1,0,0:0:0:0:
192,192,112826,1,0,0:0:0:0:
64,192,112933,1,0,0:0:0:0:
192,192,112933,1,0,0:0:0:0:
448,192,113040,1,0,0:0:0:0:
320,192,113040,1,0,0:0:0:0:
320,192,113146,1,0,0:0:0:0:
192,192,113147,1,0,0:0:0:0:
64,192,113253,1,0,0:0:0:0:
192,192,113254,1,0,0:0:0:0:
448,192,113361,1,0,0:0:0:0:
320,192,113361,1,0,0:0:0:0:
64,192,113467,1,0,0:0:0:0:
192,192,113467,1,0,0:0:0:0:
64,192,113573,1,0,0:0:0:0:
192,192,113573,1,0,0:0:0:0:
320,192,113679,1,0,0:0:0:0:
448,192,113679,1,0,0:0:0:0:
320,192,113784,1,0,0:0:0:0:
448,192,113784,1,0,0:0:0:0:
192,192,113890,1,0,0:0:0:0:
64,192,113890,1,0,0:0:0:0:
192,192,113996,1,0,0:0:0:0:
320,192,113996,1,0,0:0:0:0:
320,192,114101,1,0,0:0:0:0:
448,192,114101,1,0,0:0:0:0:
64,192,114206,1,0,0:0:0:0:
192,192,114206,1,0,0:0:0:0:
320,192,114310,1,0,0:0:0:0:
448,192,114311,1,0,0:0:0:0:
64,192,114311,1,0,0:0:0:0:
192,192,114311,1,0,0:0:0:0:
