osu file format v14

[General]
AudioFilename: audio.mp3
AudioLeadIn: 0
PreviewTime: 14232
Countdown: 0
SampleSet: None
StackLeniency: 0.7
Mode: 3
LetterboxInBreaks: 0
SpecialStyle: 0
WidescreenStoryboard: 1

[Editor]
DistanceSpacing: 0.9
BeatDivisor: 4
GridSize: 4
TimelineZoom: 2.4

[Metadata]
Title:Elise
TitleUnicode:Elise
Artist:DM Ashura
ArtistUnicode:DM Ashura
Creator:Vapor-
Version:TBD EASY
Source:
Tags:classical dance electronic beethoven fur elise
BeatmapID:1081980
BeatmapSetID:508744

[Difficulty]
HPDrainRate:8
CircleSize:4
OverallDifficulty:8
ApproachRate:5
SliderMultiplier:1.4
SliderTickRate:1

[Events]
//Background and Video events
0,0,"BG.jpg",0,0
//Break Periods
//Storyboard Layer 0 (Background)
//Storyboard Layer 1 (Fail)
//Storyboard Layer 2 (Pass)
//Storyboard Layer 3 (Foreground)
//Storyboard Sound Samples

[TimingPoints]
251,370.37037037037,4,3,1,100,1,0
15816,370.37037037037,4,3,0,100,1,0
26927,-100,4,3,0,100,0,0
31371,-100,4,3,0,100,0,1
52575,-100,4,3,0,100,0,0
58038,-100,4,3,0,100,0,1
64704,-100,4,3,0,100,0,0

[HitObjects]
448,192,251,5,0,0:0:0:0:
192,192,528,1,0,0:0:0:0:
448,192,806,1,0,0:0:0:0:
192,192,1084,1,0,0:0:0:0:
448,192,1362,1,0,0:0:0:0:
64,192,1639,1,0,0:0:0:0:
320,192,1917,1,0,0:0:0:0:
192,192,2195,1,0,0:0:0:0:
448,192,2473,1,0,0:0:0:0:
64,192,2473,1,0,0:0:0:0:
320,192,2750,1,0,0:0:0:0:
64,192,3028,1,0,0:0:0:0:
192,192,3306,1,0,0:0:0:0:
320,192,3584,1,0,0:0:0:0:
192,192,3862,1,0,0:0:0:0:
64,192,4139,1,0,0:0:0:0:
320,192,4139,1,0,0:0:0:0:
64,192,4417,1,0,0:0:0:0:
192,192,4695,1,0,0:0:0:0:
320,192,4973,1,0,0:0:0:0:
192,192,5250,1,0,0:0:0:0:
320,192,5528,1,0,0:0:0:0:
448,192,5806,1,0,0:0:0:0:
64,192,5806,1,0,0:0:0:0:
64,192,6084,1,0,0:0:0:0:
320,192,6362,1,0,0:0:0:0:
192,192,6639,1,0,0:0:0:0:
448,192,6917,1,0,0:0:0:0:
192,192,7195,1,0,0:0:0:0:
448,192,7473,1,0,0:0:0:0:
192,192,7750,1,0,0:0:0:0:
448,192,8028,1,0,0:0:0:0:
64,192,8306,1,0,0:0:0:0:
320,192,8584,1,0,0:0:0:0:
192,192,8862,1,0,0:0:0:0:
64,192,9139,1,0,0:0:0:0:
448,192,9139,1,0,0:0:0:0:
64,192,9417,1,0,0:0:0:0:
192,192,9695,1,0,0:0:0:0:
320,192,9973,1,0,0:0:0:0:
192,192,10250,1,0,0:0:0:0:
320,192,10528,1,0,0:0:0:0:
64,192,10806,1,0,0:0:0:0:
320,192,10806,1,0,0:0:0:0:
64,192,11084,1,0,0:0:0:0:
192,192,11362,1,0,0:0:0:0:
320,192,11639,1,0,0:0:0:0:
448,192,11917,1,0,0:0:0:0:
320,192,12288,1,0,0:0:0:0:
448,192,12658,1,0,0:0:0:0:
64,192,12658,1,0,0:0:0:0:
64,192,12936,1,0,0:0:0:0:
320,192,13306,1,0,0:0:0:0:
64,192,13584,128,0,15816:0:0:0:0:
448,192,14325,1,0,0:0:0:0:
320,192,14510,1,0,0:0:0:0:
448,192,14695,1,0,0:0:0:0:
320,192,14880,1,0,0:0:0:0:
448,192,15065,1,0,0:0:0:0:
192,192,15250,1,0,0:0:0:0:
448,192,15436,1,0,0:0:0:0:
320,192,15621,1,0,0:0:0:0:
192,192,15816,1,0,0:0:0:0:
64,192,16001,1,0,0:0:0:0:
192,192,16186,1,0,0:0:0:0:
320,192,16371,1,0,0:0:0:0:
192,192,16556,1,0,0:0:0:0:
448,192,16741,1,0,0:0:0:0:
320,192,16927,1,0,0:0:0:0:
192,192,16927,1,0,0:0:0:0:
320,192,17112,1,0,0:0:0:0:
64,192,17297,1,0,0:0:0:0:
320,192,17482,1,0,0:0:0:0:
448,192,17667,1,0,0:0:0:0:
320,192,17853,1,0,0:0:0:0:
64,192,18038,1,0,0:0:0:0:
448,192,18038,1,0,0:0:0:0:
192,192,18223,1,0,0:0:0:0:
320,192,18408,1,0,0:0:0:0:
64,192,18593,1,0,0:0:0:0:
448,192,18778,1,0,0:0:0:0:
192,192,18778,1,0,0:0:0:0:
192,192,18964,1,0,0:0:0:0:
448,192,19149,1,0,0:0:0:0:
192,192,19334,1,0,0:0:0:0:
448,192,19519,1,0,0:0:0:0:
64,192,19704,1,0,0:0:0:0:
448,192,19890,1,0,0:0:0:0:
320,192,20075,1,0,0:0:0:0:
192,192,20260,1,0,0:0:0:0:
64,192,20260,1,0,0:0:0:0:
320,192,20445,1,0,0:0:0:0:
192,192,20630,1,0,0:0:0:0:
320,192,20815,1,0,0:0:0:0:
448,192,21001,1,0,0:0:0:0:
192,192,21186,1,0,0:0:0:0:
448,192,21371,1,0,0:0:0:0:
64,192,21371,1,0,0:0:0:0:
192,192,21556,1,0,0:0:0:0:
320,192,21741,1,0,0:0:0:0:
192,192,21927,1,0,0:0:0:0:
320,192,22112,1,0,0:0:0:0:
448,192,22112,1,0,0:0:0:0:
320,192,22297,1,0,0:0:0:0:
192,192,22482,1,0,0:0:0:0:
64,192,22667,1,0,0:0:0:0:
320,192,22853,1,0,0:0:0:0:
192,192,23038,1,0,0:0:0:0:
320,192,23223,1,0,0:0:0:0:
64,192,23223,1,0,0:0:0:0:
192,192,23408,1,0,0:0:0:0:
448,192,23593,1,0,0:0:0:0:
320,192,23593,1,0,0:0:0:0:
192,192,23778,1,0,0:0:0:0:
320,192,23964,1,0,0:0:0:0:
64,192,24149,1,0,0:0:0:0:
448,192,24334,1,0,0:0:0:0:
320,192,24519,1,0,0:0:0:0:
192,192,24704,1,0,0:0:0:0:
64,192,24704,1,0,0:0:0:0:
64,192,24890,1,0,0:0:0:0:
320,192,25075,1,0,0:0:0:0:
192,192,25260,1,0,0:0:0:0:
448,192,25445,1,0,0:0:0:0:
320,192,25630,1,0,0:0:0:0:
192,192,25815,1,0,0:0:0:0:
64,192,25815,1,0,0:0:0:0:
64,192,26001,1,0,0:0:0:0:
192,192,26186,1,0,0:0:0:0:
320,192,26371,1,0,0:0:0:0:
448,192,26556,1,0,0:0:0:0:
320,192,26741,1,0,0:0:0:0:
64,192,26927,1,0,0:0:0:0:
448,192,26927,1,0,0:0:0:0:
320,192,27667,1,0,0:0:0:0:
64,192,27853,1,0,0:0:0:0:
320,192,28038,1,0,0:0:0:0:
320,192,28223,1,0,0:0:0:0:
448,192,28408,1,0,0:0:0:0:
192,192,28593,1,0,0:0:0:0:
448,192,28778,1,0,0:0:0:0:
192,192,28964,1,0,0:0:0:0:
448,192,29149,1,0,0:0:0:0:
192,192,29334,1,0,0:0:0:0:
448,192,29519,1,0,0:0:0:0:
192,192,29704,1,0,0:0:0:0:
448,192,29890,1,0,0:0:0:0:
192,192,30075,1,0,0:0:0:0:
448,192,30260,1,0,0:0:0:0:
320,192,30353,1,0,0:0:0:0:
192,192,30445,1,0,0:0:0:0:
64,192,30538,1,0,0:0:0:0:
320,192,30630,1,0,0:0:0:0:
448,192,30723,1,0,0:0:0:0:
320,192,30815,1,0,0:0:0:0:
192,192,30908,1,0,0:0:0:0:
64,192,31001,1,0,0:0:0:0:
320,192,31093,1,0,0:0:0:0:
192,192,31186,1,0,0:0:0:0:
64,192,31278,1,0,0:0:0:0:
448,192,31371,1,0,0:0:0:0:
192,192,31371,1,0,0:0:0:0:
64,192,31556,1,0,0:0:0:0:
192,192,31741,1,0,0:0:0:0:
320,192,31927,1,0,0:0:0:0:
64,192,32112,1,0,0:0:0:0:
192,192,32297,1,0,0:0:0:0:
320,192,32482,1,0,0:0:0:0:
448,192,32482,1,0,0:0:0:0:
64,192,32667,1,0,0:0:0:0:
192,192,32853,1,0,0:0:0:0:
64,192,33038,1,0,0:0:0:0:
192,192,33223,1,0,0:0:0:0:
320,192,33408,1,0,0:0:0:0:
448,192,33593,1,0,0:0:0:0:
64,192,33593,1,0,0:0:0:0:
320,192,33964,1,0,0:0:0:0:
64,192,33964,1,0,0:0:0:0:
64,192,34149,1,0,0:0:0:0:
