osu file format v14

[General]
AudioFilename: Song.mp3
AudioLeadIn: 0
PreviewTime: 29890
Countdown: 0
SampleSet: Normal
StackLeniency: 0.7
Mode: 0
LetterboxInBreaks: 0
WidescreenStoryboard: 0

[Editor]
Bookmarks: 14335,31371,39149,40260,48964,49149,58038,64704,85538,87945,91371
DistanceSpacing: 1.1
BeatDivisor: 4
GridSize: 4
TimelineZoom: 2.988

[Metadata]
Title:Elise
TitleUnicode:Elise
Artist:DM Ashura
ArtistUnicode:DM Ashura
Creator:Streliteela
Version:Normal
Source:PUMP IT UP - 2013 FIESTA 2 -
Tags:Frey Infinity Beethoven Für Elise 엘리제 3/4 time waltz hard symphonic electronic remix Rhythm Master
BeatmapID:865114
BeatmapSetID:290339

[Difficulty]
HPDrainRate:3
CircleSize:3.5
OverallDifficulty:4
ApproachRate:5
SliderMultiplier:1
SliderTickRate:1

[Events]
//Background and Video events
0,0,"BG.jpg",0,0
//Break Periods
2,52682,54615
2,84164,86838
//Storyboard Layer 0 (Background)
//Storyboard Layer 1 (Fail)
//Storyboard Layer 2 (Pass)
//Storyboard Layer 3 (Foreground)
//Storyboard Sound Samples

[TimingPoints]
262,555.555555555556,3,2,2,20,1,0
2484,555.555555555556,3,2,2,20,1,0
11928,606.060606060606,3,2,2,20,1,0
12231,689.655172413793,3,2,2,20,1,0
12575,705.882352941176,3,2,2,20,1,0
12927,789.473684210526,3,2,2,20,1,0
14335,370.37037037037,3,2,2,30,1,0
15816,370.37037037037,3,2,2,80,1,0
31371,-100,3,1,1,80,0,1
38778,-100,3,1,1,80,0,0
39149,-100,3,1,1,40,0,0
39519,-100,3,1,1,50,0,0
39890,-100,3,1,1,60,0,0
40260,-100,3,1,1,80,0,1
46927,-100,3,1,1,40,0,1
47297,-100,3,1,1,60,0,1
47667,-100,3,1,1,80,0,1
48038,-100,3,1,1,50,0,1
49149,-100,3,1,1,50,0,0
58038,-100,3,1,1,90,0,1
63593,-100,3,1,1,70,0,1
64704,-100,3,2,2,80,0,0
82482,-100,3,2,2,60,0,0
88038,437.956204379562,3,2,2,50,1,0
88694,483.870967741935,3,2,2,40,1,0
88935,500,3,2,2,40,1,0
89435,526.315789473684,3,2,2,30,1,0
89698,540.540540540541,3,2,2,30,1,0
90103,631.578947368421,3,2,2,30,1,0
90260,370.37037037037,3,1,1,30,1,0
91371,370.37037037037,3,1,1,90,1,1
102482,-100,3,1,1,80,0,1
102852,-100,3,1,1,70,0,1
103222,-100,3,1,1,60,0,1
103593,-100,3,1,1,50,0,1
103963,-100,3,1,1,40,0,1
104704,-100,3,1,1,50,0,1
105074,-100,3,2,2,60,0,1
105445,-100,3,2,2,70,0,1
105815,-100,3,3,1,80,0,1
106185,-100,3,3,1,85,0,1
106556,-100,3,3,1,90,0,1
106926,-100,3,1,1,90,0,1
113593,-100,4,1,1,90,0,0
113963,-100,4,1,1,50,0,0
114333,-100,4,1,1,40,0,0
114704,-100,4,1,1,30,0,0
115074,-100,4,1,1,20,0,0
115445,-100,4,1,1,10,0,0
115630,-100,4,1,1,5,0,0

[Colours]
Combo1 : 186,117,255
Combo2 : 108,122,217
Combo3 : 226,124,221

[HitObjects]
349,212,262,5,2,0:0:0:0:
290,118,817,1,2,0:0:0:0:
361,34,1373,1,2,0:0:0:0:
463,75,1928,1,2,0:0:0:0:
455,185,2484,6,8,P|452:238|447:299,2,100,2|0|2,0:0|0:0|0:0,0:0:0:0:
356,135,4150,2,8,P|301:146|249:167,1,100,2|0,0:0|0:0,0:0:0:0:
199,253,5261,1,2,0:0:0:0:
108,190,5817,2,8,P|111:136|122:74,2,100,2|0|2,0:0|0:0|0:0,0:0:0:0:
199,253,7484,5,2,0:0:0:0:
272,171,8039,1,2,0:0:0:0:
235,67,8595,1,2,0:0:0:0:
126,82,9150,6,8,P|79:90|20:104,2,100,2|0|2,0:0|0:0|0:0,0:0:0:0:
235,67,10817,2,8,P|286:69|331:99,1,100,2|0,0:0|0:0,0:0:0:0:
375,182,11928,2,8,L|367:238,1,50,2|0,0:0|0:0,0:0:0:0:
328,267,12575,5,2,0:0:0:0:
328,267,12927,2,8,L|335:316,1,50,0|2,0:0|0:0,0:0:0:0:
87,66,14335,6,8,P|92:111|94:130,2,50,2|0|2,0:0|0:0|0:0,0:0:0:0:
187,105,15075,2,8,P|181:155|174:209,1,100,2|2,0:0|0:0,0:0:0:0:
140,309,15816,5,12,0:0:0:0:
79,217,16186,2,8,P|130:200|186:208,1,100,2|2,0:0|0:0,0:0:0:0:
251,285,16927,6,8,L|310:277,2,50,8|0|2,2:0|0:0|0:0,0:0:0:0:
299,186,17667,2,8,L|359:192,1,50,2|0,0:0|0:0,0:0:0:0:
403,197,18038,2,8,P|421:253|422:311,1,100,8|2,2:0|0:0,0:0:0:0:
335,359,18778,5,10,0:0:0:0:
251,285,19149,1,2,0:0:0:0:
258,175,19519,2,8,L|263:115,2,50,10|0|10,0:0|0:0|0:0,0:0:0:0:
329,91,20260,6,8,P|292:56|239:53,1,100,8|10,0:0|0:0,0:0:0:0:
165,127,21001,1,10,0:0:0:0:
70,70,21371,6,8,L|77:7,2,50,8|0|10,0:0|0:0|0:0,0:0:0:0:
165,127,22112,2,8,L|166:186,1,50,10|2,0:0|0:0,0:0:0:0:
117,203,22482,2,8,P|111:266|111:314,1,100,8|10,0:0|0:0,0:0:0:0:
213,342,23223,2,8,P|245:338|285:334,1,50,10|0,0:0|0:0,0:0:0:0:
317,330,23593,5,8,0:0:0:0:
426,319,23964,2,0,P|426:284|426:262,1,50,10|0,0:0|0:0,0:0:0:0:
429,215,24334,1,10,0:0:0:0:
451,107,24704,6,8,P|398:108|352:135,1,100,8|10,0:0|0:0,0:0:0:0:
289,216,25445,2,8,L|234:209,1,50,10|0,0:0|0:0,0:0:0:0:
185,200,25815,5,8,0:0:0:0:
83,242,26186,2,8,P|114:284|160:306,1,100,10|10,0:0|0:0,0:0:0:0:
266,307,26927,1,8,0:0:0:0:
266,307,27297,6,8,L|334:298,2,50,2|0|2,0:0|0:0|0:0,0:0:0:0:
306,204,28038,2,8,L|374:195,2,50,2|2|2,0:0|0:0|0:0,0:0:0:0:
237,118,28778,1,2,0:0:0:0:
312,38,29149,6,8,P|368:42|420:50,1,100,2|2,0:0|0:0,0:0:0:0:
472,142,29890,2,8,P|468:206|460:250,1,100,2|2,0:0|0:0,0:0:0:0:
398,331,30630,2,8,P|342:327|290:319,1,100,2|2,0:2|0:2,0:0:0:0:
211,253,31371,6,8,L|147:266,2,50,12|2|10,0:0|2:0|3:1,0:0:0:0:
264,156,32112,2,8,P|266:117|268:88,1,50,10|2,3:1|2:0,0:0:0:0:
239,58,32482,2,8,P|186:59|134:81,1,100,8|10,0:0|3:1,0:0:0:0:
63,152,33223,2,8,L|72:202,1,50,10|2,3:1|2:0,0:0:0:0:
121,223,33593,6,8,P|115:280|111:331,1,100,8|10,0:0|3:1,0:0:0:0:
218,347,34334,2,8,P|272:340|292:338,2,50,8|2|10,0:0|0:2|3:1,0:0:0:0:
237,238,35075,2,8,P|291:231|311:229,2,50,10|2|10,3:1|0:2|3:1,0:0:0:0:
265,131,35815,6,8,P|320:125|374:121,1,100,8|10,0:0|3:1,0:0:0:0:
437,204,36556,2,8,L|440:154,1,50,10|2,3:1|0:2,0:0:0:0:
485,122,36927,2,8,P|479:64|473:20,1,100,8|10,0:0|3:1,0:0:0:0:
363,21,37667,2,8,P|336:27|303:29,1,50,10|2,3:1|2:0,0:0:0:0:
258,23,38038,6,8,P|266:78|270:125,1,100,8|10,0:0|3:1,0:0:0:0:
236,226,38778,1,10,3:1:0:0:
139,172,39149,2,8,P|92:165|30:167,2,100,2|2|2,0:3|0:3|0:3,0:0:0:0:
236,226,40260,6,8,L|233:287,2,50,12|0|10,0:0|0:0|3:1,0:0:0:0:
139,172,41001,1,10,3:1:0:0:
59,247,41371,2,8,P|65:296|74:345,2,100,8|10|10,0:0|3:1|3:1,0:0:0:0:
40,138,42482,2,8,P|103:75|205:91,1,200,8|2,0:0|2:0,0:0:0:0:
241,195,43593,2,8,P|237:256|235:314,1,100,8|10,0:0|3:1,0:0:0:0:
338,332,44334,2,8,L|394:323,1,50,10|2,3:1|3:0,0:0:0:0:
441,335,44704,6,0,P|436:282|428:231,1,100,8|10,0:0|3:1,0:0:0:0:
459,130,45445,2,0,P|461:92|463:63,1,50,10|2,3:1|2:0,0:0:0:0:
428,36,45815,2,0,P|376:40|323:52,1,100,8|10,0:0|3:1,0:0:0:0:
278,147,46556,1,10,3:1:0:0:
178,99,46927,6,0,L|182:38,2,50,8|8|8,0:0|0:0|0:0,0:0:0:0:
93,169,47667,2,0,L|81:109,2,50,8|8|4,0:0|0:0|0:0,0:0:0:0:
117,332,48593,2,0,L|67:321,2,50,10|10|10,3:1|3:1|3:1,0:0:0:0:
170,345,49149,5,14,0:0:0:0:
153,235,49519,1,12,0:0:0:0:
262,221,49890,1,12,0:0:0:0:
281,330,50260,5,12,0:0:0:0:
153,235,50815,2,0,L|103:224,2,50,12|12|12,0:0|0:0|0:0,0:0:0:0:
206,250,51371,5,12,0:0:0:0:
310,211,51741,1,12,0:0:0:0:
279,104,52112,1,12,0:0:0:0:
173,133,52482,5,12,0:0:0:0:
256,192,55815,12,2,57297,0:2:0:0:
333,326,58038,6,0,P|273:332|227:339,1,100,12|10,0:0|3:1,0:0:0:0:
187,308,58593,2,0,L|127:304,2,50,2|10|2,2:0|3:1|2:0,0:0:0:0:
204,255,59149,2,0,P|199:193|191:145,1,100,8|10,0:0|3:1,0:0:0:0:
120,73,59890,2,0,L|69:85,1,50,10|2,3:1|2:0,0:0:0:0:
31,122,60260,6,0,P|27:170|24:230,1,100,8|10,0:0|3:1,0:0:0:0:
102,299,61001,1,8,0:0:0:0:
204,255,61371,1,10,3:1:0:0:
291,320,61741,2,0,P|316:318|343:314,1,50,10|2,3:1|2:0,0:0:0:0:
370,267,62112,2,0,P|407:272|430:276,1,50,10|10,3:1|3:1,0:0:0:0:
467,300,62482,6,0,P|461:238|458:195,1,100,8|10,0:0|3:1,0:0:0:0:
448,90,63223,2,0,P|424:98|394:104,1,50,10|2,3:1|2:0,0:0:0:0:
357,68,63593,2,0,L|236:56,1,100,10|2,3:1|3:0,0:0:0:0:
269,167,64334,2,0,L|211:159,1,50,10|10,3:1|3:1,0:0:0:0:
172,135,64704,6,0,P|166:96|162:28,2,100,4|0|2,0:0|0:0|0:0,0:0:0:0:
188,243,65815,2,0,P|157:267|100:305,1,100,2|0,0:0|0:0,0:0:0:0:
70,197,66556,2,0,L|65:146,1,50,2|2,0:0|0:0,0:0:0:0:
60,92,66927,6,0,P|110:99|160:118,1,100,2|0,0:0|0:0,0:0:0:0:
230,197,67667,2,0,L|228:250,1,50,2|2,0:0|0:0,0:0:0:0:
228,302,68038,2,0,P|282:292|335:271,1,100,2|0,0:0|0:0,0:0:0:0:
369,176,68778,2,0,L|360:116,1,50,2|0,0:0|0:0,0:0:0:0:
353,71,69149,6,0,P|405:76|461:86,2,100,2|0|2,0:0|0:0|0:0,0:0:0:0:
244,56,70260,2,0,P|201:76|141:84,1,100,2|0,0:0|0:0,0:0:0:0:
36,87,71001,2,0,P|41:115|46:140,1,50,2|2,0:0|0:0,0:0:0:0:
95,158,71371,6,0,P|91:202|87:264,1,100,2|0,0:0|0:0,0:0:0:0:
166,334,72112,2,0,P|189:337|216:338,1,50,2|0,0:0|0:0,0:0:0:0:
241,289,72482,2,0,P|292:276|347:274,2,100,2|2|2,0:0|0:0|0:0,0:0:0:0:
309,375,73593,6,0,P|358:372|407:359,2,100,2|0|2,0:0|0:0|0:0,0:0:0:0:
242,288,74704,2,0,P|239:238|243:187,1,100,2|0,0:0|0:0,0:0:0:0:
310,101,75445,2,0,L|364:106,1,50,2|2,0:0|0:0,0:0:0:0:
414,107,75815,6,0,P|424:151|429:215,1,100,2|0,0:0|0:0,0:0:0:0:
385,306,76556,2,0,L|337:317,1,50,2|2,0:0|0:0,0:0:0:0:
297,278,76927,2,0,P|241:268|193:267,1,100,2|0,0:0|0:0,0:0:0:0:
97,311,77667,2,0,L|85:255,1,50,2|0,0:0|0:0,0:0:0:0:
123,221,78038,6,0,P|124:170|128:112,2,100,2|0|2,0:0|0:0|0:0,0:0:0:0:
221,172,79149,2,0,P|217:120|211:63,1,100,2|0,0:0|0:0,0:0:0:0:
117,15,79890,2,0,P|90:18|65:24,1,50,2|2,0:0|0:0,0:0:0:0:
32,65,80260,6,0,P|30:116|30:169,1,100,2|0,0:0|0:0,0:0:0:0:
76,264,81001,1,2,0:0:0:0:
179,225,81371,2,0,P|185:285|188:329,2,100,2|2|2,0:0|0:0|0:0,0:0:0:0:
132,123,82482,5,2,0:0:0:0:
369,72,83964,1,2,0:0:0:0:
256,192,88038,12,2,90260,3:0:0:0:
320,341,91371,6,0,L|309:236,1,100,12|10,0:0|3:1,0:0:0:0:
385,161,92111,2,0,L|433:172,1,50,10|2,3:1|2:0,0:0:0:0:
487,185,92482,2,0,P|492:245|492:285,2,100,8|10|10,0:0|3:1|3:1,0:0:0:0:
453,80,93593,2,0,P|403:60|350:58,1,100,8|10,0:0|3:1,0:0:0:0:
272,127,94333,6,0,L|218:132,2,50,8|2|10,0:0|2:0|3:1,0:0:0:0:
241,232,95074,2,0,L|187:237,2,50,10|2|10,3:1|2:0|3:1,0:0:0:0:
212,338,95815,6,0,L|110:347,1,100,8|10,0:0|3:1,0:0:0:0:
61,249,96556,2,0,P|56:207|54:189,1,50,10|2,3:1|2:0,0:0:0:0:
100,167,96926,2,0,P|104:105|106:60,1,100,8|10,0:0|3:1,0:0:0:0:
209,30,97667,2,0,P|234:32|263:35,1,50,10|2,3:1|2:0,0:0:0:0:
287,81,98037,2,0,P|296:133|303:189,1,100,8|10,0:0|3:1,0:0:0:0:
217,250,98778,2,0,L|161:246,1,50,10|10,3:1|3:1,0:0:0:0:
129,286,99148,6,0,P|84:276|22:272,1,100,8|10,0:0|3:1,0:0:0:0:
70,374,99889,1,10,3:1:0:0:
178,356,100259,2,0,P|230:348|277:343,1,100,8|10,0:0|3:1,0:0:0:0:
384,366,101000,1,10,3:1:0:0:
449,277,101370,6,0,P|401:256|350:260,1,100,8|10,0:0|3:1,0:0:0:0:
277,342,102111,1,10,3:1:0:0:
258,233,102482,6,0,P|247:186|252:128,1,100,8|10,0:0|3:1,0:0:0:0:
344,78,103222,2,0,P|355:125|351:182,1,100,10|10,3:1|3:1,0:0:0:0:
250,134,103963,1,10,3:1:0:0:
239,243,104333,6,0,L|183:239,2,50,8|8|8,0:0|0:0|0:0,0:0:0:0:
303,332,105074,2,0,L|352:325,2,50,8|8|8,0:0|0:0|0:0,0:0:0:0:
193,346,105815,1,2,3:0:0:0:
102,284,106185,2,0,P|96:239|109:181,1,100,2|2,3:0|3:0,0:0:0:0:
79,79,106926,6,0,P|124:93|184:102,1,100,12|10,0:0|3:1,0:0:0:0:
268,161,107667,2,0,P|306:154|328:150,1,50,10|2,3:1|2:0,0:0:0:0:
348,106,108037,2,0,P|396:114|447:124,1,100,12|10,0:0|3:1,0:0:0:0:
476,229,108778,2,0,B|473:265|472:279,1,50,10|2,3:1|2:0,0:0:0:0:
435,320,109148,6,0,P|384:313|330:303,1,100,12|10,0:0|3:1,0:0:0:0:
256,228,109889,2,0,P|252:198|249:169,2,50,8|2|10,0:0|2:0|3:1,0:0:0:0:
165,291,110630,2,0,P|161:261|158:232,2,50,10|2|10,3:1|2:0|3:1,0:0:0:0:
68,343,111370,6,0,P|62:285|55:238,1,100,12|10,0:0|3:1,0:0:0:0:
115,151,112111,2,0,P|117:119|120:93,1,50,10|2,3:1|2:0,0:0:0:0:
106,47,112482,6,0,P|156:70|198:83,1,100,12|10,0:0|3:1,0:0:0:0:
306,104,113222,1,10,3:1:0:0:
237,189,113593,1,12,0:0:0:0:
256,192,113778,12,0,115722,0:0:0:0:
