osu file format v14

[General]
AudioFilename: Song.mp3
AudioLeadIn: 0
PreviewTime: 29890
Countdown: 0
SampleSet: Normal
StackLeniency: 0.7
Mode: 0
LetterboxInBreaks: 0
WidescreenStoryboard: 0

[Editor]
Bookmarks: 14335,31371,39149,40260,49149,58038,64704,85538,87945,91371
DistanceSpacing: 1.2
BeatDivisor: 4
GridSize: 32
TimelineZoom: 1.695199

[Metadata]
Title:Elise
TitleUnicode:Elise
Artist:DM Ashura
ArtistUnicode:DM Ashura
Creator:Streliteela
Version:Insane
Source:PUMP IT UP - 2013 FIESTA 2 -
Tags:Frey Infinity Beethoven Für Elise 엘리제 3/4 time waltz hard symphonic electronic remix Rhythm Master
BeatmapID:654108
BeatmapSetID:290339

[Difficulty]
HPDrainRate:7
CircleSize:4
OverallDifficulty:8
ApproachRate:9
SliderMultiplier:1.8
SliderTickRate:1

[Events]
//Background and Video events
0,0,"BG.jpg",0,0
//Break Periods
//Storyboard Layer 0 (Background)
//Storyboard Layer 1 (Fail)
//Storyboard Layer 2 (Pass)
//Storyboard Layer 3 (Foreground)
//Storyboard Sound Samples

[TimingPoints]
262,555.555555555556,3,2,2,20,1,0
262,-133.333333333333,3,2,2,20,0,0
2484,555.555555555556,3,2,2,20,1,0
11928,606.060606060606,3,2,2,20,1,0
11928,-133.333333333333,3,2,2,20,0,0
12231,689.655172413793,3,2,2,20,1,0
12575,705.882352941176,3,2,2,20,1,0
12927,789.473684210526,3,2,2,20,1,0
12927,-200,3,2,2,20,0,0
14335,370.37037037037,3,2,2,30,1,0
15816,370.37037037037,3,2,2,80,1,0
15816,-100,3,2,2,80,0,0
28408,-100,3,2,2,40,0,0
29890,-100,3,2,2,50,0,0
30630,-100,3,3,1,60,0,0
31001,-100,3,3,1,70,0,0
31371,-83.3333333333333,3,1,1,80,0,1
38408,-90.9090909090909,3,1,1,80,0,1
38778,-100,3,1,1,80,0,0
39149,-200,3,1,1,40,0,0
39519,-153.846153846154,3,1,1,50,0,0
39890,-133.333333333333,3,1,1,60,0,0
40260,-83.3333333333333,3,1,1,80,0,1
43593,-100,3,1,1,80,0,1
44149,-83.3333333333333,3,1,1,80,0,1
46927,-83.3333333333333,3,1,1,40,0,1
47297,-83.3333333333333,3,1,1,60,0,1
47667,-83.3333333333333,3,1,1,80,0,1
48038,-100,3,1,1,50,0,0
49334,-83.3333333333333,3,1,1,50,0,0
52667,-100,3,2,2,40,0,0
56927,-100,3,2,2,60,0,0
57297,-100,3,3,1,70,0,0
57667,-100,3,3,1,80,0,0
58038,-83.3333333333333,3,1,1,90,0,1
63593,-83.3333333333333,3,1,1,70,0,1
64704,-100,3,2,2,80,0,0
82482,-100,3,2,2,60,0,0
85538,-100,3,2,2,40,0,0
88038,437.956204379562,3,2,2,40,1,0
88694,483.870967741935,3,2,2,40,1,0
88935,500,3,2,2,40,1,0
89435,526.315789473684,3,2,2,30,1,0
89698,540.540540540541,3,2,2,30,1,0
90103,631.578947368421,3,2,2,30,1,0
90260,370.37037037037,3,1,1,30,1,0
90630,-100,3,1,1,50,0,0
91000,-100,3,1,1,70,0,0
91371,370.37037037037,3,1,1,90,1,0
91371,-83.3333333333333,3,1,1,90,0,1
102482,-83.3333333333333,3,1,1,80,0,1
102852,-83.3333333333333,3,1,1,70,0,1
103222,-83.3333333333333,3,1,1,60,0,1
103593,-83.3333333333333,3,1,1,50,0,1
103963,-83.3333333333333,3,1,1,40,0,1
104704,-83.3333333333333,3,1,1,50,0,1
105074,-83.3333333333333,3,2,2,60,0,1
105445,-83.3333333333333,3,2,2,70,0,1
105815,-83.3333333333333,3,3,1,80,0,1
106185,-83.3333333333333,3,3,1,85,0,1
106556,-83.3333333333333,3,3,1,90,0,1
106741,-83.3333333333333,3,1,1,90,0,0
106926,-66.6666666666667,3,1,1,90,0,1
113593,-100,4,1,1,90,0,0
113685,-100,4,1,1,60,0,0
113963,-100,4,1,1,50,0,0
114333,-100,4,1,1,40,0,0
114704,-100,4,1,1,30,0,0
115074,-100,4,1,1,20,0,0
115445,-100,4,1,1,10,0,0
115630,-100,4,1,1,5,0,0

[Colours]
Combo1 : 186,117,255
Combo2 : 108,122,217
Combo3 : 226,124,221

[HitObjects]
59,52,262,5,2,0:0:0:0:
73,131,539,1,0,0:0:0:0:
151,149,817,1,2,0:0:0:0:
140,229,1095,1,0,0:0:0:0:
65,268,1373,1,2,0:0:0:0:
79,347,1650,1,0,0:0:0:0:
199,284,1928,1,2,0:0:0:0:
140,229,2206,1,0,0:0:0:0:
163,357,2484,5,2,0:0:0:0:
287,336,2761,2,0,P|341:327|384:322,1,90
411,220,3317,1,0,0:0:0:0:
326,152,3595,2,0,P|316:205|311:242,1,90,2|0,0:0|0:0,0:0:0:0:
468,300,4150,5,2,0:0:0:0:
442,125,4428,2,0,P|396:128|347:137,1,90
248,166,4984,1,0,0:0:0:0:
215,63,5261,1,2,0:0:0:0:
317,30,5539,1,0,0:0:0:0:
248,166,5817,5,2,0:0:0:0:
112,102,6095,2,0,P|115:58|121:7,1,90
152,204,6650,1,0,0:0:0:0:
215,63,6928,5,2,0:0:0:0:
112,102,7206,1,0,0:0:0:0:
152,204,7484,1,2,0:0:0:0:
248,166,7761,1,0,0:0:0:0:
112,102,8039,1,2,0:0:0:0:
43,243,8317,1,0,0:0:0:0:
190,306,8595,1,2,0:0:0:0:
248,166,8872,1,0,0:0:0:0:
152,204,9150,5,2,0:0:0:0:
290,271,9428,2,0,P|334:257|381:237,1,90
440,143,9984,1,0,0:0:0:0:
362,67,10261,2,0,P|358:96|355:156,1,90,2|0,0:0|0:0,0:0:0:0:
459,229,10817,5,2,0:0:0:0:
463,34,11095,2,0,P|436:38|376:56,1,90
355,156,11650,1,0,0:0:0:0:
197,113,11928,6,0,P|234:115|268:117,1,67.5000025749208,2|0,0:0|0:0,0:0:0:0:
335,253,12575,1,2,0:0:0:0:
230,358,12927,2,0,L|186:355,1,45,0|2,0:0|0:0,0:0:0:0:
407,58,14335,5,2,0:0:0:0:
324,93,14520,1,0,0:0:0:0:
407,58,14705,1,2,0:0:0:0:
472,119,14890,1,0,0:0:0:0:
407,58,15075,1,2,0:0:0:0:
391,149,15260,1,0,0:0:0:0:
285,191,15446,1,2,0:0:0:0:
239,44,15631,1,0,0:0:0:0:
472,119,15816,6,0,P|468:181|464:242,1,90,12|0,0:0|0:0,0:0:0:0:
407,58,16186,2,0,P|361:66|316:97,1,90,2|0,0:0|0:0,0:0:0:0:
205,130,16556,2,0,P|156:129|96:111,1,90,2|0,0:0|0:0,0:0:0:0:
16,39,16927,6,0,P|60:26|108:23,1,90,8|0,2:0|0:0,0:0:0:0:
205,130,17297,1,2,0:0:0:0:
201,165,17390,1,0,0:0:0:0:
198,200,17482,1,0,0:0:0:0:
312,148,17667,2,0,P|303:104|292:56,1,90,2|0,0:0|0:0,0:0:0:0:
287,263,18038,6,0,P|342:269|392:270,1,90,8|0,2:0|0:0,0:0:0:0:
481,153,18408,1,2,0:0:0:0:
445,162,18501,1,0,0:0:0:0:
410,172,18593,1,0,0:0:0:0:
325,354,18778,5,10,0:0:0:0:
467,332,18964,1,0,0:0:0:0:
464,295,19057,1,0,0:0:0:0:
461,259,19149,1,2,0:0:0:0:
322,111,19334,1,0,0:0:0:0:
318,147,19426,1,0,0:0:0:0:
316,184,19519,5,10,0:0:0:0:
417,80,19704,1,0,0:0:0:0:
249,17,19890,1,10,0:0:0:0:
159,148,20075,1,2,0:0:0:0:
259,276,20260,5,8,0:0:0:0:
400,229,20445,1,0,0:0:0:0:
397,260,20538,1,0,0:0:0:0:
393,291,20630,1,10,0:0:0:0:
316,184,20815,1,0,0:0:0:0:
482,127,21001,1,10,0:0:0:0:
298,73,21186,1,0,0:0:0:0:
393,291,21371,5,8,0:0:0:0:
414,68,21556,1,0,0:0:0:0:
223,177,21741,1,10,0:0:0:0:
228,213,21834,1,0,0:0:0:0:
232,248,21927,1,0,0:0:0:0:
414,68,22112,1,10,0:0:0:0:
316,184,22297,1,2,0:0:0:0:
196,77,22482,6,0,P|148:85|100:96,1,90,8|0,0:0|0:0,0:0:0:0:
88,113,22760,1,0,0:0:0:0:
70,133,22853,1,10,0:0:0:0:
17,50,23038,1,0,0:0:0:0:
166,159,23223,1,10,0:0:0:0:
241,6,23408,1,0,0:0:0:0:
390,115,23593,5,8,0:0:0:0:
236,78,23778,1,0,0:0:0:0:
239,42,23871,1,0,0:0:0:0:
241,6,23964,1,10,0:0:0:0:
298,164,24149,1,0,0:0:0:0:
432,18,24334,2,0,P|382:27|336:39,1,90,10|0,0:0|0:0,0:0:0:0:
422,235,24704,5,8,0:0:0:0:
499,93,24890,1,0,0:0:0:0:
502,128,24983,1,0,0:0:0:0:
506,164,25076,1,10,0:0:0:0:
390,115,25260,1,0,0:0:0:0:
305,219,25445,1,10,0:0:0:0:
306,182,25538,1,0,0:0:0:0:
309,146,25630,1,0,0:0:0:0:
512,267,25815,5,8,0:0:0:0:
402,336,26001,1,0,0:0:0:0:
402,336,26093,1,0,0:0:0:0:
402,336,26186,2,0,P|397:276|394:231,1,90,10|0,0:0|0:0,0:0:0:0:
323,66,26556,2,0,L|268:77,1,45,10|0,0:0|0:0,0:0:0:0:
181,172,26741,2,0,L|232:179,1,45
117,65,26927,5,8,0:0:0:0:
71,225,27111,1,0,0:0:0:0:
72,233,27296,1,2,0:0:0:0:
73,241,27481,1,2,0:0:0:0:
116,73,27667,5,2,0:0:0:0:
74,249,27853,1,0,0:0:0:0:
115,81,28038,5,2,0:0:0:0:
115,89,28223,1,2,0:0:0:0:
233,330,28408,5,2,0:0:0:0:
271,185,28593,5,0,0:0:0:0:
245,195,28778,1,2,0:0:0:0:
267,210,28964,1,0,0:0:0:0:
271,185,29149,5,2,0:0:0:0:
261,183,29241,1,0,0:0:0:0:
252,181,29334,1,0,0:0:0:0:
243,181,29426,1,0,0:0:0:0:
234,179,29519,1,2,0:0:0:0:
225,178,29611,1,0,0:0:0:0:
216,177,29704,1,0,0:0:0:0:
208,176,29797,1,0,0:0:0:0:
177,170,29890,5,2,0:0:0:0:
200,165,29982,1,0,0:0:0:0:
222,160,30075,1,0,0:0:0:0:
244,156,30167,1,0,0:0:0:0:
266,151,30260,1,2,0:0:0:0:
287,146,30352,1,0,0:0:0:0:
310,141,30445,1,0,0:0:0:0:
327,137,30538,1,0,0:0:0:0:
370,128,30630,5,2,0:2:0:0:
325,122,30722,1,2,0:0:0:0:
281,116,30815,1,2,0:0:0:0:
236,109,30907,1,2,0:0:0:0:
192,104,31001,1,2,0:2:0:0:
148,98,31092,1,2,0:0:0:0:
104,92,31185,1,2,0:0:0:0:
58,84,31278,1,2,0:0:0:0:
15,74,31371,6,0,B|33:123|33:123|23:194,1,107.999996704102,12|2,0:0|2:0,0:0:0:0:
108,296,31741,2,0,B|157:275|157:275|234:282,1,107.999996704102,10|2,3:1|2:0,0:0:0:0:
322,339,32112,2,0,L|267:349,1,53.9999983520508,10|0,3:1|0:0,0:0:0:0:
288,228,32297,2,0,L|356:235,1,53.9999983520508,2|0,2:0|0:0,0:0:0:0:
437,298,32482,6,0,P|431:223|426:169,1,107.999996704102,8|2,0:0|2:0,0:0:0:0:
319,79,32853,2,0,B|263:73|263:73|207:96,1,107.999996704102,10|2,3:1|2:0,0:0:0:0:
98,156,33223,2,0,L|167:165,1,53.9999983520508,10|0,3:1|0:0,0:0:0:0:
153,24,33408,2,0,L|82:34,1,53.9999983520508,2|0,2:0|0:0,0:0:0:0:
1,83,33593,6,0,P|9:160|16:220,1,107.999996704102,8|2,0:0|2:0,0:0:0:0:
125,357,33964,2,0,B|134:302|134:302|115:238,1,107.999996704102,10|2,3:1|2:0,0:0:0:0:
42,309,34334,5,8,0:0:0:0:
225,352,34519,1,2,0:2:0:0:
192,198,34704,1,10,3:1:0:0:
385,241,34890,1,2,0:2:0:0:
225,352,35075,1,10,3:1:0:0:
294,151,35260,1,2,0:2:0:0:
457,329,35445,2,0,L|388:324,1,53.9999983520508,10|2,3:1|3:0,0:0:0:0:
288,256,35630,2,0,L|228:270,1,53.9999983520508,10|2,3:1|3:0,0:0:0:0:
122,340,35815,6,0,B|177:330|177:330|234:356,1,107.999996704102,8|2,0:0|2:0,0:0:0:0:
457,329,36186,2,0,B|401:328|401:328|340:359,1,107.999996704102,10|2,3:1|0:2,0:0:0:0:
235,268,36556,2,0,L|288:256,1,53.9999983520508,10|0,3:1|0:0,0:0:0:0:
227,156,36741,2,0,L|169:166,1,53.9999983520508,2|0,0:2|0:0,0:0:0:0:
39,249,36927,6,0,P|101:257|159:263,1,107.999996704102,8|2,0:0|0:2,0:0:0:0:
53,47,37297,2,0,P|45:104|40:162,1,107.999996704102,10|2,3:1|0:2,0:0:0:0:
191,63,37667,2,0,L|128:76,1,53.9999983520508,10|0,3:1|0:0,0:0:0:0:
173,165,37853,2,0,L|226:155,1,53.9999983520508,2|0,2:0|0:0,0:0:0:0:
371,182,38038,6,0,P|322:201|303:252,1,107.999996704102,8|2,0:0|0:2,0:0:0:0:
413,343,38408,2,0,P|409:289|375:253,1,99.0000030212403,10|2,3:1|2:0,0:0:0:0:
201,336,38778,2,0,P|256:330|338:322,1,135,10|0,3:1|0:0,0:0:0:0:
336,323,39149,6,2,P|297:335|277:356,1,67.5,2|0,0:3|0:3,0:3:0:0:
121,317,39519,6,2,P|169:314|205:343,1,87.749995983124,2|0,0:3|0:3,0:3:0:0:
357,299,39890,6,2,P|306:316|276:360,1,101.250003862381,2|0,0:3|0:3,0:3:0:0:
236,381,40260,6,0,L|220:204,1,161.999995056153,12|0,0:0|0:0,0:0:0:0:
150,172,40630,2,0,P|188:135|248:135,1,107.999996704102,10|2,3:1|0:2,0:0:0:0:
445,315,41001,2,0,P|393:321|351:287,1,107.999996704102,10|2,3:1|0:2,0:0:0:0:
412,239,41278,1,0,0:0:0:0:
412,239,41371,6,0,P|338:248|243:262,1,161.999995056153,8|0,0:0|0:0,0:0:0:0:
155,271,41741,2,0,L|271:279,1,107.999996704102,10|2,3:1|2:0,0:0:0:0:
482,288,42112,2,0,P|498:243|477:185,1,107.999996704102,10|2,3:1|2:0,0:0:0:0:
329,8,42482,6,0,P|308:57|318:114,1,107.999996704102,8|2,0:0|2:0,0:0:0:0:
512,52,42853,2,0,P|476:57|358:78,1,107.999996704102,10|2,3:1|2:0,0:0:0:0:
394,93,43130,1,0,0:0:0:0:
389,123,43223,1,10,3:1:0:0:
358,248,43408,1,2,2:0:0:0:
268,174,43593,6,0,P|193:169|107:167,1,135,8|0,0:0|0:0,0:0:0:0:
70,123,43964,2,0,B|52:162|52:162|66:219,1,90,10|2,3:1|2:0,0:0:0:0:
169,366,44334,2,0,P|196:363|227:356,1,53.9999983520508,10|2,3:1|3:0,0:0:0:0:
271,290,44519,2,0,P|304:292|335:301,1,53.9999983520508,10|2,3:1|3:0,0:0:0:0:
404,348,44704,6,0,B|412:292|412:292|392:244,1,107.999996704102,8|2,0:0|2:0,0:0:0:0:
304,94,45075,2,0,P|301:147|301:213,1,107.999996704102,10|2,3:1|2:0,0:0:0:0:
442,134,45445,2,0,L|370:145,1,53.9999983520508,10|0,3:1|0:0,0:0:0:0:
247,193,45630,2,0,L|309:203,1,53.9999983520508,2|0,2:0|0:0,0:0:0:0:
247,30,45815,6,0,P|185:43|118:58,1,107.999996704102,8|2,0:0|0:2,0:0:0:0:
23,33,46186,2,0,B|41:81|41:81|29:143,1,107.999996704102,10|2,3:1|2:0,0:0:0:0:
132,263,46556,2,0,B|117:216|117:216|134:152,1,107.999996704102,10|2,3:1|2:0,0:0:0:0:
219,267,46927,6,0,P|211:289|193:322,1,53.9999983520508,8|0,0:0|0:0,0:0:0:0:
73,320,47112,2,0,P|91:334|126:347,1,53.9999983520508,8|0,0:0|0:0,0:0:0:0:
242,284,47297,2,0,P|224:300|191:319,1,53.9999983520508,8|0,0:0|0:0,0:0:0:0:
67,348,47482,2,0,P|90:349|127:344,1,53.9999983520508,8|0,0:0|0:0,0:0:0:0:
252,310,47667,2,0,P|227:315|190:314,1,53.9999983520508,8|0,0:0|0:0,0:0:0:0:
75,373,47852,2,0,P|96:362|126:339,1,53.9999983520508,8|0,0:0|0:0,0:0:0:0:
132,263,48038,5,4,0:0:0:0:
132,263,48593,5,10,3:1:0:0:
252,310,48778,1,10,3:1:0:0:
323,188,48964,1,10,3:1:0:0:
439,237,49149,5,14,3:1:0:0:
323,99,49334,2,0,P|352:106|381:127,1,53.9999983520508
439,237,49519,1,12,0:0:0:0:
439,237,49612,1,0,0:0:0:0:
439,237,49704,2,0,P|429:206|431:170,1,53.9999983520508
508,68,49890,1,12,0:0:0:0:
508,68,49982,1,0,0:0:0:0:
508,68,50075,2,0,P|484:89|453:105,1,53.9999983520508
323,99,50260,5,12,0:0:0:0:
405,150,50445,1,0,0:0:0:0:
439,237,50630,1,0,0:0:0:0:
413,332,50815,6,0,P|381:335|349:346,1,53.9999983520508,12|0,0:0|0:0,0:0:0:0:
318,241,51001,2,0,P|290:259|268:285,1,53.9999983520508,12|0,0:0|0:0,0:0:0:0:
183,224,51186,2,0,P|164:249|151:281,1,53.9999983520508,12|0,0:0|0:0,0:0:0:0:
114,353,51371,5,12,0:0:0:0:
64,169,51556,2,0,P|48:146|30:125,1,53.9999983520508
128,230,51741,1,12,0:0:0:0:
128,230,51834,1,0,0:0:0:0:
129,231,51927,2,0,P|155:228|182:223,1,53.9999983520508
47,258,52112,1,12,0:0:0:0:
47,258,52204,1,0,0:0:0:0:
47,258,52297,2,0,P|35:281|26:307,1,53.9999983520508
153,364,52482,5,12,0:0:0:0:
153,364,52575,1,0,0:0:0:0:
153,364,52667,2,0,P|149:332|146:305,2,45,2|0|0,2:0|0:0|2:0,0:0:0:0:
256,315,52945,1,0,0:0:0:0:
256,315,53038,2,0,P|256:275|256:254,2,45,2|0|0,2:0|0:0|0:0,0:0:0:0:
359,364,53315,1,0,0:0:0:0:
359,364,53407,2,0,P|363:332|366:305,2,45,2|0|0,2:0|0:0|0:0,0:0:0:0:
119,89,54149,5,0,0:0:0:0:
171,18,54334,2,0,P|219:12|277:5,2,90,2|0|2,0:0|0:0|0:0,0:0:0:0:
283,306,55260,5,0,0:0:0:0:
349,362,55445,2,0,P|403:353|440:345,1,90,2|0,2:0|0:0,0:0:0:0:
502,274,55815,5,2,0:0:0:0:
493,267,55907,1,0,0:0:0:0:
484,261,56000,1,0,0:0:0:0:
474,256,56092,1,0,0:0:0:0:
463,253,56185,1,2,0:0:0:0:
453,251,56277,1,0,0:0:0:0:
443,250,56370,1,0,0:0:0:0:
431,252,56463,1,0,0:0:0:0:
397,273,56556,5,2,0:0:0:0:
399,246,56648,1,0,0:0:0:0:
401,219,56741,1,0,0:0:0:0:
403,191,56833,1,0,0:0:0:0:
405,164,56926,1,2,0:0:0:0:
407,137,57018,1,0,0:0:0:0:
409,110,57111,1,0,0:0:0:0:
411,83,57204,1,0,0:0:0:0:
430,42,57297,5,2,0:2:0:0:
390,72,57390,1,2,0:0:0:0:
343,86,57482,1,2,0:0:0:0:
294,77,57575,1,2,0:0:0:0:
260,44,57667,1,2,0:2:0:0:
215,22,57760,1,2,0:0:0:0:
165,19,57853,1,2,0:0:0:0:
117,32,57945,1,2,0:0:0:0:
86,70,58038,6,0,P|91:114|101:190,1,107.999996704102,12|2,0:0|0:2,0:0:0:0:
265,350,58408,1,10,3:1:0:0:
283,212,58593,1,2,2:0:0:0:
157,253,58778,2,0,P|198:247|233:241,1,53.9999983520508,10|0,3:1|0:0,0:0:0:0:
230,131,58964,2,0,L|173:126,1,53.9999983520508,2|0,2:0|0:0,0:0:0:0:
334,143,59149,6,0,P|348:102|325:31,1,107.999996704102,8|2,0:0|2:0,0:0:0:0:
88,204,59519,2,0,P|74:245|97:316,1,107.999996704102,10|2,3:1|2:0,0:0:0:0:
185,179,59890,2,0,P|178:145|174:115,1,53.9999983520508,10|0,3:1|0:0,0:0:0:0:
65,62,60075,2,0,P|92:67|124:67,1,53.9999983520508,2|0,2:0|0:0,0:0:0:0:
305,20,60260,6,0,P|250:23|191:58,1,107.999996704102,8|2,0:0|2:0,0:0:0:0:
284,213,60630,2,0,P|337:238|388:233,1,107.999996704102,10|2,3:1|2:0,0:0:0:0:
353,131,61001,5,8,0:0:0:0:
311,325,61186,1,2,2:0:0:0:
468,147,61371,1,10,3:1:0:0:
502,314,61556,1,2,2:0:0:0:
420,57,61741,1,10,3:1:0:0:
417,244,61927,1,2,2:0:0:0:
420,57,62112,2,0,P|393:51|366:48,1,53.9999983520508,10|2,3:1|3:0,0:0:0:0:
273,160,62297,2,0,P|277:189|283:213,1,53.9999983520508,10|2,3:1|3:0,0:0:0:0:
413,351,62482,6,0,P|418:300|416:241,1,107.999996704102,8|2,0:0|2:0,0:0:0:0:
253,40,62853,1,10,3:1:0:0:
284,213,63038,1,2,2:0:0:0:
420,57,63223,2,0,P|389:52|367:48,1,53.9999983520508,10|0,3:1|0:0,0:0:0:0:
273,160,63408,2,0,P|279:188|284:215,1,53.9999983520508,2|0,2:0|0:0,0:0:0:0:
236,337,63593,5,10,3:1:0:0:
207,321,63685,1,2,3:0:0:0:
174,315,63778,1,2,3:0:0:0:
142,322,63870,1,2,3:0:0:0:
104,346,63964,5,10,3:1:0:0:
112,298,64056,1,2,3:0:0:0:
106,249,64149,1,2,3:0:0:0:
81,207,64241,1,2,3:0:0:0:
43,175,64334,6,0,P|73:165|93:152,1,53.9999983520508,10|0,3:1|0:0,0:0:0:0:
207,71,64519,2,0,P|230:93|244:111,1,53.9999983520508,10|0,3:1|0:0,0:0:0:0:
342,254,64704,5,4,0:0:0:0:
346,289,65075,1,0,0:0:0:0:
351,324,65445,1,2,0:0:0:0:
476,197,65815,5,2,0:0:0:0:
479,161,66186,1,0,0:0:0:0:
481,126,66556,5,2,0:0:0:0:
372,147,66741,1,2,0:0:0:0:
264,170,66927,5,2,0:0:0:0:
257,134,67297,1,0,0:0:0:0:
250,98,67667,5,2,0:0:0:0:
142,75,67852,1,2,0:0:0:0:
33,54,68038,5,2,0:0:0:0:
39,89,68408,1,0,0:0:0:0:
45,124,68778,2,0,L|50:153,6,22.5,2|0|0|0|0|0|0,0:0|0:0|0:0|0:0|0:0|0:0|0:0,0:0:0:0:
175,179,69149,5,2,0:0:0:0:
172,214,69519,1,0,0:0:0:0:
169,249,69890,1,2,0:0:0:0:
66,337,70260,5,2,0:0:0:0:
61,301,70630,1,0,0:0:0:0:
58,264,71001,5,2,0:0:0:0:
157,282,71186,1,2,0:0:0:0:
255,302,71371,5,2,0:0:0:0:
258,266,71741,1,0,0:0:0:0:
263,230,72112,6,0,L|267:188,6,22.5,2|0|0|0|0|0|0,0:0|0:0|0:0|0:0|0:0|0:0|0:0,0:0:0:0:
349,244,72482,2,0,L|391:248,6,22.5,2|0|0|0|0|0|0,0:0|0:0|0:0|0:0|0:0|0:0|0:0,0:0:0:0:
336,326,72853,2,0,L|332:368,6,22.5,2|0|0|0|0|0|0,0:0|0:0|0:0|0:0|0:0|0:0|0:0,0:0:0:0:
252,311,73223,2,0,L|210:307,6,22.5,2|0|0|0|0|0|0,0:0|0:0|0:0|0:0|0:0|0:0|0:0,0:0:0:0:
263,230,73593,5,2,0:0:0:0:
268,194,73964,1,0,0:0:0:0:
273,158,74334,1,2,0:0:0:0:
364,62,74704,5,2,0:0:0:0:
369,98,75074,1,0,0:0:0:0:
374,134,75445,5,2,0:0:0:0:
272,157,75630,1,2,0:0:0:0:
165,177,75815,5,2,0:0:0:0:
161,212,76186,1,0,0:0:0:0:
156,247,76556,5,2,0:0:0:0:
285,264,76741,1,2,0:0:0:0:
412,279,76927,5,2,0:0:0:0:
416,314,77297,1,0,0:0:0:0:
420,347,77667,2,0,L|416:369,6,22.5,2|0|0|0|0|0|0,0:0|0:0|0:0|0:0|0:0|0:0|0:0,0:0:0:0:
454,190,78038,5,2,0:0:0:0:
449,154,78408,1,0,0:0:0:0:
445,118,78778,1,2,0:0:0:0:
313,50,79149,5,2,0:0:0:0:
309,86,79519,1,0,0:0:0:0:
304,122,79889,5,2,0:0:0:0:
194,146,80075,1,2,0:0:0:0:
88,170,80260,5,2,0:0:0:0:
94,205,80630,1,0,0:0:0:0:
100,240,81001,6,0,L|108:276,6,22.5,2|0|0|0|0|0|0,0:0|0:0|0:0|0:0|0:0|0:0|0:0,0:0:0:0:
185,215,81371,2,0,L|221:207,6,22.5,2|0|0|0|0|0|0,0:0|0:0|0:0|0:0|0:0|0:0|0:0,0:0:0:0:
159,133,81741,2,0,L|154:111,6,22.5,2|0|0|0|0|0|0,0:0|0:0|0:0|0:0|0:0|0:0|0:0,0:0:0:0:
76,157,82112,2,0,L|40:165,6,22.5,2|0|0|0|0|0|0,0:0|0:0|0:0|0:0|0:0|0:0|0:0,0:0:0:0:
100,240,82482,5,2,0:0:0:0:
379,64,83964,1,2,0:0:0:0:
448,300,85538,5,2,2:0:0:0:
436,284,85630,1,0,0:0:0:0:
422,272,85723,1,0,0:0:0:0:
405,264,85815,1,2,0:0:0:0:
389,259,85908,1,0,0:0:0:0:
371,259,86000,1,0,0:0:0:0:
353,262,86093,1,2,0:0:0:0:
337,270,86186,1,0,0:0:0:0:
324,283,86278,1,0,0:0:0:0:
254,334,86371,5,2,0:0:0:0:
251,308,86464,1,0,0:0:0:0:
247,282,86557,1,0,0:0:0:0:
245,255,86649,1,2,0:0:0:0:
242,229,86742,1,0,0:0:0:0:
239,202,86834,1,0,0:0:0:0:
235,175,86927,1,2,0:0:0:0:
232,150,87019,1,0,0:0:0:0:
230,128,87112,1,0,0:0:0:0:
150,157,87204,5,2,0:0:0:0:
116,165,87297,1,0,0:0:0:0:
81,156,87390,1,0,0:0:0:0:
54,133,87481,1,2,0:0:0:0:
41,100,87575,1,0,0:0:0:0:
44,65,87666,1,0,0:0:0:0:
64,36,87759,1,2,0:0:0:0:
95,18,87852,1,0,0:0:0:0:
131,15,87945,1,0,0:0:0:0:
161,20,88038,6,0,L|208:27,1,45,2|0,0:0|0:0,0:0:0:0:
188,149,88256,6,0,L|235:156,1,45,2|0,0:0|0:0,0:0:0:0:
228,280,88475,6,0,L|275:287,1,45,2|0,0:0|0:0,0:0:0:0:
387,303,88694,6,0,L|369:257,1,45,2|0,0:0|0:0,0:0:0:0:
244,321,88935,6,0,L|226:275,1,45,2|0,0:0|0:0,0:0:0:0:
95,339,89185,6,0,L|77:293,1,45,2|0,0:0|0:0,0:0:0:0:
170,200,89435,6,0,L|141:235,1,45,2|0,0:0|0:0,0:0:0:0:
313,190,89698,6,0,L|282:228,1,45,2|0,0:0|0:0,0:0:0:0:
459,177,89968,6,0,L|428:215,1,45,2|0,0:0|0:0,0:0:0:0:
324,244,90260,5,2,3:0:0:0:
318,217,90352,1,2,3:0:0:0:
313,190,90445,1,2,3:0:0:0:
307,164,90537,1,2,3:0:0:0:
283,80,90630,5,2,3:0:0:0:
257,105,90722,1,2,3:0:0:0:
230,130,90815,1,2,3:0:0:0:
204,155,90907,1,2,3:0:0:0:
145,218,91000,5,2,3:0:0:0:
187,230,91092,1,2,3:0:0:0:
229,244,91185,1,2,3:0:0:0:
272,254,91277,1,2,3:0:0:0:
324,269,91371,6,0,P|273:279|203:295,1,107.999996704102,12|2,0:0|2:0,0:0:0:0:
90,355,91741,2,0,P|146:353|202:376,1,107.999996704102,10|2,3:1|2:0,0:0:0:0:
385,334,92111,2,0,P|361:349|333:357,1,53.9999983520508,10|0,3:1|0:0,0:0:0:0:
272,254,92296,2,0,P|274:225|282:191,1,53.9999983520508,2|0,2:0|0:0,0:0:0:0:
393,147,92482,5,8,0:0:0:0:
429,154,92574,1,0,0:0:0:0:
466,161,92667,1,2,2:0:0:0:
385,334,92852,2,0,P|377:279|394:229,1,107.999996704102,10|2,3:1|2:0,0:0:0:0:
464,341,93222,2,0,L|410:336,1,53.9999983520508,10|0,3:1|0:0,0:0:0:0:
279,200,93408,2,0,L|225:208,1,53.9999983520508,2|0,2:0|0:0,0:0:0:0:
75,320,93593,5,8,0:0:0:0:
112,327,93686,1,0,0:0:0:0:
148,334,93778,1,2,2:0:0:0:
140,129,93963,2,0,P|121:184|121:236,1,107.999996704102,10|2,3:1|2:0,0:0:0:0:
412,179,94333,5,8,0:1:0:0:
307,367,94519,1,2,2:0:0:0:
269,205,94704,1,10,3:1:0:0:
450,341,94889,1,2,2:0:0:0:
401,35,95074,1,10,3:1:0:0:
358,275,95259,1,2,2:0:0:0:
401,35,95445,6,0,P|370:38|340:48,1,53.9999983520508,10|2,3:1|3:0,0:0:0:0:
258,152,95630,2,0,P|263:180|270:211,1,53.9999983520508,10|2,3:1|3:0,0:0:0:0:
483,256,95815,6,0,P|488:189|490:134,1,107.999996704102,8|2,0:0|2:0,0:0:0:0:
350,238,96185,1,10,3:1:0:0:
358,275,96278,1,0,0:0:0:0:
365,312,96371,1,2,2:0:0:0:
418,184,96556,2,0,P|409:147|405:130,1,53.9999983520508,10|0,3:1|0:0,0:0:0:0:
272,151,96741,2,0,P|269:177|268:204,1,53.9999983520508,2|0,2:0|0:0,0:0:0:0:
176,60,96926,6,0,P|228:53|286:48,1,107.999996704102,8|2,0:0|2:0,0:0:0:0:
74,49,97296,1,10,3:1:0:0:
76,86,97389,1,0,0:0:0:0:
94,120,97482,1,2,2:0:0:0:
237,171,97667,2,0,P|201:166|174:162,1,53.9999983520508,10|0,3:1|0:0,0:0:0:0:
185,337,97852,2,0,L|251:331,1,53.9999983520508,2|0,2:0|0:0,0:0:0:0:
180,252,98037,6,0,P|119:248|60:246,1,107.999996704102,8|2,0:0|2:0,0:0:0:0:
322,369,98408,2,0,P|327:310|293:262,1,107.999996704102,10|2,3:1|2:0,0:0:0:0:
181,198,98778,2,0,L|180:252,1,53.9999983520508,10|2,3:1|3:0,0:0:0:0:
266,136,98963,2,0,L|258:70,1,53.9999983520508,10|2,3:1|3:0,0:0:0:0:
85,94,99148,6,0,P|130:93|181:59,1,107.999996704102,8|2,0:0|2:0,0:0:0:0:
338,85,99519,2,0,P|278:55|255:-4,1,107.999996704102,10|2,3:1|2:0,0:0:0:0:
430,59,99889,2,0,P|426:99|426:118,1,53.9999983520508,10|0,3:1|0:0,0:0:0:0:
468,198,100074,2,0,P|438:202|415:210,1,53.9999983520508,2|0,2:0|0:0,0:0:0:0:
270,251,100259,6,0,P|322:261|356:301,1,107.999996704102,8|2,0:0|2:0,0:0:0:0:
491,297,100630,2,0,P|442:317|414:367,1,107.999996704102,10|2,3:1|2:0,0:0:0:0:
278,347,101000,2,0,P|251:349|224:351,1,53.9999983520508,10|0,3:1|0:0,0:0:0:0:
253,204,101185,2,0,P|279:208|306:212,1,53.9999983520508,2|0,2:0|0:0,0:0:0:0:
156,259,101370,6,0,P|107:279|79:329,1,107.999996704102,8|2,0:0|2:0,0:0:0:0:
94,183,101741,2,0,P|87:130|48:78,1,107.999996704102,10|2,3:1|2:0,0:0:0:0:
8,221,102111,2,0,L|-1:162,1,53.9999983520508,10|0,3:1|0:0,0:0:0:0:
56,85,102296,2,0,L|60:32,1,53.9999983520508,2|0,2:0|0:0,0:0:0:0:
195,147,102482,6,0,P|147:173|95:183,1,107.999996704102,8|2,0:0|2:0,0:0:0:0:
195,234,102759,1,0,0:0:0:0:
195,234,102852,2,0,P|204:287|198:340,1,107.999996704102,10|2,3:1|2:0,0:0:0:0:
278,261,103130,1,0,0:0:0:0:
278,261,103222,2,0,P|332:268|380:290,1,107.999996704102,10|2,3:1|2:0,0:0:0:0:
328,191,103500,1,0,0:0:0:0:
328,191,103593,2,0,P|351:141|387:103,1,107.999996704102,10|2,3:1|2:0,0:0:0:0:
278,121,103870,1,0,0:0:0:0:
278,121,103963,2,0,P|238:83|212:37,1,107.999996704102,10|0,3:1|0:0,0:0:0:0:
278,261,104333,5,8,0:0:0:0:
328,191,104519,1,8,0:0:0:0:
195,147,104704,1,8,0:0:0:0:
278,261,104889,1,8,0:0:0:0:
387,102,105074,5,8,0:0:0:0:
195,234,105259,1,8,0:0:0:0:
212,37,105445,1,8,0:0:0:0:
312,334,105630,1,8,0:0:0:0:
389,128,105815,5,2,3:0:0:0:
387,149,105908,1,2,3:0:0:0:
379,169,106000,1,2,3:0:0:0:
367,187,106093,1,2,3:0:0:0:
286,260,106185,5,2,3:0:0:0:
253,231,106278,1,2,3:0:0:0:
210,223,106370,1,2,3:0:0:0:
166,227,106463,1,2,3:0:0:0:
63,270,106556,5,2,3:0:0:0:
57,216,106648,1,2,3:0:0:0:
51,162,106741,1,2,3:0:0:0:
44,108,106833,1,2,3:0:0:0:
38,54,106926,6,0,B|99:77|99:77|168:65,1,135.000005149842,12|2,0:0|2:0,0:0:0:0:
359,122,107296,2,0,B|394:178|394:178|375:258,1,135.000005149842,10|2,3:1|2:0,0:0:0:0:
238,339,107667,2,0,L|62:326,1,135.000005149842,10|0,3:1|0:0,0:0:0:0:
240,192,108037,6,0,B|208:248|208:248|224:316,1,135.000005149842,12|2,0:0|2:0,0:0:0:0:
353,362,108408,1,10,3:1:0:0:
400,353,108500,1,0,0:0:0:0:
447,342,108593,1,2,2:0:0:0:
197,188,108778,2,0,P|130:183|63:177,1,135.000005149842,10|2,3:1|2:0,0:0:0:0:
452,96,109148,6,0,B|389:79|389:79|324:112,1,135.000005149842,12|2,0:0|2:0,0:0:0:0:
205,241,109519,1,10,3:1:0:0:
211,287,109611,1,0,0:0:0:0:
217,334,109704,1,2,2:0:0:0:
327,111,109889,5,8,0:0:0:0:
287,296,110074,1,2,2:0:0:0:
142,72,110259,1,10,3:1:0:0:
103,257,110445,1,2,2:0:0:0:
230,87,110630,1,10,3:1:0:0:
287,296,110815,1,2,2:0:0:0:
439,31,111000,1,10,3:1:0:0:
436,71,111093,1,2,3:0:0:0:
433,111,111185,1,10,3:1:0:0:
430,151,111278,1,2,3:0:0:0:
426,191,111370,6,0,B|359:170|359:170|271:182,1,135.000005149842,12|2,0:0|2:0,0:0:0:0:
184,341,111741,2,0,P|179:259|160:193,1,135.000005149842,10|2,3:1|2:0,0:0:0:0:
312,45,112111,2,0,P|296:110|294:178,1,135.000005149842,10|2,3:1|2:0,0:0:0:0:
195,73,112482,5,12,0:0:0:0:
143,87,112574,1,0,0:0:0:0:
90,100,112667,1,2,2:0:0:0:
406,143,112852,1,10,3:1:0:0:
218,360,113037,1,2,2:0:0:0:
298,40,113222,6,0,L|221:56,1,67.5000025749208,10|0,3:1|0:0,0:0:0:0:
218,360,113408,2,0,L|295:344,1,67.5000025749208,10|0,3:1|0:0,0:0:0:0:
256,192,113593,1,12,0:0:0:0:
256,192,113685,12,0,115722,0:0:0:0:
