osu file format v14

[General]
AudioFilename: Song.mp3
AudioLeadIn: 0
PreviewTime: 29890
Countdown: 0
SampleSet: Normal
StackLeniency: 0.7
Mode: 0
LetterboxInBreaks: 0
WidescreenStoryboard: 0

[Editor]
Bookmarks: 14335,31371,39149,40260,48964,49149,58038,64704,85538,87945,91371
DistanceSpacing: 1.2
BeatDivisor: 4
GridSize: 4
TimelineZoom: 2.188001

[Metadata]
Title:Elise
TitleUnicode:Elise
Artist:DM Ashura
ArtistUnicode:DM Ashura
Creator:Streliteela
Version:Hard
Source:PUMP IT UP - 2013 FIESTA 2 -
Tags:Frey Infinity Beethoven Für Elise 엘리제 3/4 time waltz hard symphonic electronic remix Rhythm Master
BeatmapID:863290
BeatmapSetID:290339

[Difficulty]
HPDrainRate:4.5
CircleSize:4
OverallDifficulty:6
ApproachRate:7.5
SliderMultiplier:1.4
SliderTickRate:1

[Events]
//Background and Video events
0,0,"BG.jpg",0,0
//Break Periods
2,84164,87213
//Storyboard Layer 0 (Background)
//Storyboard Layer 1 (Fail)
//Storyboard Layer 2 (Pass)
//Storyboard Layer 3 (Foreground)
//Storyboard Sound Samples

[TimingPoints]
262,555.555555555556,3,2,2,20,1,0
2484,555.555555555556,3,2,2,20,1,0
11928,606.060606060606,3,2,2,20,1,0
12231,689.655172413793,3,2,2,20,1,0
12575,705.882352941176,3,2,2,20,1,0
12927,789.473684210526,3,2,2,20,1,0
12927,-133.333333333333,3,2,2,20,0,0
14335,370.37037037037,3,2,2,30,1,0
15816,370.37037037037,3,2,2,80,1,0
31371,-100,3,1,1,80,0,1
38778,-100,3,1,1,80,0,0
39149,-100,3,1,1,40,0,0
39519,-100,3,1,1,50,0,0
39890,-100,3,1,1,60,0,0
40260,-100,3,1,1,80,0,1
46927,-100,3,1,1,40,0,1
47297,-100,3,1,1,60,0,1
47667,-100,3,1,1,80,0,1
48038,-166.666666666667,3,1,1,50,0,0
48593,-100,3,1,1,50,0,0
49149,-100,3,1,1,50,0,0
52667,-100,3,2,2,40,0,0
56927,-100,3,2,2,60,0,0
57297,-100,3,3,1,70,0,0
57667,-100,3,3,1,80,0,0
58038,-100,3,1,1,90,0,1
63593,-100,3,1,1,70,0,1
64704,-100,3,2,2,80,0,0
82482,-100,3,2,2,60,0,0
88038,437.956204379562,3,2,2,50,1,0
88694,483.870967741935,3,2,2,40,1,0
88935,500,3,2,2,40,1,0
89435,526.315789473684,3,2,2,30,1,0
89698,540.540540540541,3,2,2,30,1,0
90103,631.578947368421,3,2,2,30,1,0
90260,370.37037037037,3,1,1,30,1,0
91371,370.37037037037,3,1,1,90,1,1
91371,-100,3,1,1,90,0,1
102482,-100,3,1,1,80,0,1
102852,-100,3,1,1,70,0,1
103222,-100,3,1,1,60,0,1
103593,-100,3,1,1,50,0,1
103963,-100,3,1,1,40,0,1
104704,-100,3,1,1,50,0,1
105074,-100,3,2,2,60,0,1
105445,-100,3,2,2,70,0,1
105815,-100,3,3,1,80,0,1
106185,-100,3,3,1,85,0,1
106556,-100,3,3,1,90,0,1
106741,-100,3,1,1,90,0,0
106926,-83.3333333333333,3,1,1,90,0,1
113593,-100,4,1,1,90,0,0
113685,-100,4,1,1,60,0,0
113963,-100,4,1,1,50,0,0
114333,-100,4,1,1,40,0,0
114704,-100,4,1,1,30,0,0
115074,-100,4,1,1,20,0,0
115445,-100,4,1,1,10,0,0
115630,-100,4,1,1,5,0,0

[Colours]
Combo1 : 186,117,255
Combo2 : 108,122,217
Combo3 : 226,124,221

[HitObjects]
427,31,262,5,2,0:0:0:0:
417,114,539,1,0,0:0:0:0:
339,147,817,1,2,0:0:0:0:
351,230,1095,1,0,0:0:0:0:
433,248,1373,1,2,0:0:0:0:
418,330,1650,1,0,0:0:0:0:
335,315,1928,2,0,P|288:310|242:307,1,70,2|0,0:0|0:0,0:0:0:0:
203,365,2484,5,2,0:0:0:0:
126,332,2761,2,0,P|128:291|132:255,1,70,0|0,0:0|0:0,0:0:0:0:
141,178,3317,1,0,0:0:0:0:
224,172,3595,2,0,P|217:116|212:84,1,70,2|0,0:0|0:0,0:0:0:0:
162,39,4150,5,2,0:0:0:0:
96,102,4428,2,0,P|61:104|27:106,1,70,0|2,0:0|0:0,0:0:0:0:
141,178,4984,1,0,0:0:0:0:
224,172,5261,2,0,P|259:167|303:162,1,70,2|0,0:0|0:0,0:0:0:0:
356,218,5817,5,2,0:0:0:0:
420,164,6095,2,0,P|414:125|406:89,2,70,0|0|0,0:0|0:0|0:0,0:0:0:0:
304,79,6928,5,2,0:0:0:0:
293,162,7206,1,0,0:0:0:0:
223,209,7484,1,2,0:0:0:0:
235,292,7762,1,0,0:0:0:0:
163,335,8039,1,2,0:0:0:0:
99,279,8317,1,0,0:0:0:0:
139,205,8595,2,0,P|185:207|215:210,1,70,2|0,0:0|0:0,0:0:0:0:
235,292,9150,5,2,0:0:0:0:
317,275,9428,2,0,P|363:267|394:263,1,70,0|0,0:0|0:0,0:0:0:0:
433,333,9984,1,0,0:0:0:0:
500,283,10261,2,0,P|496:249|488:202,1,70,2|0,0:0|0:0,0:0:0:0:
415,175,10817,5,2,0:0:0:0:
337,143,11095,2,0,P|339:95|343:57,1,70,0|0,0:0|0:0,0:0:0:0:
399,8,11650,1,0,0:0:0:0:
505,84,11928,2,0,P|453:89|421:92,1,70,2|0,0:0|0:0,0:0:0:0:
415,175,12575,1,2,0:0:0:0:
280,163,12927,2,0,L|336:167,1,52.5000020027161,0|2,0:0|0:0,0:0:0:0:
178,62,14335,6,0,P|188:108|192:138,1,70,2|0,0:0|0:0,0:0:0:0:
259,180,14705,2,0,P|251:230|249:268,1,70,2|0,0:0|0:0,0:0:0:0:
239,332,15075,1,2,0:0:0:0:
169,284,15260,2,0,P|129:287|86:292,2,70,0|2|0,0:0|0:0|0:0,0:0:0:0:
52,356,15816,6,0,P|20:303|51:225,1,140,12|2,0:0|0:0,0:0:0:0:
110,183,16371,1,0,0:0:0:0:
182,138,16556,2,0,P|174:91|168:56,1,70,2|0,0:0|0:0,0:0:0:0:
45,8,16927,6,0,P|40:56|34:154,1,140,8|2,2:0|0:0,0:0:0:0:
110,183,17482,1,0,0:0:0:0:
182,138,17667,2,0,P|225:130|266:126,1,70,2|0,0:0|0:0,0:0:0:0:
315,180,18038,2,0,P|333:129|292:51,1,140,8|2,2:0|0:0,0:0:0:0:
207,50,18593,1,0,0:0:0:0:
182,138,18778,6,0,P|188:174|199:206,1,70,10|0,0:0|0:0,0:0:0:0:
264,264,19149,2,0,P|263:299|255:333,1,70,2|0,0:0|0:0,0:0:0:0:
180,287,19519,1,10,0:0:0:0:
163,367,19704,2,0,L|92:356,2,70,0|10|2,0:0|0:0|0:0,0:0:0:0:
255,333,20260,6,0,P|324:314|379:348,1,140,8|10,0:0|0:0,0:0:0:0:
472,322,20815,1,0,0:0:0:0:
464,238,21001,2,0,P|430:245|403:272,1,70,10|0,0:0|0:0,0:0:0:0:
483,235,21371,6,0,P|475:156|468:88,1,140,8|10,0:0|0:0,0:0:0:0:
388,122,21927,1,0,0:0:0:0:
335,32,22112,2,0,P|377:35|414:37,1,70,10|2,0:0|0:0,0:0:0:0:
388,122,22482,2,0,P|322:135|257:100,1,140,8|10,0:0|0:0,0:0:0:0:
217,29,23038,1,0,0:0:0:0:
217,29,23223,2,0,L|142:38,1,70,10|0,0:0|0:0,0:0:0:0:
55,128,23593,6,0,P|126:125|181:172,1,140,8|10,0:0|0:0,0:0:0:0:
179,252,24149,1,0,0:0:0:0:
102,286,24334,2,0,P|98:246|94:209,1,70,10|0,0:0|0:0,0:0:0:0:
263,213,24704,6,0,P|259:280|253:360,1,140,8|10,0:0|0:0,0:0:0:0:
335,372,25260,1,0,0:0:0:0:
344,288,25445,2,0,P|385:282|416:279,1,70,10|0,0:0|0:0,0:0:0:0:
497,201,25815,6,0,P|442:189|356:174,1,140,8|10,0:0|0:0,0:0:0:0:
305,105,26371,1,0,0:0:0:0:
360,32,26556,2,0,P|381:60|394:102,1,70,10|0,0:0|0:0,0:0:0:0:
360,175,26927,1,8,0:0:0:0:
277,184,27112,6,0,L|206:180,2,70,0|0|0,0:0|0:0|0:0,0:0:0:0:
305,105,27667,1,2,0:0:0:0:
305,105,27853,1,0,0:0:0:0:
243,48,28038,1,2,0:0:0:0:
243,48,28223,1,2,0:0:0:0:
176,98,28408,1,2,0:0:0:0:
117,37,28593,6,0,P|84:42|43:51,2,70,0|2|0,0:0|0:0|0:0,0:0:0:0:
176,98,29149,2,0,P|177:135|170:172,1,70,2|0,0:0|0:0,0:0:0:0:
108,223,29519,2,0,P|69:218|39:212,1,70,2|0,0:0|0:0,0:0:0:0:
219,250,29890,6,0,P|262:241|300:235,1,70,2|0,0:0|0:0,0:0:0:0:
304,318,30260,2,0,P|261:327|223:333,1,70,2|0,0:0|0:0,0:0:0:0:
404,223,30630,2,0,P|443:218|473:212,1,70,2|0,0:2|0:0,0:0:0:0:
336,98,31001,2,0,P|335:135|342:172,1,70,2|0,0:2|0:0,0:0:0:0:
463,49,31371,6,0,P|429:42|395:37,2,70,12|2|10,0:0|2:0|3:1,0:0:0:0:
418,126,31927,1,2,2:0:0:0:
336,98,32112,2,0,P|293:103|261:108,1,70,10|2,3:1|2:0,0:0:0:0:
235,184,32482,5,8,0:0:0:0:
158,149,32667,2,0,P|159:114|166:75,2,70,2|10|2,2:0|3:1|2:0,0:0:0:0:
166,232,33223,2,0,P|182:270|188:308,1,70,10|2,3:1|2:0,0:0:0:0:
131,355,33593,5,8,0:0:0:0:
59,312,33778,2,0,P|59:275|70:232,2,70,2|10|2,2:0|3:1|2:0,0:0:0:0:
131,355,34334,6,0,P|183:343|211:339,1,70,8|2,0:0|0:2,0:0:0:0:
381,355,34704,2,0,P|329:343|301:339,1,70,10|2,3:1|0:2,0:0:0:0:
261,273,35075,1,10,3:1:0:0:
261,273,35260,1,2,0:2:0:0:
310,205,35445,1,10,3:1:0:0:
310,205,35630,1,10,3:1:0:0:
388,234,35815,5,8,0:0:0:0:
378,318,36001,2,0,P|342:327|311:341,2,70,2|10|2,2:0|3:1|0:2,0:0:0:0:
460,349,36556,2,0,P|462:302|466:265,1,70,10|2,3:1|0:2,0:0:0:0:
474,195,36927,5,8,0:0:0:0:
401,153,37112,2,0,P|397:122|388:84,2,70,2|10|2,0:2|3:1|0:2,0:0:0:0:
350,219,37667,2,0,P|317:227|281:228,1,70,10|2,3:1|2:0,0:0:0:0:
229,159,38038,6,0,P|208:186|200:223,1,70,8|2,0:0|0:2,0:0:0:0:
121,249,38408,2,0,P|140:277|172:296,1,70,10|2,3:1|2:0,0:0:0:0:
179,378,38778,2,0,P|211:368|240:343,1,70,10|0,3:1|0:0,0:0:0:0:
314,309,39149,6,0,P|369:313|456:320,2,140,2|2|2,3:0|0:3|3:0,0:0:0:0:
209,151,40260,6,0,P|276:139|356:129,1,140,12|10,0:0|3:1,0:0:0:0:
414,182,40815,1,2,0:2:0:0:
464,114,41001,2,0,P|456:66|448:36,1,70,10|2,3:1|0:2,0:0:0:0:
368,30,41371,2,0,P|298:38|229:51,1,140,8|10,0:0|3:1,0:0:0:0:
62,72,42112,2,0,P|103:55|125:36,1,70,10|2,3:1|2:0,0:0:0:0:
170,107,42482,6,0,P|184:177|184:248,1,140,8|10,0:0|3:1,0:0:0:0:
130,310,43038,2,0,L|85:303,2,35,2|0|10,2:0|0:0|3:1,0:0:0:0:
211,328,43408,1,2,2:0:0:0:
292,346,43593,2,0,P|292:281|311:203,1,140,8|10,0:0|3:1,0:0:0:0:
404,336,44334,2,0,L|439:333,2,35,10|2|2,3:1|3:0|3:0,0:0:0:0:
374,256,44704,6,0,P|411:252|451:250,1,70,8|2,0:0|2:0,0:0:0:0:
482,170,45075,2,0,P|474:130|463:100,1,70,10|2,3:1|2:0,0:0:0:0:
413,35,45445,2,0,P|374:57|334:66,1,70,10|2,3:1|2:0,0:0:0:0:
326,144,45815,6,0,P|250:139|184:136,1,140,8|10,0:0|3:1,0:0:0:0:
127,195,46371,1,2,2:0:0:0:
53,155,46556,2,0,P|53:121|67:77,1,70,10|2,3:1|2:0,0:0:0:0:
141,57,46927,5,8,0:0:0:0:
141,57,47112,1,8,0:0:0:0:
187,136,47297,1,8,0:0:0:0:
187,136,47482,1,8,0:0:0:0:
127,195,47667,1,8,0:0:0:0:
127,195,47853,1,8,0:0:0:0:
175,263,48038,6,0,P|244:253|299:246,1,125.999996154785,4|10,0:0|3:1,0:0:0:0:
367,296,48778,1,10,3:1:0:0:
376,212,48964,1,10,3:1:0:0:
386,128,49149,5,14,3:1:0:0:
233,57,49519,1,12,0:0:0:0:
119,178,49890,1,12,0:0:0:0:
210,318,50260,5,12,0:0:0:0:
210,318,50815,5,12,0:0:0:0:
290,293,51001,1,12,0:0:0:0:
361,337,51186,1,12,0:0:0:0:
440,309,51371,5,12,0:0:0:0:
470,143,51741,1,12,0:0:0:0:
318,70,52112,1,12,0:0:0:0:
212,189,52482,1,12,0:0:0:0:
212,189,52667,6,0,L|158:186,2,35,2|0|0,2:0|0:0|2:0,0:0:0:0:
238,269,53038,2,0,L|278:264,2,35,2|0|0,2:0|0:0|0:0,0:0:0:0:
211,348,53408,2,0,L|169:346,2,35,2|0|0,2:0|0:0|0:0,0:0:0:0:
329,131,54149,5,0,0:0:0:0:
329,131,54334,2,0,P|321:86|312:43,2,70,2|0|2,0:0|0:0|0:0,0:0:0:0:
211,348,55260,5,0,0:0:0:0:
211,348,55445,2,0,P|166:342|124:334,1,70,2|0,2:0|0:0,0:0:0:0:
47,332,55815,2,0,P|67:303|89:276,1,70,2|0,0:0|0:0,0:0:0:0:
145,194,56186,2,0,P|158:226|170:259,1,70,2|0,0:0|0:0,0:0:0:0:
257,190,56556,1,2,0:0:0:0:
257,190,56741,1,0,0:0:0:0:
369,198,56927,6,0,P|355:166|344:134,1,70,2|0,0:2|0:0,0:0:0:0:
466,62,57297,2,0,P|444:89|422:116,1,70,2|2,0:2|0:0,0:0:0:0:
296,43,57667,2,0,P|331:48|366:54,1,70,2|0,0:2|0:0,0:0:0:0:
434,256,58038,6,0,P|428:290|420:324,2,70,12|2|10,0:0|0:2|3:1,0:0:0:0:
369,198,58593,1,2,2:0:0:0:
317,269,58778,2,0,P|274:276|243:281,1,70,10|2,3:1|2:0,0:0:0:0:
192,348,59149,1,8,0:0:0:0:
114,315,59334,6,0,P|106:287|107:236,2,70,2|10|2,2:0|3:1|2:0,0:0:0:0:
164,181,59890,2,0,P|170:137|168:94,1,70,10|2,3:1|2:0,0:0:0:0:
149,29,60260,5,8,0:0:0:0:
97,91,60445,2,0,P|61:98|24:104,2,70,2|10|2,2:0|3:1|2:0,0:0:0:0:
149,29,61001,6,0,P|183:34|217:41,1,70,8|2,0:0|2:0,0:0:0:0:
395,43,61371,2,0,P|359:36|322:30,1,70,10|2,3:1|2:0,0:0:0:0:
284,103,61741,1,10,3:1:0:0:
284,103,61927,1,2,2:0:0:0:
339,166,62112,1,10,3:1:0:0:
339,166,62297,1,10,3:1:0:0:
413,126,62482,5,8,0:0:0:0:
395,43,62667,2,0,P|357:39|323:29,2,70,2|10|2,2:0|3:1|2:0,0:0:0:0:
475,69,63223,2,0,P|492:106|494:143,1,70,10|2,3:1|2:0,0:0:0:0:
445,202,63593,6,0,P|439:238|441:287,1,70,10|2,3:1|3:0,0:0:0:0:
396,346,63964,2,0,P|426:356|466:353,1,70,10|2,3:1|3:0,0:0:0:0:
352,273,64334,2,0,P|317:276|278:294,1,70,10|10,3:1|3:1,0:0:0:0:
204,313,64704,5,4,0:0:0:0:
109,285,65075,1,0,0:0:0:0:
13,259,65445,1,2,0:0:0:0:
126,382,65815,5,2,0:0:0:0:
109,285,66186,1,0,0:0:0:0:
93,188,66556,2,0,L|169:203,1,70,2|2,0:0|0:0,0:0:0:0:
202,211,66927,5,2,0:0:0:0:
296,187,67297,1,0,0:0:0:0:
391,166,67667,2,0,L|369:239,1,70,2|2,0:0|0:0,0:0:0:0:
356,272,68038,5,2,0:0:0:0:
296,187,68408,1,0,0:0:0:0:
241,105,68778,2,0,L|165:131,1,70,2|0,0:0|0:0,0:0:0:0:
135,143,69149,5,2,0:0:0:0:
125,240,69519,1,0,0:0:0:0:
117,337,69890,1,2,0:0:0:0:
35,282,70260,5,2,0:0:0:0:
125,240,70630,1,0,0:0:0:0:
214,200,71001,2,0,L|230:276,1,70,2|2,0:0|0:0,0:0:0:0:
238,309,71371,5,2,0:0:0:0:
335,321,71741,1,0,0:0:0:0:
432,333,72112,2,0,L|416:257,1,70,2|0,0:0|0:0,0:0:0:0:
380,245,72482,2,0,P|379:184|380:98,2,140,2|2|2,0:0|0:0|0:0,0:0:0:0:
472,73,73593,5,2,0:0:0:0:
379,105,73964,1,0,0:0:0:0:
286,136,74334,1,2,0:0:0:0:
393,8,74704,5,2,0:0:0:0:
379,105,75075,1,0,0:0:0:0:
366,202,75445,2,0,L|296:223,1,70,2|2,0:0|0:0,0:0:0:0:
260,238,75815,5,2,0:0:0:0:
163,220,76186,1,0,0:0:0:0:
67,196,76556,2,0,L|55:112,1,70,2|2,0:0|0:0,0:0:0:0:
50,85,76927,5,2,0:0:0:0:
144,59,77297,1,0,0:0:0:0:
239,36,77667,2,0,L|251:120,1,70,2|0,0:0|0:0,0:0:0:0:
257,146,78038,5,2,0:0:0:0:
353,162,78408,1,0,0:0:0:0:
449,178,78778,1,2,0:0:0:0:
339,66,79149,5,2,0:0:0:0:
353,162,79519,1,0,0:0:0:0:
368,258,79890,2,0,L|287:242,1,70,2|2,0:0|0:0,0:0:0:0:
257,237,80260,5,2,0:0:0:0:
161,258,80630,1,0,0:0:0:0:
66,284,81001,2,0,L|51:360,1,70,2|0,0:0|0:0,0:0:0:0:
94,354,81371,2,0,P|160:356|234:361,2,140,2|2|2,0:0|0:0|0:0,0:0:0:0:
43,183,82482,5,2,0:0:0:0:
222,92,83964,1,2,0:0:0:0:
256,192,88038,12,2,91000,3:0:0:0:
365,317,91371,6,0,P|332:319|292:327,2,70,12|2|10,0:0|2:0|3:1,0:0:0:0:
440,353,91926,1,2,2:0:0:0:
479,278,92111,2,0,P|474:243|462:205,1,70,10|2,3:1|2:0,0:0:0:0:
430,132,92482,5,8,0:0:0:0:
350,105,92667,2,0,P|352:59|361:18,2,70,2|10|2,2:0|3:1|2:0,0:0:0:0:
367,187,93222,2,0,P|325:183|285:181,1,70,10|2,3:1|2:0,0:0:0:0:
244,115,93593,1,8,0:0:0:0:
196,184,93778,2,0,P|204:219|213:273,2,70,2|10|2,2:0|3:1|2:0,0:0:0:0:
152,310,94333,6,0,P|195:330|221:332,1,70,8|2,0:0|2:0,0:0:0:0:
364,310,94704,2,0,P|321:330|295:332,1,70,10|2,3:1|2:0,0:0:0:0:
250,265,95074,1,10,3:1:0:0:
298,196,95259,1,2,2:0:0:0:
376,230,95445,2,0,L|371:271,2,35,10|2|10,3:1|3:0|3:1,0:0:0:0:
297,195,95815,6,0,P|290:161|286:127,1,70,8|2,0:0|2:0,0:0:0:0:
270,44,96185,1,10,3:1:0:0:
346,75,96371,2,0,P|381:73|412:57,2,70,2|10|2,2:0|3:1|2:0,0:0:0:0:
198,101,96926,6,0,P|163:91|113:94,2,70,8|2|10,0:0|2:0|3:1,0:0:0:0:
147,181,97482,1,2,2:0:0:0:
61,145,97667,2,0,P|51:121|43:75,1,70,10|2,3:1|2:0,0:0:0:0:
147,181,98037,6,0,P|147:219|143:250,2,70,8|2|10,0:0|2:0|3:1,0:0:0:0:
55,268,98593,1,2,2:0:0:0:
55,268,98778,2,0,P|55:305|68:354,1,70,10|2,3:1|3:0,0:0:0:0:
145,340,99148,6,0,P|184:334|221:330,2,70,8|2|10,0:0|2:0|3:1,0:0:0:0:
241,244,99704,1,2,2:0:0:0:
319,291,99889,2,0,P|324:326|320:361,1,70,10|2,3:1|2:0,0:0:0:0:
240,243,100259,6,0,P|237:208|242:174,2,70,8|2|10,0:0|2:0|3:1,0:0:0:0:
326,179,100815,1,2,2:0:0:0:
268,88,101000,2,0,P|232:90|194:99,1,70,10|2,3:1|2:0,0:0:0:0:
95,183,101370,2,0,P|128:187|168:186,2,70,8|2|10,0:0|2:0|3:1,0:0:0:0:
46,114,101926,1,2,2:0:0:0:
89,42,102111,2,0,P|128:40|165:46,1,70,10|0,3:1|0:0,0:0:0:0:
206,114,102482,6,0,P|191:145|186:180,1,70,8|2,0:0|2:0,0:0:0:0:
192,344,102852,2,0,P|222:326|247:302,1,70,10|2,3:1|2:0,0:0:0:0:
339,166,103222,2,0,P|305:162|271:169,1,70,10|2,3:1|2:0,0:0:0:0:
115,224,103593,2,0,P|141:247|173:263,1,70,10|2,3:1|2:0,0:0:0:0:
329,309,103963,2,0,P|323:274|307:244,1,70,10|0,3:1|0:0,0:0:0:0:
169,278,104333,6,0,P|175:313|191:343,1,70,8|8,0:0|0:0,0:0:0:0:
262,153,104704,2,0,P|236:128|205:113,1,70,8|8,0:0|0:0,0:0:0:0:
260,310,105074,2,0,P|295:315|328:309,1,70,8|8,0:0|0:0,0:0:0:0:
170,183,105445,2,0,P|138:199|114:224,1,70,8|8,0:0|0:0,0:0:0:0:
318,232,105815,2,0,P|333:200|338:166,1,70,2|2,0:0|0:0,0:0:0:0:
169,278,106185,2,0,P|195:299|232:310,1,70,2|2,0:0|0:0,0:0:0:0:
303,259,106556,2,0,P|295:223|266:181,1,70,2|2,0:0|3:0,0:0:0:0:
190,95,106926,6,0,P|187:136|185:178,1,83.9999974365235,12|2,0:0|2:0,0:0:0:0:
94,140,107296,1,10,3:1:0:0:
106,36,107482,1,2,2:0:0:0:
190,95,107667,2,0,P|221:96|275:81,1,83.9999974365235,10|2,3:1|2:0,0:0:0:0:
367,51,108037,6,0,P|366:93|363:147,1,83.9999974365235,12|0,0:0|0:0,0:0:0:0:
445,199,108408,2,0,P|411:223|392:263,1,83.9999974365235,10|0,3:1|0:0,0:0:0:0:
339,345,108778,2,0,P|317:306|274:283,1,83.9999974365235,10|0,3:1|0:0,0:0:0:0:
185,264,109148,6,0,P|123:272|87:276,1,83.9999974365235,12|0,0:0|0:0,0:0:0:0:
187,167,109519,2,0,P|189:125|190:84,1,83.9999974365235,10|2,3:1|2:0,0:0:0:0:
56,72,109889,5,8,0:0:0:0:
72,183,110074,1,2,2:0:0:0:
187,167,110259,2,0,P|231:160|272:155,1,83.9999974365235,10|2,3:1|2:0,0:0:0:0:
385,171,110630,5,10,3:1:0:0:
369,282,110815,1,2,2:0:0:0:
254,266,111000,2,0,P|210:259|169:254,1,83.9999974365235,10|10,3:1|3:1,0:0:0:0:
212,362,111370,6,0,P|256:355|297:350,2,83.9999974365235,12|2|10,0:0|2:0|3:1,0:0:0:0:
87,328,111926,1,2,2:0:0:0:
154,171,112111,2,0,P|162:205|171:256,1,83.9999974365235,10|2,3:1|2:0,0:0:0:0:
43,219,112482,6,0,P|47:174|58:127,1,83.9999974365235,12|0,0:0|0:0,0:0:0:0:
135,72,112852,2,0,P|178:80|219:105,1,83.9999974365235,10|2,3:1|2:0,0:0:0:0:
378,72,113222,2,0,P|335:80|294:105,1,83.9999974365235,10|10,3:1|3:1,0:0:0:0:
256,180,113593,5,12,0:0:0:0:
256,192,113685,12,0,115722,0:0:0:0:
