osu file format v14

[General]
AudioFilename: audio.mp3
AudioLeadIn: 0
PreviewTime: 58012
Countdown: 1
SampleSet: None
StackLeniency: 0.7
Mode: 0
LetterboxInBreaks: 0
WidescreenStoryboard: 1

[Editor]
DistanceSpacing: 1.7
BeatDivisor: 4
GridSize: 4
TimelineZoom: 2.5

[Metadata]
Title:LoVe
TitleUnicode:Любовь
Artist:DK
ArtistUnicode:Даня Кашин
Creator:dima21
Version:XenjeS: Extra
Source:
Tags:
BeatmapID:1577603
BeatmapSetID:748125

[Difficulty]
HPDrainRate:6.5
CircleSize:4
OverallDifficulty:9
ApproachRate:9.4
SliderMultiplier:2.3
SliderTickRate:0.5

[Events]
//Background and Video events
0,0,"daddy_s_lil_monster___digipainting_by_lasse17-d92v6x7.png",0,0
//Break Periods
//Storyboard Layer 0 (Background)
//Storyboard Layer 1 (Fail)
//Storyboard Layer 2 (Pass)
//Storyboard Layer 3 (Foreground)
//Storyboard Sound Samples

[TimingPoints]
187,300,4,1,0,51,1,0
8587,-200,4,1,0,51,0,0
9787,-100,4,1,0,51,0,0
19387,-90.9090909090909,4,1,0,51,0,0
28987,-83.3333333333333,4,1,0,51,0,0
38587,-111.111111111111,4,1,0,51,0,0
48187,-111.111111111111,4,1,0,51,0,0
49987,-90.9090909090909,4,1,0,51,0,0
50587,-100,4,1,0,51,0,0
57787,-76.9230769230769,4,1,0,51,0,1
76987,-200,4,1,0,51,0,0

[HitObjects]
160,152,7387,5,0,0:0:0:0:
388,240,7987,5,0,0:0:0:0:
96,144,8587,6,0,B|88:204|88:204|96:280,1,115
296,208,9187,2,0,B|300:144|300:144|292:80,1,115
412,100,9787,6,0,P|420:176|412:232,1,115
212,184,10087,2,0,P|204:116|212:64,1,115
412,120,10387,2,0,P|416:196|408:256,1,115
208,160,10687,2,0,P|204:88|212:36,1,115
80,176,10987,1,0,0:0:0:0:
304,296,11137,1,0,0:0:0:0:
352,68,11287,2,0,B|272:64|272:64|224:80,1,115
392,336,11587,2,0,B|400:252|400:252|392:216,1,115
368,160,11887,5,0,0:0:0:0:
84,136,12037,1,0,0:0:0:0:
176,232,12187,6,0,B|104:224|104:224|40:236,1,115
372,308,12487,2,0,B|304:324|304:324|240:320,1,115
196,228,12787,2,0,B|124:220|124:220|60:232,1,115
392,304,13087,2,0,B|324:320|324:320|260:316,1,115
292,140,13387,5,0,0:0:0:0:
92,224,13537,1,0,0:0:0:0:
300,52,13687,1,0,0:0:0:0:
188,332,13837,1,0,0:0:0:0:
188,332,13912,1,0,0:0:0:0:
188,332,13987,2,0,B|172:252|172:252|176:204,1,115
336,120,14287,1,0,0:0:0:0:
304,340,14437,1,0,0:0:0:0:
204,76,14587,6,0,P|200:136|208:208,1,115
420,324,14887,2,0,P|424:256|416:192,1,115
426,199,15187,2,0,P|434:267|426:331,1,115
208,208,15487,2,0,P|200:136|208:80,1,115
344,128,15787,5,0,0:0:0:0:
232,328,15937,1,0,0:0:0:0:
112,132,16087,2,0,B|100:48|100:48|112:-8,1,115
216,104,16387,5,0,0:0:0:0:
384,312,16537,1,0,0:0:0:0:
448,184,16687,5,0,0:0:0:0:
192,256,16837,1,0,0:0:0:0:
316,60,16987,6,0,B|284:64|264:60|264:60|244:64|244:64|216:60|180:64,1,115
448,184,17287,2,0,B|416:188|396:184|396:184|376:188|376:188|348:184|312:188,1,115
80,136,17587,6,0,B|76:224|76:224|88:268,1,115
232,208,17887,2,0,B|236:292|236:292|224:324,1,115
340,108,18187,5,0,0:0:0:0:
296,312,18337,1,0,0:0:0:0:
272,48,18487,1,0,0:0:0:0:
440,236,18637,1,0,0:0:0:0:
440,236,18712,1,0,0:0:0:0:
440,236,18787,1,0,0:0:0:0:
152,200,18937,1,0,0:0:0:0:
424,148,19087,2,0,P|428:76|416:32,1,115
88,80,19387,6,0,B|80:168|80:168|88:220,1,126.500003860474
192,304,19687,1,0,0:0:0:0:
264,68,19837,1,0,0:0:0:0:
272,268,19987,1,0,0:0:0:0:
76,156,20137,1,0,0:0:0:0:
392,156,20287,2,0,P|404:220|400:280,1,126.500003860474
456,88,20587,6,0,P|388:76|312:96,1,126.500003860474
148,204,20887,1,0,0:0:0:0:
304,256,21037,1,0,0:0:0:0:
212,40,21187,1,0,0:0:0:0:
232,328,21337,1,0,0:0:0:0:
336,43,21487,2,0,B|268:52|268:52|205:38,1,126.500003860474
354,166,21787,6,0,P|334:98|338:30,1,126.500003860474
156,120,22087,1,0,0:0:0:0:
268,244,22237,1,0,0:0:0:0:
148,32,22387,1,0,0:0:0:0:
152,256,22537,1,0,0:0:0:0:
316,96,22687,2,0,B|348:96|364:88|364:88|392:96|392:96|448:88,1,126.500003860474
192,96,22987,6,0,B|164:96|136:88|136:88|108:96|108:96|56:84,1,126.500003860474
152,296,23287,1,0,0:0:0:0:
332,96,23437,1,0,0:0:0:0:
332,96,23512,1,0,0:0:0:0:
332,96,23587,1,0,0:0:0:0:
140,184,23737,1,0,0:0:0:0:
420,216,23887,2,0,B|412:136|412:136|420:80,1,126.500003860474
248,328,24187,6,0,B|248:240|248:240|232:180,1,126.500003860474
128,88,24487,1,0,0:0:0:0:
132,336,24637,1,0,0:0:0:0:
200,212,24787,1,0,0:0:0:0:
40,288,24937,1,0,0:0:0:0:
288,272,25087,2,0,P|368:264|420:272,1,126.500003860474
240,156,25387,6,0,B|212:88|212:88|144:32,1,126.500003860474
84,160,25687,1,0,0:0:0:0:
232,272,25837,1,0,0:0:0:0:
8,160,25987,1,0,0:0:0:0:
256,76,26137,1,0,0:0:0:0:
132,232,26287,2,0,P|124:320|128:368,1,126.500003860474
164,112,26587,6,0,P|232:100|304:112,1,126.500003860474
288,140,26887,2,0,P|220:128|156:144,1,126.500003860474
168,176,27187,2,0,P|240:160|292:176,1,126.500003860474
288,212,27487,2,0,P|232:196|168:216,1,126.500003860474
400,152,27787,6,0,P|412:220|404:288,1,126.500003860474
188,112,28087,1,0,0:0:0:0:
180,288,28237,1,0,0:0:0:0:
180,288,28312,1,0,0:0:0:0:
180,288,28387,2,0,B|256:308|256:308|312:304,1,126.500003860474
260,60,28687,2,0,B|204:44|204:44|116:52,1,126.500003860474
259,196,28987,6,0,P|251:108|259:60,1,137.999995788574
400,176,29287,1,0,0:0:0:0:
240,280,29437,1,0,0:0:0:0:
348,36,29587,1,0,0:0:0:0:
336,216,29737,1,0,0:0:0:0:
160,108,29887,1,0,0:0:0:0:
160,108,30037,1,0,0:0:0:0:
64,196,30187,6,0,B|68:224|64:268|64:268|80:292|108:336,1,137.999995788574
260,88,30487,1,0,0:0:0:0:
292,316,30637,1,0,0:0:0:0:
392,220,30787,2,0,P|408:132|396:68,1,137.999995788574
156,64,31087,1,0,0:0:0:0:
296,236,31237,1,0,0:0:0:0:
370,85,31387,6,0,B|370:137|370:137|386:173|386:173|394:245,1,137.999995788574
504,67,31687,2,0,B|422:90|422:90|352:83,1,137.999995788574
164,152,31987,1,0,0:0:0:0:
284,292,32137,1,0,0:0:0:0:
256,56,32287,1,0,0:0:0:0:
416,204,32437,1,0,0:0:0:0:
200,240,32587,6,0,P|120:232|68:192,1,137.999995788574
108,56,32887,1,0,0:0:0:0:
112,304,33037,1,0,0:0:0:0:
112,304,33112,1,0,0:0:0:0:
112,304,33187,1,0,0:0:0:0:
232,112,33337,1,0,0:0:0:0:
272,304,33487,1,0,0:0:0:0:
124,116,33637,1,0,0:0:0:0:
364,144,33787,6,0,B|368:224|368:224|356:292,1,137.999995788574
268,144,34087,2,0,B|272:224|272:224|260:292,1,137.999995788574
168,144,34387,2,0,B|172:224|172:224|160:292,1,137.999995788574
64,144,34687,2,0,B|68:224|68:224|56:292,1,137.999995788574
200,92,34987,6,0,B|288:80|288:80|356:92,1,137.999995788574
296,216,35287,2,0,B|240:228|240:228|144:220,1,137.999995788574
208,88,35587,2,0,B|300:80|300:80|352:92,1,137.999995788574
284,216,35887,2,0,B|232:232|232:232|132:224,1,137.999995788574
352,136,36187,6,0,P|368:224|360:284,1,137.999995788574
192,96,36487,5,0,0:0:0:0:
104,304,36637,1,0,0:0:0:0:
192,96,36787,2,0,P|268:72|332:84,1,137.999995788574
280,296,37087,5,0,0:0:0:0:
76,136,37237,1,0,0:0:0:0:
300,232,37387,6,0,B|372:200|372:200|408:148,1,137.999995788574
216,128,37687,2,0,B|152:160|152:160|112:228,1,137.999995788574
216,308,37987,1,0,0:0:0:0:
252,316,38062,1,0,0:0:0:0:
296,312,38137,1,0,0:0:0:0:
332,304,38212,1,0,0:0:0:0:
364,284,38287,1,0,0:0:0:0:
248,104,38437,5,0,0:0:0:0:
64,212,38587,6,0,P|60:280|72:328,1,103.499996841431
160,252,38887,2,0,P|164:184|152:136,1,103.499996841431
120,56,39187,5,0,0:0:0:0:
296,160,39337,1,0,0:0:0:0:
156,149,39487,6,0,P|152:217|164:261,1,103.499996841431
304,88,39787,2,0,P|232:80|184:88,1,103.499996841431
340,264,40087,2,0,P|348:200|336:152,1,103.499996841431
196,224,40387,5,0,0:0:0:0:
324,68,40537,1,0,0:0:0:0:
400,200,40687,6,0,P|408:264|400:312,1,103.499996841431
244,176,40987,2,0,B|224:96|224:96|232:16,1,155.249995262146
188,24,41287,2,0,B|180:104|180:104|204:184,1,155.249995262146
188,200,41587,5,0,0:0:0:0:
28,328,41737,1,0,0:0:0:0:
84,188,41887,6,0,B|88:156|88:156|84:64,1,103.499996841431
184,224,42187,2,0,B|176:272|176:272|184:348,1,103.499996841431
304,128,42487,1,0,0:0:0:0:
340,252,42637,5,0,0:0:0:0:
340,252,42712,1,0,0:0:0:0:
340,252,42787,1,0,0:0:0:0:
152,152,42937,1,0,0:0:0:0:
152,152,43087,2,0,B|156:84|156:84|152:40,1,103.499996841431
354,98,43387,6,0,P|298:90|242:98,1,103.499996841431
360,228,43687,2,0,P|432:232|484:224,1,103.499996841431
252,96,43987,5,0,0:0:0:0:
156,256,44137,1,0,0:0:0:0:
120,100,44287,6,0,B|116:160|116:160|128:216,1,103.499996841431
268,144,44587,2,0,B|272:88|272:88|260:32,1,103.499996841431
120,124,44887,2,0,B|116:188|116:188|124:248,1,103.499996841431
248,268,45187,5,0,0:0:0:0:
320,88,45337,1,0,0:0:0:0:
320,88,45487,2,0,B|356:96|356:96|420:144,1,103.499996841431
212,176,45787,6,0,P|144:160|96:168,1,103.499996841431
212,168,46087,2,0,P|156:152|92:160,1,103.499996841431
140,268,46387,5,0,0:0:0:0:
184,64,46537,1,0,0:0:0:0:
242,253,46687,2,0,L|125:269,1,103.499996841431
288,144,46987,6,0,P|356:136|408:144,1,103.499996841431
284,136,47287,2,0,P|344:128|404:136,1,103.499996841431
416,152,47512,1,0,0:0:0:0:
432,192,47587,2,0,B|428:252|428:252|436:308,1,103.499996841431
284,136,47887,2,0,B|288:96|288:96|272:8,1,103.499996841431
128,176,48187,6,0,B|192:220|256:220|256:220|288:260|288:316|288:316|340:212|332:168,1,362.249988945008
264,144,48787,2,0,P|368:100|388:288,1,362.249988945008
360,304,49387,1,0,0:0:0:0:
264,124,50587,6,0,B|212:124|164:120|164:120|88:160|88:160|112:224|188:256|188:256|228:244|276:240,1,402.5
296,240,51187,2,0,B|376:272|456:280|456:280|288:308|216:332,1,402.5
184,304,51787,1,0,0:0:0:0:
128,88,52387,5,0,0:0:0:0:
144,104,52537,1,0,0:0:0:0:
164,120,52687,1,0,0:0:0:0:
180,136,52837,1,0,0:0:0:0:
204,152,52987,2,0,B|296:164|296:164|348:144|404:148|404:148|392:104|344:72|344:72|324:120|280:152,1,402.5
248,76,53587,2,0,P|104:128|260:224,1,402.5
272,200,54187,1,0,0:0:0:0:
252,128,55387,6,0,P|256:260|256:128,1,402.5
254,194,55987,2,0,P|315:315|383:150,1,402.5
365,136,56587,1,0,0:0:0:0:
215,89,57187,5,0,0:0:0:0:
104,271,57337,1,0,0:0:0:0:
48,132,57487,5,0,0:0:0:0:
291,263,57637,1,0,0:0:0:0:
148,48,57787,6,0,B|140:124|140:124|152:208,1,149.499993156433
296,112,58087,5,0,0:0:0:0:
192,256,58237,1,0,0:0:0:0:
368,148,58387,5,0,0:0:0:0:
136,208,58537,1,0,0:0:0:0:
416,208,58687,5,0,0:0:0:0:
112,140,58837,1,0,0:0:0:0:
276,72,58987,6,0,P|352:64|440:76,1,149.499993156433
288,280,59287,1,0,0:0:0:0:
164,56,59437,1,0,0:0:0:0:
176,224,59587,1,0,0:0:0:0:
264,28,59737,1,0,0:0:0:0:
340,256,59887,1,0,0:0:0:0:
88,120,60037,1,0,0:0:0:0:
339,106,60187,6,0,P|343:190|339:262,1,149.499993156433
160,200,60487,2,0,P|152:108|160:40,1,149.499993156433
396,164,60787,1,0,0:0:0:0:
216,308,60937,1,0,0:0:0:0:
288,48,61087,1,0,0:0:0:0:
436,240,61237,1,0,0:0:0:0:
160,232,61387,6,0,B|152:148|152:148|160:72,1,149.499993156433
312,272,61687,1,0,0:0:0:0:
368,52,61837,1,0,0:0:0:0:
368,52,61912,1,0,0:0:0:0:
368,52,61987,1,0,0:0:0:0:
440,224,62137,1,0,0:0:0:0:
192,128,62287,1,0,0:0:0:0:
460,80,62437,1,0,0:0:0:0:
232,268,62587,6,0,B|192:264|156:248|156:248|128:260|84:264,1,149.499993156433
116,44,62887,1,0,0:0:0:0:
168,284,63037,1,0,0:0:0:0:
228,108,63187,1,0,0:0:0:0:
280,344,63337,1,0,0:0:0:0:
88,200,63487,1,0,0:0:0:0:
372,288,63637,1,0,0:0:0:0:
312,36,63787,6,0,P|316:116|308:196,1,149.499993156433
144,160,64087,5,0,0:0:0:0:
328,32,64237,1,0,0:0:0:0:
124,132,64387,5,0,0:0:0:0:
392,80,64537,1,0,0:0:0:0:
112,100,64687,5,0,0:0:0:0:
424,156,64837,1,0,0:0:0:0:
120,220,64987,6,0,B|144:272|144:272|220:328,1,149.499993156433
312,232,65287,2,0,B|252:156|252:156|192:128,1,149.499993156433
52,184,65587,1,0,0:0:0:0:
208,80,65737,1,0,0:0:0:0:
104,296,65887,1,0,0:0:0:0:
88,24,66037,1,0,0:0:0:0:
224,200,66187,2,0,B|220:276|220:276|232:352,1,149.499993156433
368,208,66487,5,0,0:0:0:0:
148,84,66637,1,0,0:0:0:0:
148,84,66712,1,0,0:0:0:0:
148,84,66787,1,0,0:0:0:0:
212,288,66937,1,0,0:0:0:0:
252,36,67087,1,0,0:0:0:0:
312,196,67237,1,0,0:0:0:0:
412,64,67387,6,0,P|416:152|408:236,1,149.499993156433
224,152,67687,1,0,0:0:0:0:
236,320,67837,1,0,0:0:0:0:
320,88,67987,1,0,0:0:0:0:
132,184,68137,1,0,0:0:0:0:
380,160,68287,1,0,0:0:0:0:
148,56,68437,1,0,0:0:0:0:
56,248,68587,6,0,B|88:268|112:272|112:272|136:296|136:296|160:304|192:320,1,149.499993156433
260,96,68887,1,0,0:0:0:0:
352,332,69037,1,0,0:0:0:0:
248,224,69187,1,0,0:0:0:0:
472,284,69337,1,0,0:0:0:0:
392,92,69487,1,0,0:0:0:0:
352,328,69637,1,0,0:0:0:0:
296,160,69787,6,0,B|280:76|280:76|224:16,1,149.499993156433
96,108,70087,1,0,0:0:0:0:
272,216,70237,1,0,0:0:0:0:
272,28,70387,1,0,0:0:0:0:
192,248,70537,1,0,0:0:0:0:
388,116,70687,1,0,0:0:0:0:
128,56,70837,1,0,0:0:0:0:
112,232,70987,6,0,B|152:268|168:292|168:292|216:296|248:308,1,149.499993156433
264,92,71287,1,0,0:0:0:0:
352,288,71437,1,0,0:0:0:0:
448,188,71587,1,0,0:0:0:0:
448,152,71662,1,0,0:0:0:0:
448,112,71737,1,0,0:0:0:0:
448,80,71812,1,0,0:0:0:0:
448,44,71887,1,0,0:0:0:0:
176,192,72037,5,0,0:0:0:0:
332,104,72187,2,0,P|336:200|324:256,1,149.499993156433
212,52,72487,1,0,0:0:0:0:
232,272,72637,1,0,0:0:0:0:
116,96,72787,1,0,0:0:0:0:
368,156,72937,1,0,0:0:0:0:
128,256,73087,1,0,0:0:0:0:
284,44,73237,1,0,0:0:0:0:
316,184,73387,6,0,B|324:236|324:236|312:340,1,149.499993156433
176,224,73687,1,0,0:0:0:0:
432,240,73837,1,0,0:0:0:0:
268,168,73987,1,0,0:0:0:0:
316,328,74137,1,0,0:0:0:0:
424,156,74287,1,0,0:0:0:0:
184,232,74437,1,0,0:0:0:0:
424,304,74587,6,0,P|432:224|424:156,1,149.499993156433
272,72,74887,1,0,0:0:0:0:
272,280,75037,1,0,0:0:0:0:
272,72,75187,1,0,0:0:0:0:
196,220,75337,1,0,0:0:0:0:
392,168,75487,1,0,0:0:0:0:
132,104,75637,1,0,0:0:0:0:
56,152,75787,6,0,B|56:232|56:232|72:300,1,149.499993156433
228,108,76087,1,0,0:0:0:0:
276,324,76237,1,0,0:0:0:0:
276,324,76312,1,0,0:0:0:0:
276,324,76387,1,0,0:0:0:0:
380,80,76537,1,0,0:0:0:0:
144,204,76687,1,0,0:0:0:0:
448,256,76837,1,0,0:0:0:0:
216,56,76987,1,0,0:0:0:0:
