osu file format v14

[General]
AudioFilename: audio.mp3
AudioLeadIn: 0
PreviewTime: 58012
Countdown: 1
SampleSet: None
StackLeniency: 0.7
Mode: 0
LetterboxInBreaks: 0
WidescreenStoryboard: 0

[Editor]
DistanceSpacing: 1.7
BeatDivisor: 4
GridSize: 16
TimelineZoom: 2.5

[Metadata]
Title:LoVe
TitleUnicode:Любовь
Artist:DK
ArtistUnicode:Даня Кашин
Creator:dima21
Version:WaRNiNG
Source:
Tags:
BeatmapID:1576150
BeatmapSetID:748125

[Difficulty]
HPDrainRate:4
CircleSize:3.4
OverallDifficulty:9.2
ApproachRate:9.7
SliderMultiplier:2.3
SliderTickRate:0.5

[Events]
//Background and Video events
0,0,"daddy_s_lil_monster___digipainting_by_lasse17-d92v6x7.png",0,0
//Break Periods
//Storyboard Layer 0 (Background)
//Storyboard Layer 1 (Fail)
//Storyboard Layer 2 (Pass)
//Storyboard Layer 3 (Foreground)
//Storyboard Sound Samples

[TimingPoints]
187,300,4,1,0,51,1,0
19387,-90.9090909090909,4,1,0,51,0,0
28987,-83.3333333333333,4,1,0,51,0,0
48787,-71.4285714285714,4,1,0,51,0,0
49987,-90.9090909090909,4,1,0,51,0,0
50587,-83.3333333333333,4,1,0,51,0,0
57787,-71.4285714285714,4,1,0,51,0,1
76987,-200,4,1,0,51,0,0
79387,-200,4,1,0,42,0,0
81787,-200,4,1,0,30,0,0
84187,-200,4,1,0,21,0,0
85387,-200,4,1,0,12,0,0

[HitObjects]
192,304,9787,6,0,L|192:144,1,115
272,80,10087,2,0,L|269:226,1,115
194,314,10387,5,0,0:0:0:0:
256,80,10537,1,0,0:0:0:0:
372,192,10687,1,0,0:0:0:0:
372,192,10837,1,0,0:0:0:0:
240,80,10987,6,0,L|96:80,1,115
257,192,11287,2,0,L|385:192,1,115
464,320,11587,5,0,0:0:0:0:
464,320,11737,1,0,0:0:0:0:
464,80,11887,1,0,0:0:0:0:
256,192,12037,1,0,0:0:0:0:
448,80,12187,6,0,L|304:80,1,115
128,192,12487,2,0,L|272:192,1,115
448,320,12787,5,0,0:0:0:0:
256,192,12937,1,0,0:0:0:0:
304,352,13087,1,0,0:0:0:0:
304,352,13237,1,0,0:0:0:0:
400,176,13387,2,0,L|400:32,1,115
256,32,13687,5,0,0:0:0:0:
160,256,13837,1,0,0:0:0:0:
160,256,13912,1,0,0:0:0:0:
160,256,13987,1,0,0:0:0:0:
128,80,14137,1,0,0:0:0:0:
304,240,14287,1,0,0:0:0:0:
80,176,14437,1,0,0:0:0:0:
304,256,14587,6,0,L|448:320,1,115
240,144,14887,2,0,L|128:96,1,115
32,80,15187,5,0,0:0:0:0:
32,80,15337,1,0,0:0:0:0:
256,48,15487,1,0,0:0:0:0:
160,256,15637,1,0,0:0:0:0:
256,48,15787,2,0,L|400:48,1,115
480,160,16087,5,0,0:0:0:0:
480,160,16237,1,0,0:0:0:0:
384,48,16387,1,0,0:0:0:0:
336,240,16537,1,0,0:0:0:0:
247,49,16687,1,0,0:0:0:0:
247,49,16837,1,0,0:0:0:0:
336,256,16987,6,0,L|400:368,1,115
188,121,17287,2,0,L|240:224,1,115
208,352,17587,1,0,0:0:0:0:
208,352,17737,1,0,0:0:0:0:
320,160,17887,1,0,0:0:0:0:
96,160,18037,1,0,0:0:0:0:
336,176,18187,2,0,L|464:176,1,115
480,192,18487,5,0,0:0:0:0:
384,32,18637,1,0,0:0:0:0:
384,32,18712,1,0,0:0:0:0:
384,32,18787,1,0,0:0:0:0:
384,256,18937,5,0,0:0:0:0:
240,32,19087,1,0,0:0:0:0:
480,192,19237,1,0,0:0:0:0:
240,192,19387,5,0,0:0:0:0:
368,48,19537,1,0,0:0:0:0:
160,128,19687,1,0,0:0:0:0:
400,144,19837,1,0,0:0:0:0:
160,16,19987,1,0,0:0:0:0:
352,256,20137,1,0,0:0:0:0:
154,141,20287,2,0,B|121:118|80:112|80:112|71:79|48:64,1,126.500003860474
176,32,20587,5,0,0:0:0:0:
144,256,20737,1,0,0:0:0:0:
288,128,20887,1,0,0:0:0:0:
144,144,21037,1,0,0:0:0:0:
320,256,21187,1,0,0:0:0:0:
352,48,21337,1,0,0:0:0:0:
128,256,21487,2,0,B|97:309|88:341|88:341|105:330|119:331,1,126.500003860474
320,240,21787,5,0,0:0:0:0:
240,384,21937,1,0,0:0:0:0:
464,224,22087,1,0,0:0:0:0:
208,128,22237,1,0,0:0:0:0:
320,256,22387,5,0,0:0:0:0:
400,96,22537,1,0,0:0:0:0:
224,128,22687,1,0,0:0:0:0:
464,240,22837,1,0,0:0:0:0:
232,368,22987,5,0,0:0:0:0:
384,112,23137,1,0,0:0:0:0:
496,384,23287,1,0,0:0:0:0:
208,128,23437,1,0,0:0:0:0:
208,128,23512,1,0,0:0:0:0:
208,128,23587,2,0,B|147:77|147:77|80:48,1,126.500003860474
171,212,23887,2,0,P|267:196|299:148,1,126.500003860474
336,64,24187,5,0,0:0:0:0:
288,176,24337,1,0,0:0:0:0:
400,128,24487,1,0,0:0:0:0:
304,208,24637,1,0,0:0:0:0:
432,224,24787,1,0,0:0:0:0:
304,240,24937,1,0,0:0:0:0:
384,336,25087,1,0,0:0:0:0:
288,256,25237,1,0,0:0:0:0:
240,368,25387,6,0,P|176:336|144:272,1,126.500003860474
144,112,25687,5,0,0:0:0:0:
144,288,25837,1,0,0:0:0:0:
148,93,25987,2,0,P|183:41|240:16,1,126.500003860474
384,192,26287,5,0,0:0:0:0:
128,256,26437,2,0,B|112:192|112:192|121:132,1,126.500003860474
260,21,26737,1,0,0:0:0:0:
400,208,26887,6,0,B|409:267|409:267|393:331,1,126.500003860474
312,262,27187,2,0,B|303:197|303:197|318:138,1,126.500003860474
448,16,27487,1,0,0:0:0:0:
320,112,27637,1,0,0:0:0:0:
403,334,27787,6,0,B|419:270|419:270|409:210,1,126.500003860474
304,112,28087,1,0,0:0:0:0:
192,288,28237,5,0,0:0:0:0:
192,288,28312,1,0,0:0:0:0:
192,288,28387,2,0,B|144:336|144:336|64:336,1,126.500003860474
96,176,28687,2,0,B|144:128|144:128|202:128,1,126.500003860474
344,128,28987,2,0,B|384:128|384:128|416:112|416:112|448:128|448:128|480:128,1,137.999995788574
272,240,29287,5,0,0:0:0:0:
272,32,29437,1,0,0:0:0:0:
384,208,29587,1,0,0:0:0:0:
160,64,29737,1,0,0:0:0:0:
400,224,29887,2,0,P|448:294|463:352,1,137.999995788574
352,128,30187,5,0,0:0:0:0:
256,320,30337,1,0,0:0:0:0:
352,112,30487,2,0,B|400:48|400:48|480:16,1,137.999995788574
400,224,30787,2,0,B|352:288|352:288|272:320,1,137.999995788574
144,304,31087,5,0,0:0:0:0:
336,128,31237,1,0,0:0:0:0:
144,320,31387,1,0,0:0:0:0:
192,144,31537,1,0,0:0:0:0:
272,320,31687,5,0,0:0:0:0:
256,48,31837,1,0,0:0:0:0:
208,240,31987,1,0,0:0:0:0:
80,96,32137,1,0,0:0:0:0:
256,48,32287,5,0,0:0:0:0:
80,224,32437,1,0,0:0:0:0:
320,160,32587,2,0,B|392:142|392:142|432:80,1,137.999995788574
480,16,32887,5,0,0:0:0:0:
464,208,33037,1,0,0:0:0:0:
464,208,33112,1,0,0:0:0:0:
464,208,33187,2,0,B|448:288|448:288|464:368,1,137.999995788574
304,176,33487,5,0,0:0:0:0:
448,352,33637,1,0,0:0:0:0:
288,176,33787,2,0,L|192:64,1,137.999995788574
249,255,34087,6,0,P|329:255|377:191,1,137.999995788574
384,32,34387,1,0,0:0:0:0:
384,208,34537,1,0,0:0:0:0:
208,64,34687,1,0,0:0:0:0:
240,272,34837,1,0,0:0:0:0:
128,176,34987,5,0,0:0:0:0:
368,48,35137,1,0,0:0:0:0:
336,304,35287,1,0,0:0:0:0:
224,80,35437,1,0,0:0:0:0:
400,192,35587,2,0,B|457:241|457:241|480:304,1,137.999995788574
352,304,35887,5,0,0:0:0:0:
352,64,36037,1,0,0:0:0:0:
224,208,36187,2,0,B|190:234|176:272|176:272|148:258|96:272,1,137.999995788574
232,124,36487,2,0,P|299:168|301:248,1,137.999995788574
272,352,36787,5,0,0:0:0:0:
304,224,36937,1,0,0:0:0:0:
112,288,37087,1,0,0:0:0:0:
320,224,37237,1,0,0:0:0:0:
160,96,37387,6,0,B|125:69|96:64|96:64|86:28|52:-12,1,137.999995788574
192,208,37687,1,0,0:0:0:0:
288,16,37837,1,0,0:0:0:0:
416,160,37987,5,0,0:0:0:0:
421,176,38062,1,0,0:0:0:0:
425,193,38137,1,0,0:0:0:0:
429,209,38212,1,0,0:0:0:0:
431,227,38287,1,0,0:0:0:0:
304,32,38437,1,0,0:0:0:0:
208,240,38587,5,0,0:0:0:0:
144,96,38737,1,0,0:0:0:0:
64,320,38887,5,0,0:0:0:0:
208,256,39037,1,0,0:0:0:0:
0,160,39187,5,0,0:0:0:0:
64,304,39337,1,0,0:0:0:0:
144,112,39487,5,0,0:0:0:0:
0,176,39637,1,0,0:0:0:0:
160,128,39787,2,0,B|240:96|240:96|336:96,1,137.999995788574
448,144,40087,5,0,0:0:0:0:
304,80,40237,1,0,0:0:0:0:
464,160,40387,2,0,B|469:245|469:245|440:337,1,137.999995788574
288,224,40687,6,0,B|282:138|282:138|298:88,1,137.999995788574
352,275,40987,2,0,P|288:307|224:275,1,137.999995788574
144,160,41287,1,0,0:0:0:0:
96,304,41437,1,0,0:0:0:0:
160,160,41587,2,0,B|224:96|224:96|272:80,2,137.999995788574
96,320,42037,1,0,0:0:0:0:
176,176,42187,2,0,B|240:112|240:112|288:96,1,137.999995788574
432,64,42487,5,0,0:0:0:0:
368,208,42637,1,0,0:0:0:0:
368,208,42712,1,0,0:0:0:0:
368,208,42787,1,0,0:0:0:0:
432,80,42937,1,0,0:0:0:0:
480,240,43087,1,0,0:0:0:0:
432,96,43237,1,0,0:0:0:0:
352,320,43387,6,0,P|256:352|192:336,1,137.999995788574
237,235,43687,2,0,P|333:203|397:219,1,137.999995788574
464,240,43987,5,0,0:0:0:0:
336,64,44137,1,0,0:0:0:0:
358,335,44287,2,0,P|262:367|198:351,1,137.999995788574
96,272,44587,5,0,0:0:0:0:
208,368,44737,1,0,0:0:0:0:
80,272,44887,2,0,P|48:176|64:112,1,137.999995788574
176,32,45187,5,0,0:0:0:0:
48,128,45337,1,0,0:0:0:0:
208,208,45487,2,0,P|304:208|368:192,1,137.999995788574
169,137,45787,6,0,P|131:233|169:279,1,137.999995788574
419,227,46087,2,0,P|412:160|358:122,1,137.999995788574
176,112,46387,5,0,0:0:0:0:
352,96,46537,1,0,0:0:0:0:
160,96,46687,2,0,B|135:89|96:96|96:96|80:80|80:80|39:87|-16:80,1,137.999995788574
367,89,46987,2,0,B|392:82|431:89|431:89|447:73|447:73|488:80|543:73,1,137.999995788574
256,0,47287,5,0,0:0:0:0:
256,240,47437,1,0,0:0:0:0:
256,240,47512,1,0,0:0:0:0:
256,240,47587,1,0,0:0:0:0:
256,16,47737,5,0,0:0:0:0:
144,192,47887,1,0,0:0:0:0:
256,48,48037,1,0,0:0:0:0:
368,208,48187,6,0,P|400:336|352:224,1,413.999987365723
365,183,48787,2,0,P|477:199|320:239,1,482.99998526001
352,160,49387,5,0,0:0:0:0:
384,48,49537,1,0,0:0:0:0:
256,192,49687,5,0,0:0:0:0:
288,80,49837,1,0,0:0:0:0:
176,112,49987,6,0,B|160:176|160:176|176:240,2,126.500003860474
272,64,50437,1,0,0:0:0:0:
368,352,50587,6,0,B|304:176|496:176|480:48|451:-35|251:0|368:192,2,551.999983154297
464,288,51937,5,0,0:0:0:0:
357,196,52087,2,0,P|322:82|328:37,1,137.999995788574
336,32,52387,5,0,0:0:0:0:
192,128,52537,1,0,0:0:0:0:
352,32,52687,2,0,P|432:16|496:32,1,137.999995788574
347,265,52987,6,0,B|379:294|395:345|395:345|396:272|423:212|423:212|552:130|424:2|280:130|423:212,2,551.999983154297
240,240,54337,5,0,0:0:0:0:
331,264,54487,2,0,P|379:328|392:393,1,137.999995788574
240,240,54787,2,0,P|316:168|401:189,1,137.999995788574
266,326,55087,2,0,P|176:304|154:228,1,137.999995788574
270,154,55387,6,0,P|291:18|318:170,1,413.999987365723
298,247,55987,2,0,B|185:247|148:110|158:78|158:78|269:31|341:117,1,413.999987365723
353,168,56587,2,0,P|413:214|489:227,1,137.999995788574
466,93,56887,5,0,0:0:0:0:
466,93,57037,1,0,0:0:0:0:
448,336,57187,5,0,0:0:0:0:
466,93,57337,1,0,0:0:0:0:
288,256,57487,1,0,0:0:0:0:
466,93,57637,1,0,0:0:0:0:
288,272,57787,2,0,B|235:292|208:320|208:320|159:308|128:320,1,160.99999508667
32,208,58087,5,0,0:0:0:0:
128,320,58237,1,0,0:0:0:0:
144,96,58387,1,0,0:0:0:0:
144,336,58537,1,0,0:0:0:0:
304,112,58687,1,0,0:0:0:0:
416,368,58837,1,0,0:0:0:0:
192,208,58987,5,0,0:0:0:0:
464,160,59137,1,0,0:0:0:0:
192,224,59287,1,0,0:0:0:0:
400,48,59437,1,0,0:0:0:0:
288,304,59587,2,0,B|248:349|192:368|192:368|225:335|242:297,1,160.99999508667
224,64,59887,5,0,0:0:0:0:
416,256,60037,1,0,0:0:0:0:
208,80,60187,2,0,B|163:72|128:48|128:48|91:59|32:32,1,160.99999508667
288,192,60487,5,0,0:0:0:0:
48,64,60637,1,0,0:0:0:0:
80,336,60787,1,0,0:0:0:0:
288,160,60937,1,0,0:0:0:0:
16,224,61087,1,0,0:0:0:0:
288,288,61237,1,0,0:0:0:0:
80,112,61387,1,0,0:0:0:0:
352,48,61537,5,0,0:0:0:0:
160,240,61687,1,0,0:0:0:0:
432,272,61837,5,0,0:0:0:0:
432,272,61912,1,0,0:0:0:0:
432,272,61987,1,0,0:0:0:0:
320,32,62137,1,0,0:0:0:0:
176,272,62287,1,0,0:0:0:0:
416,144,62437,1,0,0:0:0:0:
160,48,62587,2,0,B|126:118|126:118|128:208,1,160.99999508667
400,160,62887,5,0,0:0:0:0:
128,208,63037,1,0,0:0:0:0:
320,288,63187,1,0,0:0:0:0:
176,48,63337,1,0,0:0:0:0:
176,320,63487,1,0,0:0:0:0:
320,80,63637,1,0,0:0:0:0:
128,192,63787,5,0,0:0:0:0:
400,192,63937,1,0,0:0:0:0:
176,32,64087,1,0,0:0:0:0:
112,208,64237,5,0,0:0:0:0:
352,80,64387,1,0,0:0:0:0:
240,320,64537,1,0,0:0:0:0:
176,48,64687,2,0,B|76:58|76:58|16:112,1,160.99999508667
224,336,64987,5,0,0:0:0:0:
16,112,65137,1,0,0:0:0:0:
352,96,65287,6,0,B|466:85|466:85|444:100|429:118,1,160.99999508667
240,336,65587,5,0,0:0:0:0:
208,160,65737,1,0,0:0:0:0:
384,240,65887,1,0,0:0:0:0:
208,192,66037,1,0,0:0:0:0:
384,272,66187,2,0,B|448:286|496:320|496:320|480:272,1,160.99999508667
368,96,66487,5,0,0:0:0:0:
208,208,66637,1,0,0:0:0:0:
208,208,66712,1,0,0:0:0:0:
208,208,66787,1,0,0:0:0:0:
464,176,66937,1,0,0:0:0:0:
224,48,67087,1,0,0:0:0:0:
256,352,67237,5,0,0:0:0:0:
368,66,67387,1,0,0:0:0:0:
208,208,67537,1,0,0:0:0:0:
448,176,67687,5,0,0:0:0:0:
112,128,67837,1,0,0:0:0:0:
320,272,67987,1,0,0:0:0:0:
240,16,68137,1,0,0:0:0:0:
208,224,68287,5,0,0:0:0:0:
32,96,68437,1,0,0:0:0:0:
308,134,68587,1,0,0:0:0:0:
64,224,68737,1,0,0:0:0:0:
240,32,68887,5,0,0:0:0:0:
304,288,69037,1,0,0:0:0:0:
64,224,69187,2,0,B|16:144|16:144|15:54,1,160.99999508667
288,288,69487,5,0,0:0:0:0:
128,128,69637,1,0,0:0:0:0:
400,192,69787,1,0,0:0:0:0:
128,128,69937,1,0,0:0:0:0:
240,384,70087,5,0,0:0:0:0:
384,176,70237,1,0,0:0:0:0:
160,272,70387,1,0,0:0:0:0:
384,336,70537,1,0,0:0:0:0:
272,80,70687,5,0,0:0:0:0:
176,272,70837,1,0,0:0:0:0:
400,192,70987,1,0,0:0:0:0:
128,144,71137,1,0,0:0:0:0:
400,176,71287,1,0,0:0:0:0:
128,160,71437,1,0,0:0:0:0:
288,48,71587,5,0,0:0:0:0:
307,44,71662,1,0,0:0:0:0:
327,40,71737,1,0,0:0:0:0:
347,36,71812,1,0,0:0:0:0:
366,32,71887,1,0,0:0:0:0:
128,176,72037,1,0,0:0:0:0:
400,192,72187,6,0,B|463:203|512:192|512:192|499:231|464:240,1,160.99999508667
144,192,72487,1,0,0:0:0:0:
272,48,72637,1,0,0:0:0:0:
272,240,72787,5,0,0:0:0:0:
256,48,72937,1,0,0:0:0:0:
384,176,73087,1,0,0:0:0:0:
144,176,73237,1,0,0:0:0:0:
400,32,73387,5,0,0:0:0:0:
288,224,73537,1,0,0:0:0:0:
144,64,73687,1,0,0:0:0:0:
80,272,73837,1,0,0:0:0:0:
272,112,73987,5,0,0:0:0:0:
256,336,74137,1,0,0:0:0:0:
379,261,74287,2,0,B|432:234|459:181|459:181|461:210|475:229,1,160.99999508667
480,336,74587,1,0,0:0:0:0:
464,80,74737,1,0,0:0:0:0:
288,208,74887,6,0,P|208:208|112:176,1,160.99999508667
64,32,75187,5,0,0:0:0:0:
128,176,75337,1,0,0:0:0:0:
288,208,75487,1,0,0:0:0:0:
80,32,75637,1,0,0:0:0:0:
128,192,75787,6,0,B|161:280|161:280|160:368,1,160.99999508667
288,192,76087,1,0,0:0:0:0:
160,352,76237,1,0,0:0:0:0:
160,352,76312,1,0,0:0:0:0:
160,352,76387,1,0,0:0:0:0:
128,208,76537,5,0,0:0:0:0:
272,368,76687,1,0,0:0:0:0:
176,80,76837,1,0,0:0:0:0:
384,272,76987,6,0,P|464:317|432:256,3,230
338,173,79387,2,0,B|333:129|351:92|351:92|322:76|300:24|300:24|271:57|296:92,3,230
336,176,81787,2,0,B|336:238|356:283|356:283|296:287|245:323,3,230
131,279,84187,2,0,B|119:314|96:349|96:349|162:317|245:323,1,230
336,176,85387,2,0,P|352:96|288:160,1,230
