osu file format v14

[General]
AudioFilename: audio.mp3
AudioLeadIn: 0
PreviewTime: 57962
Countdown: 0
SampleSet: Drum
StackLeniency: 0.7
Mode: 0
LetterboxInBreaks: 0
SkinPreference:OSU! Lazer 2018.406.0 by DP05
WidescreenStoryboard: 1

[Editor]
DistanceSpacing: 1
BeatDivisor: 4
GridSize: 4
TimelineZoom: 1

[Metadata]
Title:Base After Base
TitleUnicode:Base After Base
Artist:DJVI
ArtistUnicode:DJVI
Creator:M75111
Version:Normal
Source:Geometry Dash
Tags:level 5 song game steam Newgrounds
BeatmapID:1602214
BeatmapSetID:762026

[Difficulty]
HPDrainRate:2
CircleSize:3.8
OverallDifficulty:5
ApproachRate:5
SliderMultiplier:0.9
SliderTickRate:1

[Events]
//Background and Video events
0,0,"bg.jpg",0,0
//Break Periods
//Storyboard Layer 0 (Background)
//Storyboard Layer 1 (Fail)
//Storyboard Layer 2 (Pass)
//Storyboard Layer 3 (Foreground)
//Storyboard Layer 4 (Overlay)
//Storyboard Sound Samples

[TimingPoints]
90,425.531914893617,4,2,1,25,1,0
90,-100,4,2,1,25,0,0
7324,-100,4,2,1,30,0,0
29026,-100,4,2,1,5,0,0
30728,-100,4,3,1,40,0,0
57962,-90.9090909090909,4,3,1,50,0,1
71579,-100,4,3,1,40,0,0
81792,-100,4,3,1,20,0,0
83494,-100,4,2,1,20,0,0
84770,-100,4,2,1,5,0,0

[Colours]
Combo1 : 255,57,9
Combo2 : 255,169,9
Combo3 : 169,83,255
Combo4 : 255,28,79
Combo5 : 255,70,163
Combo6 : 91,91,255

[HitObjects]
440,336,90,6,0,L|432:240,1,90,6|2,0:0|0:0,0:0:0:0:
440,160,941,2,0,L|448:56,1,90,2|0,0:0|0:0,0:0:0:0:
360,40,1792,1,2,0:0:0:0:
272,32,2217,2,0,L|168:32,1,90,0|2,0:0|0:0,0:0:0:0:
88,32,3068,1,0,0:0:0:0:
72,120,3494,1,2,0:0:0:0:
88,208,3919,6,0,P|80:248|88:304,2,90,0|2|0,0:0|0:0|0:0,0:0:0:0:
56,120,5196,1,2,0:0:0:0:
136,72,5621,2,0,L|232:72,1,90,0|2,0:0|0:0,0:0:0:0:
264,152,6472,1,4,0:0:0:0:
224,232,6898,1,4,0:0:0:0:
288,296,7324,5,0,0:0:0:0:
376,296,7749,2,0,B|424:304|424:304|464:296,1,90,2|0,0:0|0:0,0:0:0:0:
464,208,8600,2,0,L|464:104,1,90,2|0,0:0|0:0,0:0:0:0:
464,24,9451,1,2,0:0:0:0:
384,72,9877,1,0,0:0:0:0:
312,24,10302,1,2,0:0:0:0:
232,64,10728,6,0,P|240:112|232:168,1,90,0|2,0:0|0:0,0:0:0:0:
240,240,11579,1,0,0:0:0:0:
160,280,12004,1,2,0:0:0:0:
104,208,12430,2,0,L|96:104,1,90,0|2,0:0|0:0,0:0:0:0:
168,64,13281,2,0,L|272:56,1,90,0|6,0:0|0:0,0:0:0:0:
320,120,14132,6,8,L|416:120,2,90,10|8|8,0:0|0:0|0:0,0:0:0:0:
232,120,15409,1,10,0:0:0:0:
232,32,15834,1,8,0:0:0:0:
320,48,16260,2,8,L|424:40,1,90
408,128,17111,1,14,0:0:0:0:
408,216,17536,6,0,L|408:320,1,90,8|12,0:0|0:0,0:0:0:0:
328,272,18387,1,12,0:0:0:0:
240,296,18813,2,0,L|144:288,2,90,14|8|8,0:0|0:0|0:0,0:0:0:0:
320,256,20090,1,8,0:0:0:0:
320,168,20515,1,14,0:0:0:0:
296,80,20941,6,8,P|264:48|208:32,1,90
136,48,21792,1,8,0:0:0:0:
96,128,22217,2,0,P|88:168|104:224,1,90,14|8,0:0|0:0,0:0:0:0:
184,192,23068,1,8,0:0:0:0:
264,224,23494,2,0,P|312:216|368:232,1,90,8|14,0:0|0:0,0:0:0:0:
440,208,24345,5,8,0:0:0:0:
432,120,24770,2,4,L|424:24,1,90
336,48,25621,2,4,L|240:40,1,90,6|4,0:0|0:0,0:0:0:0:
68,24,26472,1,6,0:0:0:0:
68,24,26685,1,6,0:0:0:0:
116,100,26898,1,6,0:0:0:0:
116,100,27111,1,6,0:0:0:0:
256,192,27324,12,6,29026,0:0:0:0:
464,328,30728,5,4,0:0:0:0:
448,240,31153,1,4,0:0:0:0:
432,152,31579,2,4,L|416:48,1,90
328,88,32430,2,4,L|232:88,1,90,6|4,0:0|0:0,0:0:0:0:
208,176,33281,2,4,L|312:176,1,90
392,176,34132,1,6,0:0:0:0:
392,264,34558,5,4,0:0:0:0:
304,264,34983,2,4,L|208:264,1,90
136,304,35834,2,4,L|40:304,1,90,6|4,0:0|0:0,0:0:0:0:
72,216,36685,2,4,L|80:112,1,90
88,40,37536,1,6,0:0:0:0:
176,40,37962,1,4,0:0:0:0:
264,40,38387,1,4,0:0:0:0:
352,40,38813,1,4,0:0:0:0:
384,120,39238,5,6,0:0:0:0:
384,120,39451,1,6,0:0:0:0:
384,120,39664,1,6,0:0:0:0:
408,208,40090,1,6,0:0:0:0:
408,208,40302,1,6,0:0:0:0:
408,208,40515,1,6,0:0:0:0:
352,280,40941,1,6,0:0:0:0:
264,248,41366,6,4,L|168:248,1,90
144,160,42217,2,4,L|248:160,1,90,4|6,0:0|0:0,0:0:0:0:
312,120,43068,2,4,L|408:120,2,90
224,120,44345,1,6,0:0:0:0:
144,72,44770,6,4,L|40:64,1,90,6|4,0:0|0:0,0:0:0:0:
56,152,45621,2,4,L|64:248,1,90,6|4,0:0|0:0,0:0:0:0:
72,328,46472,1,6,0:0:0:0:
160,312,46898,2,4,L|256:320,1,90,4|6,0:0|0:0,0:0:0:0:
328,280,47749,1,6,0:0:0:0:
408,312,48175,6,4,L|504:312,2,90,6|4|6,0:0|0:0|0:0,0:0:0:0:
320,312,49451,1,4,0:0:0:0:
368,232,49877,1,6,0:0:0:0:
320,152,50302,1,4,0:0:0:0:
368,72,50728,1,6,0:0:0:0:
320,0,51153,1,6,0:0:0:0:
232,32,51579,6,4,L|136:24,1,90,6|4,0:0|0:0,0:0:0:0:
96,104,52430,2,4,L|200:112,1,90,6|4,0:0|0:0,0:0:0:0:
272,120,53281,1,6,0:0:0:0:
216,192,53707,1,4,0:0:0:0:
256,272,54132,2,4,L|256:368,1,90,6|6,0:0|0:0,0:0:0:0:
168,360,54983,5,6,0:0:0:0:
88,320,55409,2,4,P|80:272|104:216,1,90,4|6,0:0|0:0,0:0:0:0:
160,176,56260,2,4,P|168:128|144:72,1,90,4|6,0:0|0:0,0:0:0:0:
24,212,57111,1,6,0:0:0:0:
24,212,57324,1,10,0:0:0:0:
100,264,57536,1,6,0:0:0:0:
100,264,57749,1,10,0:0:0:0:
128,168,57962,6,4,L|332:168,1,198.000006042481,6|4,0:0|0:0,0:0:0:0:
416,124,59238,1,6,0:0:0:0:
388,220,59664,2,4,L|388:332,1,99.0000030212403,4|6,0:0|0:0,0:0:0:0:
296,352,60515,1,4,0:0:0:0:
216,296,60941,1,6,0:0:0:0:
132,348,61366,1,6,0:0:0:0:
56,284,61792,6,4,L|56:184,1,99.0000030212403,6|4,0:0|0:0,0:0:0:0:
148,140,62643,2,4,L|148:40,1,99.0000030212403,6|4,0:0|0:0,0:0:0:0:
252,28,63494,1,6,0:0:0:0:
348,12,63919,1,4,0:0:0:0:
440,52,64345,2,4,P|448:100|432:160,1,99.0000030212403,6|6,0:0|0:0,0:0:0:0:
412,244,65196,1,6,0:0:0:0:
332,188,65621,1,4,0:0:0:0:
328,288,66047,1,6,0:0:0:0:
264,364,66472,5,6,1:0:0:0:
216,364,66685,1,2,1:0:0:0:
168,364,66898,1,2,1:0:0:0:
108,284,67324,1,6,1:0:0:0:
60,284,67536,1,2,1:0:0:0:
12,284,67749,1,2,1:0:0:0:
76,208,68175,1,4,0:0:0:0:
68,108,68600,6,4,L|60:8,2,99.0000030212403,6|4|6,0:0|0:0|0:0,0:0:0:0:
180,108,69877,2,4,L|288:104,1,99.0000030212403,4|6,0:0|0:0,0:0:0:0:
368,144,70728,1,6,0:0:0:0:
452,96,71153,1,6,0:0:0:0:
372,56,71579,6,0,L|276:56,1,90,14|8,0:0|0:0,0:0:0:0:
176,72,72430,1,12,0:0:0:0:
232,144,72855,2,0,L|328:144,1,90,8|14,0:0|0:0,0:0:0:0:
416,144,73707,1,14,0:0:0:0:
392,232,74132,1,14,0:0:0:0:
424,312,74558,1,12,0:0:0:0:
336,304,74983,6,0,P|296:296|248:304,1,90,14|8,0:0|0:0,0:0:0:0:
160,328,75834,2,0,P|120:336|64:224,2,180,8|14|8,0:0|0:0|0:0,0:0:0:0:
232,280,77962,1,12,0:0:0:0:
312,240,78387,6,0,L|312:144,1,90,14|8,0:0|0:0,0:0:0:0:
224,128,79238,2,0,L|224:32,1,90,12|8,0:0|0:0,0:0:0:0:
312,32,80090,6,0,L|312:128,1,90,14|8,0:0|0:0,0:0:0:0:
392,168,80941,2,0,L|392:264,1,90,12|8,0:0|0:0,0:0:0:0:
392,352,81792,5,14,0:0:0:0:
304,352,82217,2,0,L|200:352,1,90,12|14,0:0|0:0,0:0:0:0:
168,352,82855,2,0,P|158:311|168:258,1,90,14|14,0:0|0:0,0:0:0:0:
256,192,83494,12,2,84770,0:0:0:0:
