osu file format v14

[General]
AudioFilename: audio.mp3
AudioLeadIn: 0
PreviewTime: 57962
Countdown: 0
SampleSet: Soft
StackLeniency: 0.7
Mode: 0
LetterboxInBreaks: 0
SkinPreference:OSU! Lazer 2018.406.0 by DP05
WidescreenStoryboard: 1

[Editor]
DistanceSpacing: 1
BeatDivisor: 4
GridSize: 4
TimelineZoom: 1

[Metadata]
Title:Base After Base
TitleUnicode:Base After Base
Artist:DJVI
ArtistUnicode:DJVI
Creator:M75111
Version:Easy
Source:Geometry Dash
Tags:level 5 song game steam Newgrounds
BeatmapID:1602212
BeatmapSetID:762026

[Difficulty]
HPDrainRate:2
CircleSize:3
OverallDifficulty:5
ApproachRate:2.5
SliderMultiplier:0.8
SliderTickRate:1

[Events]
//Background and Video events
0,0,"bg.jpg",0,0
//Break Periods
//Storyboard Layer 0 (Background)
//Storyboard Layer 1 (Fail)
//Storyboard Layer 2 (Pass)
//Storyboard Layer 3 (Foreground)
//Storyboard Sound Samples

[TimingPoints]
90,425.531914893617,4,2,1,25,1,0
90,-100,4,2,1,25,0,0
7324,-100,4,2,1,30,0,0
29026,-100,4,2,1,5,0,0
30728,-100,4,3,1,40,0,0
57962,-90.9090909090909,4,3,1,50,0,1
71579,-100,4,3,1,40,0,0
81792,-100,4,3,1,20,0,0
83494,-100,4,2,1,20,0,0
84770,-100,4,2,1,5,0,0

[Colours]
Combo1 : 255,57,9
Combo2 : 255,169,9
Combo3 : 169,83,255
Combo4 : 255,28,79
Combo5 : 255,70,163
Combo6 : 91,91,255

[HitObjects]
96,328,90,6,0,L|272:320,1,160,6|2,0:0|0:0,0:0:0:0:
336,320,1366,1,0,0:0:0:0:
336,240,1792,2,0,B|336:192|336:192|360:128|360:128|352:72,2,160,2|2|2,0:0|0:0|0:0,0:0:0:0:
266,279,3919,6,0,B|194:255|194:255|98:279,1,160,2|2,0:0|0:0,0:0:0:0:
45,231,5196,1,2,0:0:0:0:
41,151,5621,1,0,0:0:0:0:
41,70,6047,2,0,P|80:64|124:76,1,80,2|4,0:0|0:0,0:0:0:0:
196,52,6898,1,6,0:0:0:0:
275,76,7324,6,0,P|347:92|443:60,1,160,2|2,0:0|0:0,0:0:0:0:
465,140,8600,2,0,L|465:228,1,80,2|0,0:0|0:0,0:0:0:0:
448,300,9451,1,2,0:0:0:0:
368,312,9877,2,0,L|272:312,1,80,0|2,0:0|0:0,0:0:0:0:
208,312,10728,6,0,P|224:240|200:152,1,160,2|2,0:0|0:0,0:0:0:0:
184,80,12004,1,2,0:0:0:0:
104,64,12430,2,0,P|32:72|16:152,1,160,0|2,0:0|0:0,0:0:0:0:
24,224,13707,1,6,0:0:0:0:
104,216,14132,6,8,L|280:224,1,160
304,144,15409,2,8,L|128:136,1,160
64,136,16685,1,8,0:0:0:0:
64,56,17111,1,14,0:0:0:0:
144,64,17536,6,0,L|144:232,1,160,8|12,0:0|0:0,0:0:0:0:
224,224,18813,2,0,L|224:64,1,160,14|8,0:0|0:0,0:0:0:0:
304,64,20090,2,0,L|304:152,1,80,8|14,0:0|0:0,0:0:0:0:
304,224,20941,6,0,P|320:280|432:208,1,240,8|14,0:0|0:0,0:0:0:0:
432,136,22643,1,8,0:0:0:0:
416,56,23068,2,0,L|256:56,1,160,8|14,0:0|0:0,0:0:0:0:
208,120,24345,2,8,L|40:120,1,160,8|12,0:0|0:0,0:0:0:0:
40,200,25621,2,0,P|40:248|136:296,1,160,14|14,0:0|0:0,0:0:0:0:
208,296,26898,1,14,0:0:0:0:
256,192,27324,12,6,29026,0:0:0:0:
376,64,30728,6,4,L|384:224,2,160,6|4|6,0:0|0:0|0:0,0:0:0:0:
296,40,32855,2,4,L|200:40,1,80
136,40,33707,1,4,0:0:0:0:
56,40,34132,1,6,0:0:0:0:
72,120,34558,6,4,P|96:184|56:272,1,160
136,304,35834,2,4,P|216:280|296:312,1,160,6|4,0:0|0:0,0:0:0:0:
368,312,37111,2,4,P|416:320|448:304,1,80,4|6,0:0|0:0,0:0:0:0:
448,224,37962,2,4,L|440:56,1,160
360,64,39238,6,6,B|304:64|304:64|256:56|256:56|192:64,1,160
120,64,40515,1,6,0:0:0:0:
40,64,40941,1,6,0:0:0:0:
40,144,41366,6,4,L|200:136,1,160
280,128,42643,1,6,0:0:0:0:
240,56,43068,2,4,P|160:32|88:64,1,160
96,144,44345,1,6,0:0:0:0:
176,136,44770,6,0,P|256:160|336:128,1,160,6|6,0:0|0:0,0:0:0:0:
400,112,46047,2,4,P|416:192|376:264,2,160,6|4|6,0:0|0:0|0:0,0:0:0:0:
336,64,48175,6,4,L|176:64,1,160,6|6,0:0|0:0,0:0:0:0:
96,64,49451,2,4,B|96:144|96:144|56:224,1,160,6|4,0:0|0:0,0:0:0:0:
96,288,50728,1,6,0:0:0:0:
176,288,51153,1,6,0:0:0:0:
256,288,51579,6,4,P|328:272|416:296,1,160,6|6,0:0|0:0,0:0:0:0:
416,208,52855,2,4,P|336:192|248:208,2,160,6|4|6,0:0|0:0|0:0,0:0:0:0:
420,128,54983,6,4,P|396:56|308:40,1,160,6|6,0:0|0:0,0:0:0:0:
240,40,56260,1,6,0:0:0:0:
160,40,56685,2,4,B|120:40|120:40|88:24|88:24|48:40|48:40|0:40,1,160,6|6,0:0|0:0,0:0:0:0:
32,128,57962,6,4,L|40:312,1,176.000005371094,6|4,0:0|0:0,0:0:0:0:
128,296,59238,1,6,0:0:0:0:
120,208,59664,2,4,L|112:32,2,176.000005371094,6|4|6,0:0|0:0|0:0,0:0:0:0:
64,280,61792,6,4,P|152:336|208:296,1,176.000005371094,6|6,0:0|0:0,0:0:0:0:
248,232,63068,2,4,P|328:192|408:248,1,176.000005371094,6|4,0:0|0:0,0:0:0:0:
404,320,64345,1,6,0:0:0:0:
312,320,64770,1,6,0:0:0:0:
312,232,65196,6,4,L|304:40,1,176.000005371094,6|6,0:0|0:0,0:0:0:0:
216,56,66472,2,6,B|144:48|144:48|112:64|40:64,2,176.000005371094
304,40,68600,5,6,0:0:0:0:
392,64,69026,1,4,0:0:0:0:
384,152,69451,1,6,0:0:0:0:
376,240,69877,2,4,P|352:256|208:216,1,176.000005371094,6|6,0:0|0:0,0:0:0:0:
232,144,71153,2,4,P|272:120|312:120,1,88.000002685547,6|14,0:0|0:0,0:0:0:0:
392,112,72004,5,14,0:0:0:0:
400,192,72430,1,14,0:0:0:0:
408,272,72855,1,12,0:0:0:0:
328,272,73281,6,0,L|152:272,1,160,14|12,0:0|0:0,0:0:0:0:
88,272,74558,1,8,0:0:0:0:
104,192,74983,6,0,L|128:32,1,160,14|12,0:0|0:0,0:0:0:0:
208,32,76260,1,8,0:0:0:0:
288,32,76685,6,0,P|368:64|440:32,1,160,14|12,0:0|0:0,0:0:0:0:
480,104,77962,1,12,0:0:0:0:
440,176,78387,5,14,0:0:0:0:
376,128,78813,1,14,0:0:0:0:
368,48,79238,1,14,0:0:0:0:
168,32,80090,5,14,0:0:0:0:
168,112,80515,1,14,0:0:0:0:
168,192,80941,1,14,0:0:0:0:
168,272,81366,1,12,0:0:0:0:
168,352,81792,5,14,0:0:0:0:
240,320,82217,2,0,P|328:296|408:320,1,160,12|8,0:0|0:0,0:0:0:0:
256,192,83494,12,2,84770,0:0:0:0:
