osu file format v14

[General]
AudioFilename: audio.mp3
AudioLeadIn: 0
PreviewTime: -1
Countdown: 1
SampleSet: None
StackLeniency: 0.7
Mode: 0
LetterboxInBreaks: 0
WidescreenStoryboard: 0

[Editor]
DistanceSpacing: 1.6
BeatDivisor: 4
GridSize: 8
TimelineZoom: 2.1

[Metadata]
Title:Music is my Saviour (OSU Edit) - S3RL feat Mixie Moon
TitleUnicode:Music is my Saviour (OSU Edit) - S3RL feat Mixie Moon
Artist:DJS3RL
ArtistUnicode:DJS3RL
Creator:Swash
Version:Insane
Source:
Tags:happy hardcore techno rave I'm pickle RIIICK
BeatmapID:1407867
BeatmapSetID:665204

[Difficulty]
HPDrainRate:6
CircleSize:4
OverallDifficulty:6
ApproachRate:9
SliderMultiplier:1.6
SliderTickRate:1

[Events]
//Background and Video events
0,0,"Music-is-my-Saviour---OSU.jpg",0,0
//Break Periods
//Storyboard Layer 0 (Background)
//Storyboard Layer 1 (Fail)
//Storyboard Layer 2 (Pass)
//Storyboard Layer 3 (Foreground)
//Storyboard Sound Samples

[TimingPoints]
2753,342.857142857143,4,1,0,80,1,0
5838,-100,4,2,0,60,0,0
8238,-100,4,1,0,80,0,0
11324,-100,4,2,0,60,0,0
24695,-100,4,3,0,60,0,0
35667,-100,4,1,0,80,0,0

[HitObjects]
56,112,2752,6,0,L|144:88,1,80
352,128,3267,1,0,0:0:0:0:
80,320,3781,1,0,0:0:0:0:
416,320,4295,1,0,0:0:0:0:
184,80,4810,1,0,0:0:0:0:
248,296,5153,1,0,0:0:0:0:
416,144,5495,1,0,0:0:0:0:
176,160,6010,5,0,0:0:0:0:
400,248,6524,2,0,P|416:192|416:160,1,80
280,256,7038,2,0,P|264:312|264:344,1,80
336,192,7553,2,0,L|272:136,1,80
272,56,7895,2,0,L|176:56,1,80
128,104,8238,5,0,0:0:0:0:
376,328,8753,1,0,0:0:0:0:
480,8,9267,1,0,0:0:0:0:
480,344,9781,1,0,0:0:0:0:
144,344,10295,1,0,0:0:0:0:
144,119,10638,1,0,0:0:0:0:
336,240,10981,1,0,0:0:0:0:
264,96,11324,5,0,0:0:0:0:
232,168,11495,1,0,0:0:0:0:
312,160,11667,1,0,0:0:0:0:
472,192,12010,2,0,L|392:152,1,80
352,88,12353,1,0,0:0:0:0:
272,88,12524,2,0,L|192:48,1,80
112,112,13038,2,0,L|144:208,1,80
64,232,13381,2,0,L|-8:176,1,80
24,96,13724,5,0,0:0:0:0:
224,368,14238,1,0,0:0:0:0:
368,64,14753,1,0,0:0:0:0:
112,280,15267,1,0,0:0:0:0:
448,248,15781,1,0,0:0:0:0:
232,184,16124,1,0,0:0:0:0:
408,320,16467,1,0,0:0:0:0:
248,320,16810,5,0,0:0:0:0:
176,288,16981,1,0,0:0:0:0:
96,304,17153,1,0,0:0:0:0:
192,176,17495,2,0,L|208:96,1,80
360,48,18010,2,0,L|344:136,1,80
272,272,18524,2,0,L|200:320,1,80
128,320,18867,2,0,L|56:272,1,80
40,200,19210,5,0,0:0:0:0:
376,216,19724,1,0,0:0:0:0:
56,120,20238,1,0,0:0:0:0:
328,320,20753,1,0,0:0:0:0:
144,40,21267,1,0,0:0:0:0:
208,256,21610,1,0,0:0:0:0:
232,32,21953,1,0,0:0:0:0:
152,128,24695,5,0,0:0:0:0:
352,224,25038,1,0,0:0:0:0:
160,344,25381,1,0,0:0:0:0:
352,224,25724,1,0,0:0:0:0:
432,16,26067,1,0,0:0:0:0:
352,224,26410,1,0,0:0:0:0:
152,120,26753,1,0,0:0:0:0:
375,120,27095,1,0,0:0:0:0:
375,344,27438,5,0,0:0:0:0:
264,344,27610,1,0,0:0:0:0:
150,344,27781,1,0,0:0:0:0:
150,119,28124,1,0,0:0:0:0:
261,119,28295,1,0,0:0:0:0:
373,119,28467,1,0,0:0:0:0:
214,277,28810,1,0,0:0:0:0:
325,277,28981,1,0,0:0:0:0:
264,184,29153,1,0,0:0:0:0:
56,112,29495,1,0,0:0:0:0:
152,176,29667,1,0,0:0:0:0:
160,64,29838,1,0,0:0:0:0:
336,208,30181,5,0,0:0:0:0:
448,176,30353,1,0,0:0:0:0:
424,288,30524,1,0,0:0:0:0:
312,320,30695,1,0,0:0:0:0:
224,248,30867,1,0,0:0:0:0:
248,136,31038,1,0,0:0:0:0:
352,104,31210,1,0,0:0:0:0:
352,104,31381,5,0,0:0:0:0:
464,80,31553,1,0,0:0:0:0:
440,192,31724,1,0,0:0:0:0:
328,224,31895,1,0,0:0:0:0:
240,152,32067,1,0,0:0:0:0:
264,40,32238,1,0,0:0:0:0:
368,8,32410,1,0,0:0:0:0:
368,8,32581,1,0,0:0:0:0:
368,8,32753,1,0,0:0:0:0:
408,112,32924,5,0,0:0:0:0:
392,148,33009,1,0,0:0:0:0:
365,177,33095,1,0,0:0:0:0:
329,194,33181,1,0,0:0:0:0:
289,197,33266,1,0,0:0:0:0:
251,185,33352,1,0,0:0:0:0:
219,161,33438,1,0,0:0:0:0:
198,127,33523,1,0,0:0:0:0:
224,80,33610,5,0,0:0:0:0:
203,46,33695,1,0,0:0:0:0:
171,21,33781,1,0,0:0:0:0:
133,10,33867,1,0,0:0:0:0:
93,13,33952,1,0,0:0:0:0:
57,30,34038,1,0,0:0:0:0:
30,59,34124,1,0,0:0:0:0:
14,95,34209,1,0,0:0:0:0:
256,192,34295,12,0,35495,0:0:0:0:
136,152,35667,6,0,L|224:120,1,80
336,144,36010,1,0,0:0:0:0:
464,112,36181,1,0,0:0:0:0:
306,218,36353,2,0,L|338:138,1,80
464,112,36695,2,0,L|432:200,1,80
400,312,37038,1,0,0:0:0:0:
272,280,37210,2,0,L|192:256,1,80
72,288,37553,1,0,0:0:0:0:
24,168,37724,2,0,L|0:72,1,80
104,168,38067,2,0,L|128:248,1,80
224,336,38410,2,0,L|200:240,1,80
240,136,38753,5,0,0:0:0:0:
336,224,38924,1,0,0:0:0:0:
376,104,39095,1,0,0:0:0:0:
464,192,39267,1,0,0:0:0:0:
344,160,39438,1,0,0:0:0:0:
400,280,39610,1,0,0:0:0:0:
280,240,39781,1,0,0:0:0:0:
336,360,39953,1,0,0:0:0:0:
216,328,40124,1,0,0:0:0:0:
88,352,40295,1,0,0:0:0:0:
152,240,40467,2,0,L|104:168,1,80
232,192,40810,2,0,L|280:264,1,80
368,168,41153,5,0,0:0:0:0:
496,168,41324,1,0,0:0:0:0:
424,64,41495,1,0,0:0:0:0:
295,64,41667,1,0,0:0:0:0:
295,191,41838,1,0,0:0:0:0:
166,191,42010,1,0,0:0:0:0:
166,63,42181,1,0,0:0:0:0:
37,63,42353,1,0,0:0:0:0:
166,63,42524,1,0,0:0:0:0:
293,63,42695,1,0,0:0:0:0:
383,153,42867,1,0,0:0:0:0:
256,184,43038,1,0,0:0:0:0:
184,288,43210,1,0,0:0:0:0:
311,288,43381,1,0,0:0:0:0:
401,197,43553,1,0,0:0:0:0:
401,69,43724,1,0,0:0:0:0:
272,64,43895,2,0,P|280:120|304:160,1,80
401,197,44238,6,0,P|408:240|400:288,1,80
304,360,44581,2,0,P|297:317|305:269,1,80
408,352,44924,1,0,0:0:0:0:
304,280,45095,1,0,0:0:0:0:
192,344,45267,1,0,0:0:0:0:
80,280,45438,1,0,0:0:0:0:
192,224,45610,1,0,0:0:0:0:
192,96,45781,1,0,0:0:0:0:
72,144,45953,2,0,L|16:224,1,80
304,144,46295,2,0,L|360:224,1,80
192,144,46638,6,0,L|192:48,1,80
192,192,46981,1,0,0:0:0:0:
192,320,47153,2,0,L|192:240,1,80
192,360,47495,1,0,0:0:0:0:
320,360,47667,2,0,L|232:360,1,80
368,360,48010,1,0,0:0:0:0:
368,232,48181,2,0,L|368:312,1,80
368,184,48524,1,0,0:0:0:0:
368,56,48695,2,0,L|368:144,1,80
239,136,49038,2,0,L|240:56,1,80
111,56,49381,2,0,L|112:152,1,80
176,248,49724,5,0,0:0:0:0:
304,248,49895,1,0,0:0:0:0:
200,320,50067,1,0,0:0:0:0:
240,200,50238,1,0,0:0:0:0:
280,320,50410,1,0,0:0:0:0:
176,248,50581,1,0,0:0:0:0:
304,248,50753,1,0,0:0:0:0:
200,320,50924,1,0,0:0:0:0:
240,200,51095,1,0,0:0:0:0:
280,320,51267,1,0,0:0:0:0:
368,224,51438,2,0,P|408:192|448:176,1,80
464,304,51781,2,0,P|432:328|384:344,1,80
272,304,52124,6,0,L|192:272,1,80
272,176,52467,1,0,0:0:0:0:
197,274,52638,2,0,L|133:210,1,80
272,176,52981,1,0,0:0:0:0:
144,208,53153,2,0,L|144:104,1,80
264,176,53495,1,0,0:0:0:0:
144,128,53667,2,0,L|208:64,1,80
264,176,54010,1,0,0:0:0:0:
392,184,54181,2,0,P|424:240|432:272,1,80
304,280,54524,2,0,L|240:328,1,80
112,344,54867,2,0,P|120:304|144:256,1,80
168,248,55124,5,0,0:0:0:0:
192,216,55210,1,0,0:0:0:0:
192,176,55295,1,0,0:0:0:0:
168,144,55381,1,0,0:0:0:0:
168,64,55553,5,0,0:0:0:0:
208,56,55638,1,0,0:0:0:0:
248,56,55724,1,0,0:0:0:0:
288,72,55810,1,0,0:0:0:0:
304,104,55895,1,0,0:0:0:0:
312,144,55981,1,0,0:0:0:0:
304,184,56067,1,0,0:0:0:0:
312,264,56238,5,0,0:0:0:0:
336,240,57610,6,0,L|392:176,1,80
264,192,57953,2,0,L|200:272,1,80
88,264,58295,1,0,0:0:0:0:
168,368,58467,1,0,0:0:0:0:
216,248,58638,1,0,0:0:0:0:
136,144,58810,1,0,0:0:0:0:
264,176,58981,6,0,P|288:208|304:264,1,80
376,352,59324,2,0,P|416:360|472:352,1,80
416,232,59667,1,0,0:0:0:0:
472,120,59838,1,0,0:0:0:0:
344,136,60010,1,0,0:0:0:0:
240,64,60181,1,0,0:0:0:0:
128,136,60353,5,0,0:0:0:0:
72,248,60524,1,0,0:0:0:0:
0,144,60695,1,0,0:0:0:0:
56,32,60867,1,0,0:0:0:0:
128,136,61038,2,0,L|176:200,2,80
248,96,61553,1,0,0:0:0:0:
264,224,61724,6,0,P|232:272|168:296,1,120
152,288,62067,1,0,0:0:0:0:
264,352,62238,1,0,0:0:0:0:
352,256,62410,1,0,0:0:0:0:
464,312,62581,1,0,0:0:0:0:
408,192,62753,1,0,0:0:0:0:
360,312,62924,1,0,0:0:0:0:
296,200,63095,5,0,0:0:0:0:
248,320,63267,1,0,0:0:0:0:
168,216,63438,2,0,L|80:192,1,80
208,136,63781,2,0,L|296:112,1,80
168,64,64124,2,0,L|72:32,1,80
64,160,64467,5,0,0:0:0:0:
16,40,64638,1,0,0:0:0:0:
128,104,64810,1,0,0:0:0:0:
16,40,64981,1,0,0:0:0:0:
144,24,65153,1,0,0:0:0:0:
232,112,65324,1,0,0:0:0:0:
352,168,65495,1,0,0:0:0:0:
392,288,65667,1,0,0:0:0:0:
264,272,65838,6,0,B|248:224|224:200|224:200|168:256|168:256|120:208|120:208|104:232|104:232|80:288,1,320
168,200,66695,1,0,0:0:0:0:
160,72,66867,2,0,L|168:184,1,80
160,280,67210,6,0,P|216:264|240:160,1,160
288,56,67724,1,0,0:0:0:0:
352,168,67895,2,0,L|392:264,1,80
312,352,68238,1,0,0:0:0:0:
440,360,68410,1,0,0:0:0:0:
464,232,68581,6,0,L|480:152,1,80
400,48,68924,2,0,L|416:152,1,80
288,152,69267,1,0,0:0:0:0:
168,104,69438,1,0,0:0:0:0:
184,232,69610,2,0,L|152:312,1,80
104,192,69953,6,0,P|72:144|88:32,1,160
192,104,70467,1,0,0:0:0:0:
320,112,70638,1,0,0:0:0:0:
248,216,70810,1,0,0:0:0:0:
192,104,70981,1,0,0:0:0:0:
320,112,71153,1,0,0:0:0:0:
248,216,71324,5,0,0:0:0:0:
256,88,71495,1,0,0:0:0:0:
368,152,71667,1,0,0:0:0:0:
240,152,71838,1,0,0:0:0:0:
136,80,72010,2,0,L|48:48,2,80
264,72,72524,1,0,0:0:0:0:
328,184,72695,6,0,P|304:224|184:240,1,160
112,152,73210,1,0,0:0:0:0:
128,280,73381,1,0,0:0:0:0:
112,152,73553,1,0,0:0:0:0:
128,280,73724,1,0,0:0:0:0:
112,152,73895,1,0,0:0:0:0:
40,256,74067,5,0,0:0:0:0:
112,152,74238,1,0,0:0:0:0:
240,128,74410,2,0,L|320:120,1,80
424,192,74753,2,0,L|328:208,1,80
264,304,75095,2,0,L|360:288,1,80
464,320,75438,5,0,0:0:0:0:
424,200,75610,1,0,0:0:0:0:
336,288,75781,1,0,0:0:0:0:
304,160,75953,1,0,0:0:0:0:
208,240,76124,2,0,L|128:256,1,80
24,176,76467,2,0,L|120:152,1,80
200,72,76810,5,0,0:0:0:0:
304,144,76981,1,0,0:0:0:0:
416,88,77153,1,0,0:0:0:0:
376,208,77324,1,0,0:0:0:0:
264,264,77495,1,0,0:0:0:0:
376,208,77667,1,0,0:0:0:0:
416,88,77838,1,0,0:0:0:0:
376,208,78010,1,0,0:0:0:0:
256,192,78181,12,0,79553,0:0:0:0:
256,192,79638,12,0,87781,2:0:0:0:
