osu file format v14

[General]
AudioFilename: audio.mp3
AudioLeadIn: 0
PreviewTime: -1
Countdown: 0
SampleSet: None
StackLeniency: 0.7
Mode: 3
LetterboxInBreaks: 0
SpecialStyle: 0
WidescreenStoryboard: 0

[Editor]
DistanceSpacing: 1
BeatDivisor: 4
GridSize: 4
TimelineZoom: 1

[Metadata]
Title:Last First Kingdom
TitleUnicode:Last First Kingdom
Artist:DJKurara
ArtistUnicode:DJKurara
Creator:-Fareoh-
Version:Insane
Source:
Tags:
BeatmapID:1342811
BeatmapSetID:630058

[Difficulty]
HPDrainRate:7
CircleSize:4
OverallDifficulty:6
ApproachRate:5
SliderMultiplier:1.4
SliderTickRate:1

[Events]
//Background and Video events
0,0,"Cute-Anime-Girl-Waiting-Wallpaper.jpg",0,0
//Break Periods
//Storyboard Layer 0 (Background)
//Storyboard Layer 1 (Fail)
//Storyboard Layer 2 (Pass)
//Storyboard Layer 3 (Foreground)
//Storyboard Sound Samples

[TimingPoints]
977,260.869565217391,4,1,0,20,1,0
977,-111.111111111111,4,1,0,20,0,0
8803,-66.6666666666667,4,1,0,20,0,0
8868,-400,4,1,0,20,0,0
8933,-66.6666666666667,4,1,0,20,0,0
8998,-400,4,1,0,20,0,0
9063,-66.6666666666667,4,1,0,20,0,0
9129,-400,4,1,0,20,0,0
9194,-100,4,1,0,20,0,0
9259,-66.6666666666667,4,1,0,20,0,0
9324,-400,4,1,0,20,0,0
9390,-100,4,1,0,20,0,0
9585,-105.263157894737,4,1,0,20,0,0
15455,-100,4,1,0,20,0,0
15911,-133.333333333333,4,1,0,20,0,0
16107,-100,4,1,0,20,0,0
16563,-66.6666666666667,4,1,0,20,0,0
16563,-111.111111111111,4,1,0,20,0,0
16629,-133.333333333333,4,1,0,20,0,0
16694,-66.6666666666667,4,1,0,20,0,0
16759,-133.333333333333,4,1,0,20,0,0
16824,-66.6666666666667,4,1,0,20,0,0
16890,-133.333333333333,4,1,0,20,0,0
16955,-111.111111111111,4,1,0,20,0,0
17411,-105.263157894737,4,1,0,20,0,0
17542,-100,4,1,0,20,0,0
25433,-400,4,1,0,20,0,0
25498,-66.6666666666667,4,1,0,20,0,0
25563,-400,4,1,0,20,0,0
25629,-66.6666666666667,4,1,0,20,0,0
25694,-400,4,1,0,20,0,0
25759,-66.6666666666667,4,1,0,20,0,0
25824,-400,4,1,0,20,0,0
25890,-66.6666666666667,4,1,0,20,0,0
25955,-400,4,1,0,20,0,0
26020,-66.6666666666667,4,1,0,20,0,0
26085,-100,4,1,0,20,0,0
34172,-400,4,1,0,20,0,0
34237,-2000,4,1,0,20,0,0
34368,-133.333333333333,4,1,0,20,0,0
34433,-100,4,1,0,20,0,0
38346,-133.333333333333,4,1,0,20,0,0
38411,-66.6666666666667,4,1,0,20,0,0
38542,-133.333333333333,4,1,0,20,0,0
38607,-66.6666666666667,4,1,0,20,0,0
38737,-133.333333333333,4,1,0,20,0,0
38803,-100,4,1,0,20,0,0
41216,-66.6666666666667,4,1,0,20,0,0
41411,-133.333333333333,4,1,0,20,0,0
41476,-100,4,1,0,20,0,0
42063,-133.333333333333,4,1,0,20,0,0
42129,-66.6666666666667,4,1,0,20,0,0
42194,-400,4,1,0,20,0,0
42259,-66.6666666666667,4,1,0,20,0,0
42324,-100,4,1,0,20,0,0
42455,-66.6666666666667,4,1,0,20,0,0
42650,-100,4,1,0,20,0,0
46759,-66.6666666666667,4,1,0,20,0,0
46824,-400,4,1,0,20,0,0
46890,-2000,4,1,0,20,0,0
47020,-100,4,1,0,20,0,0
50933,-133.333333333333,4,1,0,20,0,0
50998,-400,4,1,0,20,0,0
51063,-100,4,1,0,20,0,0
57129,-66.6666666666667,4,1,0,20,0,0
57194,-133.333333333333,4,1,0,20,0,0
57259,-400,4,1,0,20,0,0
57324,-66.6666666666667,4,1,0,20,0,0
57390,-100,4,1,0,20,0,0
58107,-66.6666666666667,4,1,0,20,0,0
58172,-400,4,1,0,20,0,0
58237,-66.6666666666667,4,1,0,20,0,0
58303,-400,4,1,0,20,0,0
58368,-66.6666666666667,4,1,0,20,0,0
58433,-100,4,1,0,20,0,0
58498,-133.333333333333,4,1,0,20,0,0
58563,-400,4,1,0,20,0,0
58629,-66.6666666666667,4,1,0,20,0,0
58694,-100,4,1,0,20,0,0
58759,-133.333333333333,4,1,0,20,0,0
58824,-400,4,1,0,20,0,0
58890,-66.6666666666667,4,1,0,20,0,0
58955,-100,4,1,0,20,0,0
61237,-66.6666666666667,4,1,0,20,0,0
61303,-133.333333333333,4,1,0,20,0,0
61368,-400,4,1,0,20,0,0
61433,-2000,4,1,0,20,0,0
61498,-100,4,1,0,20,0,0
83150,-66.6666666666667,4,1,0,20,0,0
83216,-2000,4,1,0,20,0,0
83281,-66.6666666666667,4,1,0,20,0,0
83346,-2000,4,1,0,20,0,0
83411,-66.6666666666667,4,1,0,20,0,0
83476,-2000,4,1,0,20,0,0
83542,-66.6666666666667,4,1,0,20,0,0
83607,-2000,4,1,0,20,0,0
83672,-66.6666666666667,4,1,0,20,0,0
83737,-2000,4,1,0,20,0,0
83803,-66.6666666666667,4,1,0,20,0,0
83868,-2000,4,1,0,20,0,0
83933,-66.6666666666667,4,1,0,20,0,0
83998,-2000,4,1,0,20,0,0
84063,-100,4,1,0,20,0,0
88498,-66.6666666666667,4,1,0,20,0,0
88563,-10000,4,1,0,20,0,0
88629,-66.6666666666667,4,1,0,20,0,0
88694,-100,4,1,0,20,0,0
96716,-400,4,1,0,20,0,0
96976,-66.6666666666667,4,1,0,20,0,0
97042,-100,4,1,0,20,0,0
105259,-400,4,1,0,20,0,0
105324,-66.6666666666667,4,1,0,20,0,0
105390,-2000,4,1,0,20,0,0
105585,-66.6666666666667,4,1,0,20,0,0
105650,-100,4,1,0,20,0,0
112629,-66.6666666666667,4,1,0,20,0,0
112694,-2000,4,1,0,20,0,0
112759,-400,4,1,0,20,0,0
112824,-66.6666666666667,4,1,0,20,0,0
112890,-100,4,1,0,20,0,0
112955,-400,4,1,0,20,0,0
113020,-66.6666666666667,4,1,0,20,0,0
113085,-400,4,1,0,20,0,0
113150,-66.6666666666667,4,1,0,20,0,0
113216,-400,4,1,0,20,0,0
113281,-66.6666666666667,4,1,0,20,0,0
113346,-400,4,1,0,20,0,0
113411,-100,4,1,0,20,0,0
114455,-66.6666666666667,4,1,0,20,0,0
114585,-100,4,1,0,20,0,0
114650,-66.6666666666667,4,1,0,20,0,0
114716,-2000,4,1,0,20,0,0
114781,-66.6666666666667,4,1,0,20,0,0
114846,-2000,4,1,0,20,0,0
114911,-66.6666666666667,4,1,0,20,0,0
114976,-100,4,1,0,20,0,0
115433,-66.6666666666667,4,1,0,20,0,0
115563,-2000,4,1,0,20,0,0
115694,-2000,4,1,0,20,0,0
115759,-66.6666666666667,4,1,0,20,0,0
115824,-100,4,1,0,20,0,0
116281,-66.6666666666667,4,1,0,20,0,0
116411,-133.333333333333,4,1,0,20,0,0
116542,-10000,4,1,0,20,0,0
116672,-100,4,1,0,20,0,0
117194,-66.6666666666667,4,1,0,20,0,0
117259,-133.333333333333,4,1,0,20,0,0
117324,-10000,4,1,0,20,0,0
117390,-100,4,1,0,20,0,0
117585,-66.6666666666667,4,1,0,20,0,0
117650,-133.333333333333,4,1,0,20,0,0
117716,-10000,4,1,0,20,0,0
117781,-66.6666666666667,4,1,0,20,0,0
117846,-133.333333333333,4,1,0,20,0,0
117911,-10000,4,1,0,20,0,0
117976,-100,4,1,0,20,0,0
125803,-33.3333333333333,4,1,0,20,0,0
125868,-10000,4,1,0,20,0,0
125933,-33.3333333333333,4,1,0,20,0,0
125998,-10000,4,1,0,20,0,0
126063,-66.6666666666667,4,1,0,20,0,0
126129,-10000,4,1,0,20,0,0
126194,-33.3333333333333,4,1,0,20,0,0
126259,-100,4,1,0,20,0,0
129911,-33.3333333333333,4,1,0,20,0,0
129976,-10000,4,1,0,20,0,0
130042,-33.3333333333333,4,1,0,20,0,0
130107,-10000,4,1,0,20,0,0
130172,-33.3333333333333,4,1,0,20,0,0
130237,-10000,4,1,0,20,0,0
130303,-33.3333333333333,4,1,0,20,0,0
130368,-10000,4,1,0,20,0,0
130433,-100,4,1,0,20,0,0
138585,-10000,4,1,0,20,0,0
138650,-66.6666666666667,4,1,0,20,0,0
138716,-10000,4,1,0,20,0,0
138781,-66.6666666666667,4,1,0,20,0,0
138852,-100,4,1,0,20,0,0
150129,-66.6666666666667,4,1,0,20,0,0
150194,-2000,4,1,0,20,0,0
150259,-66.6666666666667,4,1,0,20,0,0
150324,-2000,4,1,0,20,0,0
150390,-66.6666666666667,4,1,0,20,0,0
150455,-2000,4,1,0,20,0,0
150520,-66.6666666666667,4,1,0,20,0,0
150585,-2000,4,1,0,20,0,0
150650,-66.6666666666667,4,1,0,20,0,0
150716,-2000,4,1,0,20,0,0
150781,-66.6666666666667,4,1,0,20,0,0
150846,-2000,4,1,0,20,0,0
150911,-66.6666666666667,4,1,0,20,0,0
150976,-2000,4,1,0,20,0,0
151042,-66.6666666666667,4,1,0,20,0,0
151107,-2000,4,1,0,20,0,0
151172,-66.6666666666667,4,1,0,20,0,0
151237,-2000,4,1,0,20,0,0
151303,-66.6666666666667,4,1,0,20,0,0
151368,-400,4,1,0,20,0,0
151433,-100,4,1,0,20,0,0
163237,-133.333333333333,4,1,0,20,0,0
163629,-66.6666666666667,4,1,0,20,0,0
163759,-100,4,1,0,20,0,0
164542,-133.333333333333,4,1,0,20,0,0
164672,-66.6666666666667,4,1,0,20,0,0
164803,-100,4,1,0,20,0,0
165585,-133.333333333333,4,1,0,20,0,0
165716,-400,4,1,0,20,0,0
165846,-100,4,1,0,20,0,0

[HitObjects]
64,192,977,5,0,0:0:0:0:
448,192,977,1,0,0:0:0:0:
192,192,1237,1,0,0:0:0:0:
320,192,1368,1,0,0:0:0:0:
448,192,1498,1,0,0:0:0:0:
64,192,1498,1,0,0:0:0:0:
192,192,1890,1,0,0:0:0:0:
64,192,1890,1,0,0:0:0:0:
320,192,1890,1,0,0:0:0:0:
320,192,2150,1,0,0:0:0:0:
192,192,2150,1,0,0:0:0:0:
448,192,2281,1,0,0:0:0:0:
448,192,2542,1,0,0:0:0:0:
64,192,2542,1,0,0:0:0:0:
64,192,3063,1,0,0:0:0:0:
448,192,3063,1,0,0:0:0:0:
448,192,3194,1,0,0:0:0:0:
320,192,3324,1,0,0:0:0:0:
192,192,3455,1,0,0:0:0:0:
64,192,3585,1,0,0:0:0:0:
448,192,3585,1,0,0:0:0:0:
192,192,3846,1,0,0:0:0:0:
64,192,3976,1,0,0:0:0:0:
448,192,3976,1,0,0:0:0:0:
192,192,4107,1,0,0:0:0:0:
320,192,4237,1,0,0:0:0:0:
448,192,4368,1,0,0:0:0:0:
64,192,4368,1,0,0:0:0:0:
192,192,4629,1,0,0:0:0:0:
64,192,4629,1,0,0:0:0:0:
448,192,4759,1,0,0:0:0:0:
448,192,4890,1,0,0:0:0:0:
320,192,5020,1,0,0:0:0:0:
64,192,5020,128,0,5411:0:0:0:0:
448,192,5150,1,0,0:0:0:0:
192,192,5150,1,0,0:0:0:0:
192,192,5411,128,0,5672:0:0:0:0:
320,192,5672,1,0,0:0:0:0:
448,192,5672,1,0,0:0:0:0:
64,192,6063,1,0,0:0:0:0:
320,192,6063,1,0,0:0:0:0:
192,192,6324,1,0,0:0:0:0:
320,192,6455,128,0,6716:0:0:0:0:
192,192,6716,1,0,0:0:0:0:
64,192,6846,1,0,0:0:0:0:
192,192,6976,1,0,0:0:0:0:
320,192,7107,1,0,0:0:0:0:
448,192,7107,128,0,7498:0:0:0:0:
64,192,7237,1,0,0:0:0:0:
192,192,7237,1,0,0:0:0:0:
320,192,7498,128,0,7759:0:0:0:0:
192,192,7759,1,0,0:0:0:0:
64,192,7759,1,0,0:0:0:0:
192,192,8150,1,0,0:0:0:0:
320,192,8411,1,0,0:0:0:0:
64,192,8542,128,0,8803:0:0:0:0:
192,192,8542,1,0,0:0:0:0:
448,192,8542,1,0,0:0:0:0:
192,192,8803,1,0,0:0:0:0:
320,192,8868,1,0,0:0:0:0:
448,192,8933,1,0,0:0:0:0:
192,192,8933,1,0,0:0:0:0:
320,192,8998,1,0,0:0:0:0:
448,192,9063,1,0,0:0:0:0:
192,192,9063,1,0,0:0:0:0:
320,192,9129,1,0,0:0:0:0:
448,192,9259,1,0,0:0:0:0:
192,192,9324,1,0,0:0:0:0:
64,192,9324,1,0,0:0:0:0:
192,192,9585,1,0,0:0:0:0:
320,192,9716,1,0,0:0:0:0:
192,192,9846,1,0,0:0:0:0:
64,192,9911,1,0,0:0:0:0:
448,192,9911,1,0,0:0:0:0:
192,192,10107,1,0,0:0:0:0:
64,192,10237,1,0,0:0:0:0:
448,192,10237,1,0,0:0:0:0:
192,192,10368,1,0,0:0:0:0:
320,192,10498,1,0,0:0:0:0:
64,192,10498,1,0,0:0:0:0:
448,192,10629,1,0,0:0:0:0:
192,192,10629,1,0,0:0:0:0:
64,192,10890,1,0,0:0:0:0:
192,192,10890,1,0,0:0:0:0:
320,192,11020,1,0,0:0:0:0:
192,192,11150,1,0,0:0:0:0:
64,192,11281,1,0,0:0:0:0:
320,192,11411,1,0,0:0:0:0:
192,192,11411,1,0,0:0:0:0:
320,192,11672,1,0,0:0:0:0:
64,192,11672,1,0,0:0:0:0:
448,192,11803,1,0,0:0:0:0:
192,192,11933,1,0,0:0:0:0:
64,192,11933,1,0,0:0:0:0:
192,192,12194,1,0,0:0:0:0:
448,192,12194,1,0,0:0:0:0:
320,192,12324,1,0,0:0:0:0:
320,192,12455,1,0,0:0:0:0:
64,192,12455,1,0,0:0:0:0:
448,192,12585,1,0,0:0:0:0:
192,192,12716,1,0,0:0:0:0:
64,192,12976,1,0,0:0:0:0:
448,192,12976,1,0,0:0:0:0:
192,192,13107,1,0,0:0:0:0:
192,192,13237,1,0,0:0:0:0:
320,192,13368,1,0,0:0:0:0:
64,192,13368,128,0,13759:0:0:0:0:
448,192,13498,1,0,0:0:0:0:
192,192,13498,1,0,0:0:0:0:
448,192,13759,1,0,0:0:0:0:
192,192,14020,1,0,0:0:0:0:
320,192,14020,1,0,0:0:0:0:
64,192,14281,1,0,0:0:0:0:
64,192,14411,1,0,0:0:0:0:
448,192,14411,1,0,0:0:0:0:
64,192,14672,1,0,0:0:0:0:
448,192,14672,1,0,0:0:0:0:
192,192,14803,1,0,0:0:0:0:
320,192,14803,1,0,0:0:0:0:
64,192,15063,1,0,0:0:0:0:
448,192,15063,1,0,0:0:0:0:
192,192,15063,1,0,0:0:0:0:
192,192,15194,1,0,0:0:0:0:
320,192,15455,1,0,0:0:0:0:
192,192,15455,128,0,15846:0:0:0:0:
448,192,15846,1,0,0:0:0:0:
64,192,16107,128,0,16498:0:0:0:0:
192,192,16107,1,0,0:0:0:0:
448,192,16498,1,0,0:0:0:0:
192,192,16498,1,0,0:0:0:0:
192,192,16629,1,0,0:0:0:0:
448,192,16629,1,0,0:0:0:0:
64,192,16759,1,0,0:0:0:0:
320,192,16759,1,0,0:0:0:0:
192,192,16890,1,0,0:0:0:0:
448,192,16890,1,0,0:0:0:0:
320,192,16890,128,0,17150:0:0:0:0:
192,192,17150,128,0,17411:0:0:0:0:
192,192,17542,1,0,0:0:0:0:
448,192,17672,1,0,0:0:0:0:
64,192,17672,1,0,0:0:0:0:
192,192,17737,1,0,0:0:0:0:
64,192,17803,1,0,0:0:0:0:
320,192,17868,1,0,0:0:0:0:
192,192,17933,1,0,0:0:0:0:
320,192,17998,1,0,0:0:0:0:
448,192,18063,1,0,0:0:0:0:
64,192,18129,1,0,0:0:0:0:
320,192,18194,1,0,0:0:0:0:
192,192,18194,1,0,0:0:0:0:
64,192,18324,1,0,0:0:0:0:
192,192,18324,1,0,0:0:0:0:
448,192,18390,1,0,0:0:0:0:
320,192,18455,1,0,0:0:0:0:
192,192,18520,1,0,0:0:0:0:
64,192,18585,1,0,0:0:0:0:
448,192,18585,1,0,0:0:0:0:
192,192,18650,1,0,0:0:0:0:
320,192,18716,1,0,0:0:0:0:
192,192,18781,1,0,0:0:0:0:
64,192,18846,1,0,0:0:0:0:
448,192,18846,1,0,0:0:0:0:
192,192,18976,1,0,0:0:0:0:
320,192,18976,1,0,0:0:0:0:
64,192,19042,1,0,0:0:0:0:
192,192,19107,1,0,0:0:0:0:
320,192,19172,1,0,0:0:0:0:
64,192,19237,1,0,0:0:0:0:
448,192,19237,1,0,0:0:0:0:
320,192,19303,1,0,0:0:0:0:
192,192,19368,1,0,0:0:0:0:
64,192,19433,1,0,0:0:0:0:
192,192,19498,1,0,0:0:0:0:
64,192,19563,1,0,0:0:0:0:
448,192,19629,1,0,0:0:0:0:
320,192,19629,1,0,0:0:0:0:
64,192,19694,1,0,0:0:0:0:
192,192,19759,1,0,0:0:0:0:
320,192,19759,1,0,0:0:0:0:
64,192,19824,1,0,0:0:0:0:
192,192,19890,1,0,0:0:0:0:
320,192,19955,1,0,0:0:0:0:
64,192,20020,1,0,0:0:0:0:
192,192,20085,1,0,0:0:0:0:
320,192,20150,1,0,0:0:0:0:
192,192,20216,1,0,0:0:0:0:
64,192,20281,1,0,0:0:0:0:
448,192,20281,1,0,0:0:0:0:
320,192,20346,1,0,0:0:0:0:
192,192,20411,1,0,0:0:0:0:
64,192,20476,1,0,0:0:0:0:
192,192,20542,1,0,0:0:0:0:
448,192,20607,1,0,0:0:0:0:
192,192,20672,1,0,0:0:0:0:
320,192,20672,1,0,0:0:0:0:
64,192,20737,1,0,0:0:0:0:
192,192,20803,1,0,0:0:0:0:
320,192,20868,1,0,0:0:0:0:
448,192,20933,1,0,0:0:0:0:
64,192,20998,1,0,0:0:0:0:
192,192,21063,1,0,0:0:0:0:
320,192,21063,1,0,0:0:0:0:
64,192,21129,1,0,0:0:0:0:
192,192,21194,1,0,0:0:0:0:
320,192,21259,1,0,0:0:0:0:
64,192,21324,1,0,0:0:0:0:
448,192,21324,1,0,0:0:0:0:
320,192,21390,1,0,0:0:0:0:
192,192,21455,1,0,0:0:0:0:
64,192,21520,1,0,0:0:0:0:
192,192,21585,1,0,0:0:0:0:
320,192,21650,1,0,0:0:0:0:
448,192,21716,1,0,0:0:0:0:
64,192,21781,1,0,0:0:0:0:
192,192,21846,1,0,0:0:0:0:
320,192,21846,1,0,0:0:0:0:
192,192,21976,1,0,0:0:0:0:
320,192,22042,1,0,0:0:0:0:
192,192,22107,1,0,0:0:0:0:
320,192,22172,1,0,0:0:0:0:
192,192,22237,1,0,0:0:0:0:
64,192,22368,1,0,0:0:0:0:
320,192,22368,1,0,0:0:0:0:
192,192,22433,1,0,0:0:0:0:
320,192,22498,1,0,0:0:0:0:
448,192,22563,1,0,0:0:0:0:
320,192,22629,1,0,0:0:0:0:
64,192,22694,1,0,0:0:0:0:
192,192,22759,1,0,0:0:0:0:
448,192,22759,1,0,0:0:0:0:
64,192,22824,1,0,0:0:0:0:
448,192,22890,1,0,0:0:0:0:
192,192,22955,1,0,0:0:0:0:
320,192,23020,1,0,0:0:0:0:
64,192,23020,1,0,0:0:0:0:
192,192,23150,1,0,0:0:0:0:
448,192,23150,1,0,0:0:0:0:
320,192,23216,1,0,0:0:0:0:
448,192,23281,1,0,0:0:0:0:
320,192,23346,1,0,0:0:0:0:
192,192,23411,1,0,0:0:0:0:
64,192,23411,1,0,0:0:0:0:
320,192,23476,1,0,0:0:0:0:
192,192,23542,1,0,0:0:0:0:
320,192,23607,1,0,0:0:0:0:
192,192,23672,1,0,0:0:0:0:
320,192,23737,1,0,0:0:0:0:
192,192,23803,1,0,0:0:0:0:
64,192,23868,1,0,0:0:0:0:
192,192,23933,1,0,0:0:0:0:
320,192,23933,1,0,0:0:0:0:
64,192,23998,1,0,0:0:0:0:
192,192,24063,1,0,0:0:0:0:
320,192,24129,1,0,0:0:0:0:
448,192,24194,1,0,0:0:0:0:
192,192,24194,1,0,0:0:0:0:
64,192,24259,1,0,0:0:0:0:
192,192,24324,1,0,0:0:0:0:
64,192,24390,1,0,0:0:0:0:
320,192,24455,1,0,0:0:0:0:
448,192,24455,1,0,0:0:0:0:
192,192,24520,1,0,0:0:0:0:
64,192,24585,1,0,0:0:0:0:
192,192,24716,1,0,0:0:0:0:
320,192,24716,1,0,0:0:0:0:
64,192,24781,1,0,0:0:0:0:
192,192,24846,1,0,0:0:0:0:
320,192,24846,1,0,0:0:0:0:
64,192,24911,1,0,0:0:0:0:
192,192,24976,1,0,0:0:0:0:
320,192,25042,1,0,0:0:0:0:
448,192,25107,1,0,0:0:0:0:
320,192,25172,1,0,0:0:0:0:
192,192,25237,1,0,0:0:0:0:
448,192,25237,1,0,0:0:0:0:
64,192,25303,1,0,0:0:0:0:
320,192,25368,1,0,0:0:0:0:
64,192,25498,1,0,0:0:0:0:
192,192,25498,1,0,0:0:0:0:
320,192,25629,1,0,0:0:0:0:
192,192,25759,1,0,0:0:0:0:
448,192,25890,1,0,0:0:0:0:
192,192,26020,1,0,0:0:0:0:
320,192,26020,1,0,0:0:0:0:
64,192,26020,1,0,0:0:0:0:
192,192,26150,1,0,0:0:0:0:
64,192,26281,1,0,0:0:0:0:
448,192,26281,1,0,0:0:0:0:
192,192,26411,1,0,0:0:0:0:
64,192,26542,1,0,0:0:0:0:
448,192,26542,1,0,0:0:0:0:
192,192,26672,1,0,0:0:0:0:
64,192,26803,1,0,0:0:0:0:
448,192,26803,1,0,0:0:0:0:
192,192,26933,1,0,0:0:0:0:
320,192,26933,1,0,0:0:0:0:
192,192,27063,1,0,0:0:0:0:
448,192,27063,1,0,0:0:0:0:
64,192,27194,1,0,0:0:0:0:
64,192,27324,1,0,0:0:0:0:
192,192,27324,1,0,0:0:0:0:
320,192,27455,1,0,0:0:0:0:
64,192,27585,1,0,0:0:0:0:
192,192,27585,1,0,0:0:0:0:
64,192,27716,1,0,0:0:0:0:
64,192,27846,1,0,0:0:0:0:
192,192,27846,1,0,0:0:0:0:
320,192,27976,1,0,0:0:0:0:
320,192,28107,1,0,0:0:0:0:
64,192,28107,1,0,0:0:0:0:
192,192,28237,1,0,0:0:0:0:
320,192,28368,1,0,0:0:0:0:
64,192,28368,1,0,0:0:0:0:
192,192,28498,1,0,0:0:0:0:
64,192,28629,1,0,0:0:0:0:
448,192,28629,1,0,0:0:0:0:
320,192,28759,1,0,0:0:0:0:
64,192,28890,1,0,0:0:0:0:
448,192,28890,1,0,0:0:0:0:
192,192,29020,1,0,0:0:0:0:
320,192,29020,1,0,0:0:0:0:
64,192,29150,1,0,0:0:0:0:
448,192,29150,1,0,0:0:0:0:
320,192,29281,1,0,0:0:0:0:
192,192,29411,1,0,0:0:0:0:
448,192,29411,1,0,0:0:0:0:
64,192,29542,1,0,0:0:0:0:
192,192,29672,1,0,0:0:0:0:
448,192,29672,1,0,0:0:0:0:
64,192,29803,1,0,0:0:0:0:
192,192,29933,1,0,0:0:0:0:
448,192,29933,1,0,0:0:0:0:
64,192,30063,1,0,0:0:0:0:
192,192,30194,1,0,0:0:0:0:
448,192,30194,1,0,0:0:0:0:
320,192,30324,1,0,0:0:0:0:
64,192,30324,1,0,0:0:0:0:
192,192,30455,1,0,0:0:0:0:
448,192,30455,1,0,0:0:0:0:
64,192,30585,1,0,0:0:0:0:
320,192,30585,1,0,0:0:0:0:
192,192,30716,1,0,0:0:0:0:
448,192,30716,1,0,0:0:0:0:
64,192,30846,1,0,0:0:0:0:
320,192,30846,1,0,0:0:0:0:
192,192,30976,1,0,0:0:0:0:
448,192,30976,1,0,0:0:0:0:
64,192,31107,1,0,0:0:0:0:
320,192,31107,1,0,0:0:0:0:
192,192,31237,1,0,0:0:0:0:
448,192,31237,1,0,0:0:0:0:
64,192,31368,1,0,0:0:0:0:
320,192,31368,1,0,0:0:0:0:
192,192,31498,1,0,0:0:0:0:
448,192,31498,1,0,0:0:0:0:
64,192,31629,1,0,0:0:0:0:
320,192,31629,1,0,0:0:0:0:
192,192,31759,1,0,0:0:0:0:
448,192,31759,1,0,0:0:0:0:
64,192,31890,1,0,0:0:0:0:
320,192,31890,1,0,0:0:0:0:
192,192,32020,1,0,0:0:0:0:
448,192,32020,1,0,0:0:0:0:
192,192,32150,1,0,0:0:0:0:
448,192,32150,1,0,0:0:0:0:
192,192,32281,1,0,0:0:0:0:
320,192,32281,1,0,0:0:0:0:
64,192,32346,1,0,0:0:0:0:
192,192,32411,1,0,0:0:0:0:
320,192,32476,1,0,0:0:0:0:
448,192,32542,1,0,0:0:0:0:
64,192,32542,1,0,0:0:0:0:
192,192,32607,1,0,0:0:0:0:
320,192,32672,1,0,0:0:0:0:
448,192,32737,1,0,0:0:0:0:
64,192,32737,1,0,0:0:0:0:
192,192,32803,1,0,0:0:0:0:
320,192,32868,1,0,0:0:0:0:
448,192,32933,1,0,0:0:0:0:
64,192,32933,1,0,0:0:0:0:
192,192,32998,1,0,0:0:0:0:
320,192,33063,1,0,0:0:0:0:
64,192,33129,1,0,0:0:0:0:
448,192,33194,1,0,0:0:0:0:
64,192,33324,1,0,0:0:0:0:
448,192,33324,1,0,0:0:0:0:
192,192,33455,1,0,0:0:0:0:
448,192,33455,1,0,0:0:0:0:
320,192,33585,1,0,0:0:0:0:
448,192,33585,1,0,0:0:0:0:
448,192,33716,1,0,0:0:0:0:
64,192,33716,1,0,0:0:0:0:
192,192,33716,1,0,0:0:0:0:
192,192,33846,1,0,0:0:0:0:
320,192,33846,1,0,0:0:0:0:
448,192,33846,1,0,0:0:0:0:
320,192,33976,1,0,0:0:0:0:
64,192,33976,1,0,0:0:0:0:
192,192,34107,128,0,34368:0:0:0:0:
320,192,34107,128,0,34368:0:0:0:0:
448,192,34107,1,0,0:0:0:0:
64,192,34107,1,0,0:0:0:0:
64,192,34368,128,0,34498:0:0:0:0:
448,192,34498,1,0,0:0:0:0:
192,192,34498,1,0,0:0:0:0:
192,192,34629,128,0,34759:0:0:0:0:
320,192,34629,1,0,0:0:0:0:
448,192,34759,1,0,0:0:0:0:
320,192,34890,128,0,35020:0:0:0:0:
64,192,34890,1,0,0:0:0:0:
64,192,35020,1,0,0:0:0:0:
448,192,35020,1,0,0:0:0:0:
448,192,35150,128,0,35281:0:0:0:0:
192,192,35150,1,0,0:0:0:0:
64,192,35281,1,0,0:0:0:0:
192,192,35281,1,0,0:0:0:0:
320,192,35411,128,0,35542:0:0:0:0:
192,192,35411,1,0,0:0:0:0:
64,192,35542,1,0,0:0:0:0:
448,192,35542,1,0,0:0:0:0:
192,192,35672,128,0,35803:0:0:0:0:
64,192,35672,1,0,0:0:0:0:
448,192,35672,1,0,0:0:0:0:
320,192,35803,1,0,0:0:0:0:
64,192,35933,128,0,36063:0:0:0:0:
448,192,35933,1,0,0:0:0:0:
320,192,35933,1,0,0:0:0:0:
320,192,36063,1,0,0:0:0:0:
192,192,36194,128,0,36324:0:0:0:0:
320,192,36194,1,0,0:0:0:0:
448,192,36194,1,0,0:0:0:0:
64,192,36324,1,0,0:0:0:0:
448,192,36324,1,0,0:0:0:0:
320,192,36455,128,0,36585:0:0:0:0:
64,192,36455,1,0,0:0:0:0:
448,192,36455,1,0,0:0:0:0:
192,192,36520,1,0,0:0:0:0:
64,192,36585,1,0,0:0:0:0:
192,192,36650,1,0,0:0:0:0:
448,192,36716,128,0,36846:0:0:0:0:
64,192,36716,1,0,0:0:0:0:
320,192,36846,1,0,0:0:0:0:
192,192,36846,1,0,0:0:0:0:
64,192,36976,128,0,37107:0:0:0:0:
192,192,36976,1,0,0:0:0:0:
448,192,37107,1,0,0:0:0:0:
320,192,37107,1,0,0:0:0:0:
192,192,37237,128,0,37368:0:0:0:0:
320,192,37237,1,0,0:0:0:0:
64,192,37368,1,0,0:0:0:0:
448,192,37368,1,0,0:0:0:0:
320,192,37498,128,0,37629:0:0:0:0:
448,192,37498,1,0,0:0:0:0:
64,192,37498,1,0,0:0:0:0:
192,192,37629,1,0,0:0:0:0:
448,192,37759,128,0,37890:0:0:0:0:
192,192,37759,1,0,0:0:0:0:
64,192,37759,1,0,0:0:0:0:
192,192,37890,1,0,0:0:0:0:
320,192,38020,128,0,38150:0:0:0:0:
64,192,38020,1,0,0:0:0:0:
64,192,38150,1,0,0:0:0:0:
192,192,38150,1,0,0:0:0:0:
448,192,38150,1,0,0:0:0:0:
192,192,38281,128,0,38411:0:0:0:0:
448,192,38281,1,0,0:0:0:0:
64,192,38281,1,0,0:0:0:0:
320,192,38411,1,0,0:0:0:0:
192,192,38476,128,0,38607:0:0:0:0:
64,192,38476,1,0,0:0:0:0:
448,192,38476,1,0,0:0:0:0:
192,192,38672,128,0,38803:0:0:0:0:
320,192,38672,1,0,0:0:0:0:
448,192,38672,1,0,0:0:0:0:
64,192,38672,1,0,0:0:0:0:
64,192,38803,128,0,38933:0:0:0:0:
320,192,38803,1,0,0:0:0:0:
448,192,38933,1,0,0:0:0:0:
192,192,38933,1,0,0:0:0:0:
192,192,39063,128,0,39194:0:0:0:0:
320,192,39063,1,0,0:0:0:0:
320,192,39194,1,0,0:0:0:0:
448,192,39194,1,0,0:0:0:0:
64,192,39194,1,0,0:0:0:0:
320,192,39324,128,0,39455:0:0:0:0:
448,192,39324,1,0,0:0:0:0:
64,192,39324,1,0,0:0:0:0:
64,192,39455,1,0,0:0:0:0:
64,192,39585,1,0,0:0:0:0:
448,192,39585,128,0,39716:0:0:0:0:
192,192,39585,1,0,0:0:0:0:
192,192,39716,1,0,0:0:0:0:
64,192,39846,128,0,39976:0:0:0:0:
192,192,39846,1,0,0:0:0:0:
320,192,39846,1,0,0:0:0:0:
320,192,39976,1,0,0:0:0:0:
448,192,39976,1,0,0:0:0:0:
192,192,40107,128,0,40237:0:0:0:0:
320,192,40107,1,0,0:0:0:0:
448,192,40237,1,0,0:0:0:0:
320,192,40368,128,0,40498:0:0:0:0:
64,192,40368,1,0,0:0:0:0:
448,192,40368,1,0,0:0:0:0:
64,192,40498,1,0,0:0:0:0:
448,192,40629,128,0,40759:0:0:0:0:
192,192,40629,1,0,0:0:0:0:
64,192,40694,1,0,0:0:0:0:
192,192,40759,1,0,0:0:0:0:
320,192,40824,1,0,0:0:0:0:
64,192,40890,128,0,41020:0:0:0:0:
192,192,40890,1,0,0:0:0:0:
320,192,41020,1,0,0:0:0:0:
192,192,41150,128,0,41411:0:0:0:0:
448,192,41150,1,0,0:0:0:0:
320,192,41281,1,0,0:0:0:0:
448,192,41411,1,0,0:0:0:0:
320,192,41411,1,0,0:0:0:0:
64,192,41411,1,0,0:0:0:0:
192,192,41542,1,0,0:0:0:0:
320,192,41542,1,0,0:0:0:0:
64,192,41672,1,0,0:0:0:0:
448,192,41672,1,0,0:0:0:0:
192,192,41737,1,0,0:0:0:0:
320,192,41803,1,0,0:0:0:0:
64,192,41803,1,0,0:0:0:0:
448,192,41868,1,0,0:0:0:0:
192,192,41868,1,0,0:0:0:0:
320,192,41933,1,0,0:0:0:0:
448,192,41998,1,0,0:0:0:0:
64,192,42063,128,0,42194:0:0:0:0:
192,192,42063,1,0,0:0:0:0:
320,192,42063,1,0,0:0:0:0:
192,192,42194,128,0,42324:0:0:0:0:
320,192,42194,1,0,0:0:0:0:
448,192,42324,1,0,0:0:0:0:
320,192,42324,1,0,0:0:0:0:
64,192,42324,1,0,0:0:0:0:
448,192,42455,128,0,42585:0:0:0:0:
64,192,42455,1,0,0:0:0:0:
320,192,42455,1,0,0:0:0:0:
320,192,42585,128,0,42716:0:0:0:0:
192,192,42585,1,0,0:0:0:0:
64,192,42650,1,0,0:0:0:0:
192,192,42716,1,0,0:0:0:0:
448,192,42716,128,0,42976:0:0:0:0:
64,192,42781,1,0,0:0:0:0:
192,192,42976,1,0,0:0:0:0:
64,192,43107,128,0,43237:0:0:0:0:
320,192,43107,1,0,0:0:0:0:
448,192,43237,1,0,0:0:0:0:
192,192,43237,1,0,0:0:0:0:
192,192,43368,128,0,43498:0:0:0:0:
320,192,43368,1,0,0:0:0:0:
448,192,43498,1,0,0:0:0:0:
320,192,43629,128,0,43759:0:0:0:0:
64,192,43629,1,0,0:0:0:0:
64,192,43759,1,0,0:0:0:0:
448,192,43759,1,0,0:0:0:0:
448,192,43890,128,0,44085:0:0:0:0:
192,192,43890,1,0,0:0:0:0:
64,192,44020,1,0,0:0:0:0:
192,192,44020,1,0,0:0:0:0:
320,192,44150,128,0,44281:0:0:0:0:
192,192,44150,1,0,0:0:0:0:
64,192,44281,1,0,0:0:0:0:
448,192,44281,1,0,0:0:0:0:
192,192,44411,128,0,44542:0:0:0:0:
64,192,44411,1,0,0:0:0:0:
448,192,44411,1,0,0:0:0:0:
320,192,44542,1,0,0:0:0:0:
64,192,44672,128,0,44803:0:0:0:0:
448,192,44672,1,0,0:0:0:0:
320,192,44672,1,0,0:0:0:0:
320,192,44803,1,0,0:0:0:0:
192,192,44933,128,0,45063:0:0:0:0:
320,192,44933,1,0,0:0:0:0:
448,192,44933,1,0,0:0:0:0:
64,192,45063,1,0,0:0:0:0:
448,192,45063,1,0,0:0:0:0:
320,192,45194,128,0,45324:0:0:0:0:
64,192,45194,1,0,0:0:0:0:
448,192,45194,1,0,0:0:0:0:
192,192,45259,1,0,0:0:0:0:
64,192,45324,1,0,0:0:0:0:
192,192,45390,1,0,0:0:0:0:
448,192,45455,128,0,45585:0:0:0:0:
64,192,45455,1,0,0:0:0:0:
320,192,45585,1,0,0:0:0:0:
192,192,45585,1,0,0:0:0:0:
64,192,45716,128,0,45846:0:0:0:0:
192,192,45716,1,0,0:0:0:0:
448,192,45846,1,0,0:0:0:0:
320,192,45846,1,0,0:0:0:0:
192,192,45976,128,0,46107:0:0:0:0:
320,192,45976,1,0,0:0:0:0:
64,192,46107,1,0,0:0:0:0:
448,192,46107,1,0,0:0:0:0:
320,192,46237,128,0,46368:0:0:0:0:
448,192,46237,1,0,0:0:0:0:
64,192,46237,1,0,0:0:0:0:
192,192,46368,1,0,0:0:0:0:
448,192,46498,128,0,46629:0:0:0:0:
192,192,46498,1,0,0:0:0:0:
64,192,46498,1,0,0:0:0:0:
192,192,46629,1,0,0:0:0:0:
320,192,46759,128,0,46890:0:0:0:0:
64,192,46759,1,0,0:0:0:0:
448,192,47020,1,0,0:0:0:0:
192,192,47020,1,0,0:0:0:0:
192,192,47150,128,0,47281:0:0:0:0:
320,192,47150,1,0,0:0:0:0:
64,192,47150,1,0,0:0:0:0:
320,192,47281,1,0,0:0:0:0:
448,192,47281,1,0,0:0:0:0:
64,192,47281,1,0,0:0:0:0:
320,192,47411,128,0,47542:0:0:0:0:
448,192,47411,1,0,0:0:0:0:
64,192,47411,1,0,0:0:0:0:
64,192,47542,1,0,0:0:0:0:
64,192,47672,1,0,0:0:0:0:
448,192,47672,128,0,47803:0:0:0:0:
192,192,47672,1,0,0:0:0:0:
192,192,47803,1,0,0:0:0:0:
64,192,47933,128,0,48063:0:0:0:0:
192,192,47933,1,0,0:0:0:0:
320,192,47933,1,0,0:0:0:0:
320,192,48063,1,0,0:0:0:0:
448,192,48063,1,0,0:0:0:0:
192,192,48194,128,0,48324:0:0:0:0:
320,192,48194,1,0,0:0:0:0:
448,192,48324,1,0,0:0:0:0:
320,192,48455,128,0,48585:0:0:0:0:
64,192,48455,1,0,0:0:0:0:
448,192,48455,1,0,0:0:0:0:
64,192,48585,1,0,0:0:0:0:
448,192,48716,128,0,48846:0:0:0:0:
192,192,48716,1,0,0:0:0:0:
64,192,48781,1,0,0:0:0:0:
192,192,48846,1,0,0:0:0:0:
320,192,48911,1,0,0:0:0:0:
64,192,48976,128,0,49107:0:0:0:0:
192,192,48976,1,0,0:0:0:0:
320,192,49107,1,0,0:0:0:0:
448,192,49107,1,0,0:0:0:0:
192,192,49237,128,0,49498:0:0:0:0:
448,192,49237,1,0,0:0:0:0:
320,192,49237,1,0,0:0:0:0:
320,192,49368,1,0,0:0:0:0:
64,192,49368,1,0,0:0:0:0:
448,192,49498,1,0,0:0:0:0:
320,192,49498,1,0,0:0:0:0:
64,192,49498,1,0,0:0:0:0:
64,192,49629,1,0,0:0:0:0:
320,192,49629,1,0,0:0:0:0:
192,192,49694,1,0,0:0:0:0:
448,192,49694,1,0,0:0:0:0:
64,192,49759,1,0,0:0:0:0:
320,192,49759,1,0,0:0:0:0:
192,192,49824,1,0,0:0:0:0:
448,192,49824,1,0,0:0:0:0:
320,192,49890,1,0,0:0:0:0:
64,192,49890,1,0,0:0:0:0:
448,192,49955,1,0,0:0:0:0:
192,192,49955,1,0,0:0:0:0:
64,192,50020,1,0,0:0:0:0:
320,192,50020,1,0,0:0:0:0:
64,192,50150,128,0,50281:0:0:0:0:
192,192,50150,1,0,0:0:0:0:
320,192,50150,1,0,0:0:0:0:
448,192,50150,128,0,50281:0:0:0:0:
320,192,50281,128,0,50476:0:0:0:0:
192,192,50281,1,0,0:0:0:0:
448,192,50411,1,0,0:0:0:0:
64,192,50411,1,0,0:0:0:0:
192,192,50411,1,0,0:0:0:0:
448,192,50542,128,0,50672:0:0:0:0:
64,192,50542,1,0,0:0:0:0:
192,192,50542,1,0,0:0:0:0:
192,192,50672,128,0,50868:0:0:0:0:
320,192,50672,1,0,0:0:0:0:
64,192,50737,1,0,0:0:0:0:
448,192,50803,128,0,51063:0:0:0:0:
64,192,50868,1,0,0:0:0:0:
320,192,50868,1,0,0:0:0:0:
64,192,51063,1,0,0:0:0:0:
320,192,51063,1,0,0:0:0:0:
192,192,51063,128,0,51194:0:0:0:0:
64,192,51194,1,0,0:0:0:0:
192,192,51324,128,0,51455:0:0:0:0:
320,192,51324,1,0,0:0:0:0:
64,192,51455,1,0,0:0:0:0:
448,192,51455,1,0,0:0:0:0:
192,192,51585,128,0,51716:0:0:0:0:
448,192,51585,1,0,0:0:0:0:
64,192,51716,1,0,0:0:0:0:
320,192,51716,1,0,0:0:0:0:
192,192,51846,128,0,51976:0:0:0:0:
320,192,51846,1,0,0:0:0:0:
64,192,51976,1,0,0:0:0:0:
448,192,51976,1,0,0:0:0:0:
192,192,52107,128,0,52237:0:0:0:0:
64,192,52107,1,0,0:0:0:0:
64,192,52237,1,0,0:0:0:0:
320,192,52237,1,0,0:0:0:0:
192,192,52368,128,0,52498:0:0:0:0:
320,192,52368,1,0,0:0:0:0:
64,192,52498,1,0,0:0:0:0:
448,192,52498,1,0,0:0:0:0:
192,192,52629,128,0,52759:0:0:0:0:
448,192,52629,1,0,0:0:0:0:
64,192,52759,1,0,0:0:0:0:
320,192,52759,1,0,0:0:0:0:
448,192,52759,1,0,0:0:0:0:
192,192,52890,128,0,53020:0:0:0:0:
320,192,52890,1,0,0:0:0:0:
64,192,53020,1,0,0:0:0:0:
320,192,53020,1,0,0:0:0:0:
448,192,53150,128,0,53281:0:0:0:0:
64,192,53150,1,0,0:0:0:0:
192,192,53150,1,0,0:0:0:0:
320,192,53281,1,0,0:0:0:0:
64,192,53281,1,0,0:0:0:0:
448,192,53411,128,0,53542:0:0:0:0:
192,192,53411,1,0,0:0:0:0:
64,192,53411,1,0,0:0:0:0:
320,192,53542,1,0,0:0:0:0:
192,192,53542,1,0,0:0:0:0:
448,192,53672,128,0,53803:0:0:0:0:
320,192,53672,1,0,0:0:0:0:
320,192,53803,1,0,0:0:0:0:
64,192,53803,1,0,0:0:0:0:
448,192,53933,128,0,54063:0:0:0:0:
192,192,53933,1,0,0:0:0:0:
320,192,54063,1,0,0:0:0:0:
64,192,54063,1,0,0:0:0:0:
448,192,54194,128,0,54324:0:0:0:0:
64,192,54194,1,0,0:0:0:0:
320,192,54324,1,0,0:0:0:0:
192,192,54324,1,0,0:0:0:0:
448,192,54455,128,0,54585:0:0:0:0:
192,192,54455,1,0,0:0:0:0:
320,192,54585,1,0,0:0:0:0:
64,192,54585,1,0,0:0:0:0:
448,192,54716,128,0,54846:0:0:0:0:
320,192,54716,1,0,0:0:0:0:
192,192,54716,1,0,0:0:0:0:
320,192,54846,1,0,0:0:0:0:
64,192,54846,1,0,0:0:0:0:
448,192,54976,128,0,55107:0:0:0:0:
64,192,54976,1,0,0:0:0:0:
320,192,55107,1,0,0:0:0:0:
192,192,55107,1,0,0:0:0:0:
64,192,55237,128,0,55368:0:0:0:0:
192,192,55237,1,0,0:0:0:0:
320,192,55368,1,0,0:0:0:0:
192,192,55368,1,0,0:0:0:0:
64,192,55498,128,0,55629:0:0:0:0:
320,192,55498,1,0,0:0:0:0:
192,192,55629,1,0,0:0:0:0:
448,192,55629,1,0,0:0:0:0:
64,192,55759,128,0,55890:0:0:0:0:
448,192,55759,1,0,0:0:0:0:
320,192,55759,1,0,0:0:0:0:
192,192,55890,1,0,0:0:0:0:
320,192,55890,1,0,0:0:0:0:
64,192,56020,128,0,56150:0:0:0:0:
192,192,56020,1,0,0:0:0:0:
192,192,56150,1,0,0:0:0:0:
448,192,56150,1,0,0:0:0:0:
64,192,56281,128,0,56411:0:0:0:0:
320,192,56281,1,0,0:0:0:0:
192,192,56411,1,0,0:0:0:0:
320,192,56411,1,0,0:0:0:0:
64,192,56542,128,0,56672:0:0:0:0:
448,192,56542,1,0,0:0:0:0:
192,192,56672,1,0,0:0:0:0:
320,192,56672,1,0,0:0:0:0:
64,192,56803,128,0,56933:0:0:0:0:
320,192,56803,1,0,0:0:0:0:
192,192,56933,1,0,0:0:0:0:
448,192,56933,1,0,0:0:0:0:
64,192,57063,128,0,57324:0:0:0:0:
192,192,57063,1,0,0:0:0:0:
320,192,57194,1,0,0:0:0:0:
448,192,57324,1,0,0:0:0:0:
192,192,57324,1,0,0:0:0:0:
320,192,57390,1,0,0:0:0:0:
448,192,57455,1,0,0:0:0:0:
320,192,57520,1,0,0:0:0:0:
192,192,57585,1,0,0:0:0:0:
64,192,57650,1,0,0:0:0:0:
192,192,57716,1,0,0:0:0:0:
320,192,57781,1,0,0:0:0:0:
64,192,57846,1,0,0:0:0:0:
448,192,57846,1,0,0:0:0:0:
192,192,57911,1,0,0:0:0:0:
320,192,57976,1,0,0:0:0:0:
64,192,57976,1,0,0:0:0:0:
192,192,58042,1,0,0:0:0:0:
448,192,58042,1,0,0:0:0:0:
320,192,58107,1,0,0:0:0:0:
64,192,58107,1,0,0:0:0:0:
192,192,58172,1,0,0:0:0:0:
320,192,58237,1,0,0:0:0:0:
192,192,58303,1,0,0:0:0:0:
320,192,58368,1,0,0:0:0:0:
64,192,58368,1,0,0:0:0:0:
448,192,58368,1,0,0:0:0:0:
192,192,58629,1,0,0:0:0:0:
320,192,58629,1,0,0:0:0:0:
64,192,58890,1,0,0:0:0:0:
448,192,58890,1,0,0:0:0:0:
192,192,58955,1,0,0:0:0:0:
320,192,59020,1,0,0:0:0:0:
192,192,59085,1,0,0:0:0:0:
320,192,59150,1,0,0:0:0:0:
192,192,59216,1,0,0:0:0:0:
64,192,59216,1,0,0:0:0:0:
448,192,59281,1,0,0:0:0:0:
64,192,59346,1,0,0:0:0:0:
320,192,59411,1,0,0:0:0:0:
448,192,59411,1,0,0:0:0:0:
192,192,59411,128,0,59542:0:0:0:0:
64,192,59542,1,0,0:0:0:0:
448,192,59607,1,0,0:0:0:0:
192,192,59672,128,0,59803:0:0:0:0:
320,192,59672,1,0,0:0:0:0:
64,192,59803,1,0,0:0:0:0:
320,192,59868,1,0,0:0:0:0:
192,192,59933,128,0,60063:0:0:0:0:
448,192,59933,1,0,0:0:0:0:
64,192,60063,1,0,0:0:0:0:
448,192,60129,1,0,0:0:0:0:
192,192,60194,128,0,60324:0:0:0:0:
320,192,60194,1,0,0:0:0:0:
64,192,60324,1,0,0:0:0:0:
448,192,60390,1,0,0:0:0:0:
192,192,60455,128,0,60585:0:0:0:0:
64,192,60455,1,0,0:0:0:0:
320,192,60585,1,0,0:0:0:0:
448,192,60650,1,0,0:0:0:0:
192,192,60716,128,0,60846:0:0:0:0:
320,192,60716,1,0,0:0:0:0:
64,192,60716,1,0,0:0:0:0:
448,192,60846,1,0,0:0:0:0:
64,192,60911,1,0,0:0:0:0:
320,192,60976,128,0,61107:0:0:0:0:
448,192,60976,1,0,0:0:0:0:
64,192,61107,1,0,0:0:0:0:
192,192,61172,1,0,0:0:0:0:
448,192,61237,128,0,61498:0:0:0:0:
64,192,61237,1,0,0:0:0:0:
320,192,61303,1,0,0:0:0:0:
192,192,61368,1,0,0:0:0:0:
64,192,61498,128,0,61629:0:0:0:0:
320,192,61498,1,0,0:0:0:0:
320,192,61629,1,0,0:0:0:0:
448,192,61694,1,0,0:0:0:0:
64,192,61759,128,0,61890:0:0:0:0:
192,192,61759,1,0,0:0:0:0:
192,192,61890,1,0,0:0:0:0:
448,192,61890,1,0,0:0:0:0:
64,192,62020,128,0,62150:0:0:0:0:
320,192,62020,1,0,0:0:0:0:
192,192,62085,1,0,0:0:0:0:
64,192,62281,128,0,62411:0:0:0:0:
448,192,62281,1,0,0:0:0:0:
192,192,62281,1,0,0:0:0:0:
192,192,62411,1,0,0:0:0:0:
320,192,62476,1,0,0:0:0:0:
64,192,62542,128,0,63063:0:0:0:0:
192,192,62542,1,0,0:0:0:0:
320,192,62607,1,0,0:0:0:0:
448,192,62672,1,0,0:0:0:0:
192,192,62672,1,0,0:0:0:0:
320,192,62737,1,0,0:0:0:0:
448,192,62803,1,0,0:0:0:0:
192,192,62803,1,0,0:0:0:0:
320,192,62868,1,0,0:0:0:0:
448,192,62933,1,0,0:0:0:0:
320,192,62998,1,0,0:0:0:0:
192,192,63063,1,0,0:0:0:0:
448,192,63063,1,0,0:0:0:0:
320,192,63129,1,0,0:0:0:0:
192,192,63194,1,0,0:0:0:0:
448,192,63259,1,0,0:0:0:0:
64,192,63324,1,0,0:0:0:0:
320,192,63455,1,0,0:0:0:0:
64,192,63455,1,0,0:0:0:0:
320,192,63585,1,0,0:0:0:0:
64,192,63585,1,0,0:0:0:0:
448,192,63650,1,0,0:0:0:0:
192,192,63716,1,0,0:0:0:0:
64,192,63846,128,0,63976:0:0:0:0:
192,192,63846,1,0,0:0:0:0:
448,192,63846,1,0,0:0:0:0:
448,192,63976,1,0,0:0:0:0:
320,192,64042,1,0,0:0:0:0:
192,192,64107,128,0,64237:0:0:0:0:
64,192,64107,1,0,0:0:0:0:
448,192,64107,1,0,0:0:0:0:
320,192,64237,1,0,0:0:0:0:
64,192,64237,1,0,0:0:0:0:
448,192,64303,1,0,0:0:0:0:
64,192,64368,128,0,64563:0:0:0:0:
320,192,64368,1,0,0:0:0:0:
448,192,64433,1,0,0:0:0:0:
192,192,64498,1,0,0:0:0:0:
320,192,64563,1,0,0:0:0:0:
192,192,64629,128,0,64759:0:0:0:0:
448,192,64629,1,0,0:0:0:0:
320,192,64759,1,0,0:0:0:0:
64,192,64759,1,0,0:0:0:0:
64,192,64890,128,0,65020:0:0:0:0:
448,192,64890,1,0,0:0:0:0:
320,192,64890,1,0,0:0:0:0:
192,192,64955,1,0,0:0:0:0:
320,192,65020,1,0,0:0:0:0:
448,192,65085,1,0,0:0:0:0:
192,192,65150,128,0,65281:0:0:0:0:
320,192,65150,1,0,0:0:0:0:
64,192,65281,1,0,0:0:0:0:
448,192,65346,1,0,0:0:0:0:
320,192,65411,128,0,65542:0:0:0:0:
192,192,65411,1,0,0:0:0:0:
64,192,65542,1,0,0:0:0:0:
192,192,65607,1,0,0:0:0:0:
448,192,65672,128,0,65803:0:0:0:0:
320,192,65672,1,0,0:0:0:0:
64,192,65803,1,0,0:0:0:0:
192,192,65868,1,0,0:0:0:0:
448,192,65933,128,0,66063:0:0:0:0:
320,192,65933,1,0,0:0:0:0:
64,192,66063,1,0,0:0:0:0:
192,192,66129,1,0,0:0:0:0:
448,192,66194,128,0,66324:0:0:0:0:
320,192,66194,1,0,0:0:0:0:
64,192,66324,1,0,0:0:0:0:
192,192,66390,1,0,0:0:0:0:
448,192,66455,128,0,66585:0:0:0:0:
320,192,66455,1,0,0:0:0:0:
64,192,66585,1,0,0:0:0:0:
192,192,66716,1,0,0:0:0:0:
320,192,66716,1,0,0:0:0:0:
64,192,66846,1,0,0:0:0:0:
448,192,66846,1,0,0:0:0:0:
192,192,66976,1,0,0:0:0:0:
320,192,66976,1,0,0:0:0:0:
64,192,67042,1,0,0:0:0:0:
192,192,67107,1,0,0:0:0:0:
320,192,67172,1,0,0:0:0:0:
448,192,67237,1,0,0:0:0:0:
64,192,67237,1,0,0:0:0:0:
192,192,67303,1,0,0:0:0:0:
320,192,67368,1,0,0:0:0:0:
448,192,67433,1,0,0:0:0:0:
64,192,67433,1,0,0:0:0:0:
192,192,67498,1,0,0:0:0:0:
320,192,67563,1,0,0:0:0:0:
448,192,67629,1,0,0:0:0:0:
64,192,67629,128,0,67955:0:0:0:0:
192,192,67694,1,0,0:0:0:0:
320,192,67759,1,0,0:0:0:0:
448,192,67824,1,0,0:0:0:0:
192,192,68020,1,0,0:0:0:0:
320,192,68085,1,0,0:0:0:0:
448,192,68150,1,0,0:0:0:0:
64,192,68150,1,0,0:0:0:0:
192,192,68216,1,0,0:0:0:0:
320,192,68281,1,0,0:0:0:0:
448,192,68346,1,0,0:0:0:0:
64,192,68346,1,0,0:0:0:0:
192,192,68411,1,0,0:0:0:0:
320,192,68476,1,0,0:0:0:0:
448,192,68542,1,0,0:0:0:0:
64,192,68542,1,0,0:0:0:0:
192,192,68607,1,0,0:0:0:0:
320,192,68672,1,0,0:0:0:0:
448,192,68737,1,0,0:0:0:0:
64,192,68737,1,0,0:0:0:0:
192,192,68803,1,0,0:0:0:0:
320,192,68868,1,0,0:0:0:0:
448,192,68933,1,0,0:0:0:0:
64,192,68933,1,0,0:0:0:0:
192,192,68998,1,0,0:0:0:0:
320,192,69063,1,0,0:0:0:0:
448,192,69129,1,0,0:0:0:0:
320,192,69194,1,0,0:0:0:0:
192,192,69259,1,0,0:0:0:0:
64,192,69324,1,0,0:0:0:0:
448,192,69324,1,0,0:0:0:0:
320,192,69390,1,0,0:0:0:0:
192,192,69455,1,0,0:0:0:0:
64,192,69520,1,0,0:0:0:0:
448,192,69520,1,0,0:0:0:0:
320,192,69585,1,0,0:0:0:0:
192,192,69650,1,0,0:0:0:0:
448,192,69716,1,0,0:0:0:0:
64,192,69716,1,0,0:0:0:0:
320,192,69781,1,0,0:0:0:0:
192,192,69846,1,0,0:0:0:0:
64,192,69911,1,0,0:0:0:0:
448,192,69911,1,0,0:0:0:0:
320,192,69976,1,0,0:0:0:0:
192,192,70042,1,0,0:0:0:0:
64,192,70107,1,0,0:0:0:0:
192,192,70172,1,0,0:0:0:0:
320,192,70237,1,0,0:0:0:0:
448,192,70303,1,0,0:0:0:0:
192,192,70303,1,0,0:0:0:0:
64,192,70368,1,0,0:0:0:0:
64,192,70498,1,0,0:0:0:0:
320,192,70498,1,0,0:0:0:0:
192,192,70563,1,0,0:0:0:0:
448,192,70563,1,0,0:0:0:0:
320,192,70629,1,0,0:0:0:0:
448,192,70694,1,0,0:0:0:0:
320,192,70759,1,0,0:0:0:0:
192,192,70824,1,0,0:0:0:0:
64,192,70890,1,0,0:0:0:0:
192,192,70955,1,0,0:0:0:0:
320,192,71020,1,0,0:0:0:0:
448,192,71085,1,0,0:0:0:0:
320,192,71150,1,0,0:0:0:0:
192,192,71216,1,0,0:0:0:0:
64,192,71281,1,0,0:0:0:0:
448,192,71476,1,0,0:0:0:0:
320,192,71542,1,0,0:0:0:0:
192,192,71607,1,0,0:0:0:0:
64,192,71672,1,0,0:0:0:0:
448,192,71672,1,0,0:0:0:0:
320,192,71737,1,0,0:0:0:0:
192,192,71803,1,0,0:0:0:0:
64,192,71868,1,0,0:0:0:0:
192,192,71933,1,0,0:0:0:0:
320,192,71998,1,0,0:0:0:0:
448,192,72063,1,0,0:0:0:0:
64,192,72063,1,0,0:0:0:0:
192,192,72129,1,0,0:0:0:0:
320,192,72194,1,0,0:0:0:0:
448,192,72259,1,0,0:0:0:0:
64,192,72259,1,0,0:0:0:0:
192,192,72324,1,0,0:0:0:0:
320,192,72390,1,0,0:0:0:0:
448,192,72455,1,0,0:0:0:0:
64,192,72455,1,0,0:0:0:0:
192,192,72520,1,0,0:0:0:0:
320,192,72585,1,0,0:0:0:0:
448,192,72650,1,0,0:0:0:0:
320,192,72716,1,0,0:0:0:0:
192,192,72781,1,0,0:0:0:0:
64,192,72846,1,0,0:0:0:0:
448,192,72911,1,0,0:0:0:0:
192,192,72976,1,0,0:0:0:0:
64,192,73042,1,0,0:0:0:0:
192,192,73107,1,0,0:0:0:0:
320,192,73172,1,0,0:0:0:0:
448,192,73237,1,0,0:0:0:0:
64,192,73303,1,0,0:0:0:0:
448,192,73368,1,0,0:0:0:0:
64,192,73433,1,0,0:0:0:0:
448,192,73498,1,0,0:0:0:0:
64,192,73563,1,0,0:0:0:0:
448,192,73629,1,0,0:0:0:0:
64,192,73694,1,0,0:0:0:0:
448,192,73759,1,0,0:0:0:0:
320,192,73824,1,0,0:0:0:0:
192,192,73890,1,0,0:0:0:0:
64,192,73955,1,0,0:0:0:0:
192,192,74020,1,0,0:0:0:0:
320,192,74085,1,0,0:0:0:0:
448,192,74150,1,0,0:0:0:0:
320,192,74216,1,0,0:0:0:0:
192,192,74281,1,0,0:0:0:0:
64,192,74346,1,0,0:0:0:0:
448,192,74346,1,0,0:0:0:0:
320,192,74411,1,0,0:0:0:0:
192,192,74476,1,0,0:0:0:0:
64,192,74542,1,0,0:0:0:0:
448,192,74542,1,0,0:0:0:0:
320,192,74607,1,0,0:0:0:0:
192,192,74672,1,0,0:0:0:0:
64,192,74737,1,0,0:0:0:0:
192,192,74803,1,0,0:0:0:0:
320,192,74868,1,0,0:0:0:0:
448,192,74933,1,0,0:0:0:0:
64,192,74933,1,0,0:0:0:0:
192,192,74998,1,0,0:0:0:0:
320,192,75063,1,0,0:0:0:0:
448,192,75129,1,0,0:0:0:0:
64,192,75129,1,0,0:0:0:0:
192,192,75194,1,0,0:0:0:0:
320,192,75259,1,0,0:0:0:0:
448,192,75324,1,0,0:0:0:0:
320,192,75390,1,0,0:0:0:0:
192,192,75455,1,0,0:0:0:0:
64,192,75520,1,0,0:0:0:0:
448,192,75520,1,0,0:0:0:0:
320,192,75585,1,0,0:0:0:0:
192,192,75650,1,0,0:0:0:0:
64,192,75716,1,0,0:0:0:0:
192,192,75781,1,0,0:0:0:0:
320,192,75846,1,0,0:0:0:0:
192,192,75911,1,0,0:0:0:0:
320,192,75976,1,0,0:0:0:0:
192,192,76042,1,0,0:0:0:0:
448,192,76107,1,0,0:0:0:0:
320,192,76172,1,0,0:0:0:0:
64,192,76237,1,0,0:0:0:0:
448,192,76237,1,0,0:0:0:0:
192,192,76237,128,0,76303:0:0:0:0:
320,192,76368,1,0,0:0:0:0:
448,192,76433,1,0,0:0:0:0:
64,192,76498,128,0,76563:0:0:0:0:
192,192,76498,1,0,0:0:0:0:
320,192,76563,1,0,0:0:0:0:
448,192,76629,1,0,0:0:0:0:
64,192,76759,128,0,76824:0:0:0:0:
192,192,76759,1,0,0:0:0:0:
320,192,76824,1,0,0:0:0:0:
448,192,76890,1,0,0:0:0:0:
64,192,77020,128,0,77085:0:0:0:0:
192,192,77020,1,0,0:0:0:0:
320,192,77085,1,0,0:0:0:0:
448,192,77150,1,0,0:0:0:0:
64,192,77281,128,0,77346:0:0:0:0:
192,192,77281,1,0,0:0:0:0:
320,192,77346,1,0,0:0:0:0:
192,192,77411,1,0,0:0:0:0:
448,192,77476,1,0,0:0:0:0:
64,192,77542,128,0,77607:0:0:0:0:
320,192,77607,1,0,0:0:0:0:
448,192,77672,1,0,0:0:0:0:
64,192,77803,128,0,77868:0:0:0:0:
192,192,77803,1,0,0:0:0:0:
320,192,77868,1,0,0:0:0:0:
448,192,77933,1,0,0:0:0:0:
64,192,78063,128,0,78129:0:0:0:0:
448,192,78129,1,0,0:0:0:0:
320,192,78194,1,0,0:0:0:0:
320,192,78324,128,0,78390:0:0:0:0:
64,192,78324,1,0,0:0:0:0:
192,192,78390,1,0,0:0:0:0:
448,192,78455,1,0,0:0:0:0:
320,192,78585,128,0,78650:0:0:0:0:
64,192,78585,1,0,0:0:0:0:
192,192,78650,1,0,0:0:0:0:
448,192,78716,1,0,0:0:0:0:
320,192,78846,128,0,78911:0:0:0:0:
64,192,78846,1,0,0:0:0:0:
192,192,78911,1,0,0:0:0:0:
64,192,78976,1,0,0:0:0:0:
448,192,79042,1,0,0:0:0:0:
320,192,79107,128,0,79172:0:0:0:0:
64,192,79172,1,0,0:0:0:0:
192,192,79237,1,0,0:0:0:0:
64,192,79303,1,0,0:0:0:0:
320,192,79368,128,0,79433:0:0:0:0:
64,192,79433,1,0,0:0:0:0:
192,192,79498,1,0,0:0:0:0:
448,192,79563,1,0,0:0:0:0:
320,192,79629,128,0,79694:0:0:0:0:
64,192,79629,1,0,0:0:0:0:
448,192,79694,1,0,0:0:0:0:
192,192,79694,1,0,0:0:0:0:
64,192,79759,1,0,0:0:0:0:
192,192,79824,1,0,0:0:0:0:
320,192,79890,128,0,79955:0:0:0:0:
64,192,79955,1,0,0:0:0:0:
448,192,80020,1,0,0:0:0:0:
64,192,80085,1,0,0:0:0:0:
320,192,80150,128,0,80216:0:0:0:0:
448,192,80216,1,0,0:0:0:0:
192,192,80281,1,0,0:0:0:0:
320,192,80346,1,0,0:0:0:0:
64,192,80411,128,0,80476:0:0:0:0:
320,192,80476,1,0,0:0:0:0:
192,192,80542,1,0,0:0:0:0:
320,192,80607,1,0,0:0:0:0:
64,192,80672,128,0,80737:0:0:0:0:
320,192,80737,1,0,0:0:0:0:
192,192,80803,1,0,0:0:0:0:
320,192,80868,1,0,0:0:0:0:
64,192,80933,128,0,80998:0:0:0:0:
320,192,80998,1,0,0:0:0:0:
448,192,81063,1,0,0:0:0:0:
320,192,81129,1,0,0:0:0:0:
64,192,81194,128,0,81259:0:0:0:0:
320,192,81259,1,0,0:0:0:0:
448,192,81324,1,0,0:0:0:0:
320,192,81390,1,0,0:0:0:0:
64,192,81455,128,0,81520:0:0:0:0:
320,192,81520,1,0,0:0:0:0:
448,192,81585,1,0,0:0:0:0:
192,192,81585,1,0,0:0:0:0:
320,192,81650,1,0,0:0:0:0:
64,192,81716,128,0,81781:0:0:0:0:
192,192,81846,1,0,0:0:0:0:
320,192,81846,1,0,0:0:0:0:
64,192,81976,128,0,82042:0:0:0:0:
192,192,82107,1,0,0:0:0:0:
320,192,82107,1,0,0:0:0:0:
64,192,82237,128,0,82303:0:0:0:0:
448,192,82237,1,0,0:0:0:0:
192,192,82368,1,0,0:0:0:0:
320,192,82368,1,0,0:0:0:0:
192,192,82498,128,0,82563:0:0:0:0:
448,192,82498,1,0,0:0:0:0:
320,192,82629,1,0,0:0:0:0:
64,192,82694,1,0,0:0:0:0:
192,192,82759,128,0,82824:0:0:0:0:
64,192,82824,1,0,0:0:0:0:
448,192,82890,1,0,0:0:0:0:
320,192,82955,1,0,0:0:0:0:
192,192,83020,128,0,83085:0:0:0:0:
64,192,83020,1,0,0:0:0:0:
64,192,83150,1,0,0:0:0:0:
448,192,83150,1,0,0:0:0:0:
192,192,83216,1,0,0:0:0:0:
320,192,83281,1,0,0:0:0:0:
448,192,83346,1,0,0:0:0:0:
64,192,83346,1,0,0:0:0:0:
192,192,83411,1,0,0:0:0:0:
320,192,83476,1,0,0:0:0:0:
448,192,83542,1,0,0:0:0:0:
64,192,83542,1,0,0:0:0:0:
192,192,83607,1,0,0:0:0:0:
320,192,83672,1,0,0:0:0:0:
448,192,83737,1,0,0:0:0:0:
64,192,83737,1,0,0:0:0:0:
192,192,83803,1,0,0:0:0:0:
320,192,83868,1,0,0:0:0:0:
448,192,83933,1,0,0:0:0:0:
320,192,84063,1,0,0:0:0:0:
192,192,84129,1,0,0:0:0:0:
64,192,84259,1,0,0:0:0:0:
192,192,84324,1,0,0:0:0:0:
320,192,84390,1,0,0:0:0:0:
64,192,84390,1,0,0:0:0:0:
448,192,84455,1,0,0:0:0:0:
192,192,84455,1,0,0:0:0:0:
320,192,84520,1,0,0:0:0:0:
448,192,84585,1,0,0:0:0:0:
64,192,84716,1,0,0:0:0:0:
320,192,84716,1,0,0:0:0:0:
448,192,84846,1,0,0:0:0:0:
192,192,84846,1,0,0:0:0:0:
320,192,84846,1,0,0:0:0:0:
64,192,84976,1,0,0:0:0:0:
320,192,84976,1,0,0:0:0:0:
192,192,85042,128,0,85172:0:0:0:0:
448,192,85107,1,0,0:0:0:0:
64,192,85237,1,0,0:0:0:0:
320,192,85237,1,0,0:0:0:0:
192,192,85368,1,0,0:0:0:0:
448,192,85368,1,0,0:0:0:0:
64,192,85498,1,0,0:0:0:0:
320,192,85498,128,0,85563:0:0:0:0:
192,192,85498,1,0,0:0:0:0:
448,192,85629,128,0,85694:0:0:0:0:
64,192,85759,1,0,0:0:0:0:
192,192,85759,128,0,85890:0:0:0:0:
320,192,85759,1,0,0:0:0:0:
320,192,85890,1,0,0:0:0:0:
448,192,85890,1,0,0:0:0:0:
64,192,86020,1,0,0:0:0:0:
448,192,86020,128,0,86281:0:0:0:0:
192,192,86020,128,0,86085:0:0:0:0:
64,192,86281,1,0,0:0:0:0:
320,192,86281,128,0,86542:0:0:0:0:
192,192,86281,1,0,0:0:0:0:
192,192,86411,1,0,0:0:0:0:
64,192,86542,1,0,0:0:0:0:
192,192,86542,128,0,86672:0:0:0:0:
448,192,86542,1,0,0:0:0:0:
320,192,86672,128,0,86737:0:0:0:0:
64,192,86803,1,0,0:0:0:0:
448,192,86803,128,0,86933:0:0:0:0:
192,192,86803,1,0,0:0:0:0:
192,192,86933,1,0,0:0:0:0:
320,192,86933,1,0,0:0:0:0:
64,192,87063,1,0,0:0:0:0:
192,192,87063,128,0,87194:0:0:0:0:
320,192,87063,1,0,0:0:0:0:
448,192,87194,1,0,0:0:0:0:
320,192,87194,1,0,0:0:0:0:
64,192,87324,1,0,0:0:0:0:
448,192,87324,1,0,0:0:0:0:
192,192,87324,1,0,0:0:0:0:
320,192,87390,128,0,87520:0:0:0:0:
64,192,87585,1,0,0:0:0:0:
192,192,87585,128,0,87716:0:0:0:0:
448,192,87585,1,0,0:0:0:0:
320,192,87716,1,0,0:0:0:0:
64,192,87846,1,0,0:0:0:0:
448,192,87846,1,0,0:0:0:0:
320,192,87846,1,0,0:0:0:0:
320,192,87976,128,0,88042:0:0:0:0:
192,192,87976,1,0,0:0:0:0:
64,192,88107,1,0,0:0:0:0:
448,192,88107,128,0,88172:0:0:0:0:
192,192,88237,128,0,88303:0:0:0:0:
320,192,88237,1,0,0:0:0:0:
64,192,88368,1,0,0:0:0:0:
320,192,88368,128,0,88433:0:0:0:0:
192,192,88498,1,0,0:0:0:0:
64,192,88629,1,0,0:0:0:0:
320,192,88629,128,0,88694:0:0:0:0:
192,192,88629,1,0,0:0:0:0:
448,192,88759,128,0,88824:0:0:0:0:
192,192,88890,1,0,0:0:0:0:
320,192,88890,1,0,0:0:0:0:
192,192,89020,128,0,89085:0:0:0:0:
64,192,89150,1,0,0:0:0:0:
320,192,89150,128,0,89281:0:0:0:0:
448,192,89150,1,0,0:0:0:0:
192,192,89281,1,0,0:0:0:0:
64,192,89411,1,0,0:0:0:0:
448,192,89411,1,0,0:0:0:0:
320,192,89411,1,0,0:0:0:0:
192,192,89542,1,0,0:0:0:0:
64,192,89672,1,0,0:0:0:0:
448,192,89672,128,0,89803:0:0:0:0:
320,192,89672,1,0,0:0:0:0:
320,192,89803,128,0,89933:0:0:0:0:
192,192,89803,1,0,0:0:0:0:
64,192,89933,1,0,0:0:0:0:
192,192,89933,128,0,89998:0:0:0:0:
448,192,89933,1,0,0:0:0:0:
448,192,90063,1,0,0:0:0:0:
64,192,90194,1,0,0:0:0:0:
320,192,90194,128,0,90259:0:0:0:0:
448,192,90259,128,0,90324:0:0:0:0:
192,192,90324,1,0,0:0:0:0:
64,192,90455,1,0,0:0:0:0:
192,192,90455,128,0,90585:0:0:0:0:
320,192,90455,1,0,0:0:0:0:
448,192,90585,1,0,0:0:0:0:
320,192,90585,1,0,0:0:0:0:
64,192,90716,1,0,0:0:0:0:
320,192,90716,128,0,90781:0:0:0:0:
192,192,90846,1,0,0:0:0:0:
448,192,90846,1,0,0:0:0:0:
64,192,90976,1,0,0:0:0:0:
448,192,90976,128,0,91042:0:0:0:0:
320,192,90976,1,0,0:0:0:0:
320,192,91107,1,0,0:0:0:0:
64,192,91237,1,0,0:0:0:0:
192,192,91237,128,0,91303:0:0:0:0:
448,192,91368,1,0,0:0:0:0:
64,192,91368,1,0,0:0:0:0:
192,192,91498,1,0,0:0:0:0:
320,192,91498,128,0,91629:0:0:0:0:
448,192,91629,1,0,0:0:0:0:
64,192,91629,1,0,0:0:0:0:
448,192,91759,128,0,91824:0:0:0:0:
192,192,91759,1,0,0:0:0:0:
64,192,91824,1,0,0:0:0:0:
320,192,91890,128,0,91955:0:0:0:0:
192,192,91955,128,0,92020:0:0:0:0:
64,192,92020,1,0,0:0:0:0:
448,192,92020,1,0,0:0:0:0:
320,192,92085,128,0,92150:0:0:0:0:
448,192,92150,128,0,92216:0:0:0:0:
192,192,92150,1,0,0:0:0:0:
64,192,92281,1,0,0:0:0:0:
320,192,92281,128,0,92346:0:0:0:0:
192,192,92346,128,0,92411:0:0:0:0:
448,192,92411,1,0,0:0:0:0:
64,192,92542,1,0,0:0:0:0:
448,192,92542,128,0,92803:0:0:0:0:
192,192,92542,1,0,0:0:0:0:
192,192,92672,1,0,0:0:0:0:
320,192,92672,1,0,0:0:0:0:
320,192,92803,1,0,0:0:0:0:
192,192,92803,1,0,0:0:0:0:
64,192,92868,128,0,93063:0:0:0:0:
448,192,92933,1,0,0:0:0:0:
192,192,93063,1,0,0:0:0:0:
320,192,93063,1,0,0:0:0:0:
448,192,93129,128,0,93259:0:0:0:0:
320,192,93194,1,0,0:0:0:0:
64,192,93259,128,0,93455:0:0:0:0:
192,192,93324,1,0,0:0:0:0:
320,192,93455,1,0,0:0:0:0:
448,192,93520,128,0,93650:0:0:0:0:
192,192,93585,1,0,0:0:0:0:
64,192,93716,128,0,93976:0:0:0:0:
320,192,93716,1,0,0:0:0:0:
192,192,93716,1,0,0:0:0:0:
192,192,93846,1,0,0:0:0:0:
448,192,93846,1,0,0:0:0:0:
320,192,93976,1,0,0:0:0:0:
192,192,94107,1,0,0:0:0:0:
448,192,94107,1,0,0:0:0:0:
64,192,94237,1,0,0:0:0:0:
320,192,94237,1,0,0:0:0:0:
448,192,94237,1,0,0:0:0:0:
192,192,94368,1,0,0:0:0:0:
448,192,94368,1,0,0:0:0:0:
320,192,94498,1,0,0:0:0:0:
64,192,94498,1,0,0:0:0:0:
192,192,94629,1,0,0:0:0:0:
64,192,94629,1,0,0:0:0:0:
448,192,94629,1,0,0:0:0:0:
192,192,94759,1,0,0:0:0:0:
448,192,94759,1,0,0:0:0:0:
320,192,94890,1,0,0:0:0:0:
64,192,94890,1,0,0:0:0:0:
448,192,95020,128,0,95150:0:0:0:0:
192,192,95020,1,0,0:0:0:0:
320,192,95150,1,0,0:0:0:0:
64,192,95150,1,0,0:0:0:0:
64,192,95281,128,0,95411:0:0:0:0:
192,192,95281,1,0,0:0:0:0:
448,192,95281,1,0,0:0:0:0:
448,192,95411,128,0,95672:0:0:0:0:
320,192,95411,1,0,0:0:0:0:
192,192,95542,1,0,0:0:0:0:
320,192,95672,1,0,0:0:0:0:
64,192,95672,1,0,0:0:0:0:
64,192,95803,128,0,95933:0:0:0:0:
320,192,95803,1,0,0:0:0:0:
192,192,95803,1,0,0:0:0:0:
448,192,95933,128,0,96194:0:0:0:0:
320,192,95933,1,0,0:0:0:0:
64,192,96063,1,0,0:0:0:0:
192,192,96063,1,0,0:0:0:0:
320,192,96194,1,0,0:0:0:0:
192,192,96194,1,0,0:0:0:0:
192,192,96324,1,0,0:0:0:0:
64,192,96324,1,0,0:0:0:0:
448,192,96324,1,0,0:0:0:0:
320,192,96455,1,0,0:0:0:0:
64,192,96455,1,0,0:0:0:0:
192,192,96585,1,0,0:0:0:0:
448,192,96585,1,0,0:0:0:0:
64,192,96716,1,0,0:0:0:0:
448,192,96716,1,0,0:0:0:0:
320,192,96716,1,0,0:0:0:0:
64,192,96976,1,0,0:0:0:0:
320,192,97042,1,0,0:0:0:0:
448,192,97107,1,0,0:0:0:0:
192,192,97107,1,0,0:0:0:0:
64,192,97237,1,0,0:0:0:0:
320,192,97237,1,0,0:0:0:0:
192,192,97368,1,0,0:0:0:0:
448,192,97368,1,0,0:0:0:0:
64,192,97498,1,0,0:0:0:0:
320,192,97498,1,0,0:0:0:0:
448,192,97563,1,0,0:0:0:0:
192,192,97629,1,0,0:0:0:0:
64,192,97759,1,0,0:0:0:0:
448,192,97759,1,0,0:0:0:0:
192,192,97890,1,0,0:0:0:0:
320,192,97890,1,0,0:0:0:0:
192,192,98020,1,0,0:0:0:0:
64,192,98020,1,0,0:0:0:0:
448,192,98085,1,0,0:0:0:0:
320,192,98150,1,0,0:0:0:0:
448,192,98216,1,0,0:0:0:0:
64,192,98281,1,0,0:0:0:0:
320,192,98281,1,0,0:0:0:0:
192,192,98346,1,0,0:0:0:0:
320,192,98411,1,0,0:0:0:0:
448,192,98476,1,0,0:0:0:0:
192,192,98476,1,0,0:0:0:0:
64,192,98542,1,0,0:0:0:0:
320,192,98542,1,0,0:0:0:0:
192,192,98672,1,0,0:0:0:0:
448,192,98672,1,0,0:0:0:0:
320,192,98737,1,0,0:0:0:0:
64,192,98803,1,0,0:0:0:0:
448,192,98803,1,0,0:0:0:0:
192,192,98868,1,0,0:0:0:0:
320,192,98933,1,0,0:0:0:0:
64,192,98933,1,0,0:0:0:0:
448,192,98998,1,0,0:0:0:0:
192,192,98998,1,0,0:0:0:0:
320,192,99063,1,0,0:0:0:0:
448,192,99129,1,0,0:0:0:0:
64,192,99129,128,0,99324:0:0:0:0:
192,192,99129,1,0,0:0:0:0:
192,192,99324,128,0,99520:0:0:0:0:
320,192,99324,1,0,0:0:0:0:
320,192,99520,128,0,99716:0:0:0:0:
448,192,99520,1,0,0:0:0:0:
448,192,99716,128,0,99911:0:0:0:0:
192,192,99716,1,0,0:0:0:0:
64,192,99911,1,0,0:0:0:0:
64,192,100107,128,0,100368:0:0:0:0:
448,192,100107,1,0,0:0:0:0:
448,192,100368,1,0,0:0:0:0:
64,192,100498,1,0,0:0:0:0:
448,192,100498,1,0,0:0:0:0:
192,192,100629,1,0,0:0:0:0:
320,192,100629,1,0,0:0:0:0:
64,192,100759,1,0,0:0:0:0:
448,192,100759,1,0,0:0:0:0:
192,192,100890,1,0,0:0:0:0:
320,192,100890,1,0,0:0:0:0:
448,192,100890,1,0,0:0:0:0:
320,192,101020,1,0,0:0:0:0:
64,192,101020,1,0,0:0:0:0:
192,192,101150,128,0,101411:0:0:0:0:
320,192,101150,128,0,101411:0:0:0:0:
448,192,101150,1,0,0:0:0:0:
64,192,101150,1,0,0:0:0:0:
64,192,101411,128,0,101542:0:0:0:0:
448,192,101542,1,0,0:0:0:0:
192,192,101542,1,0,0:0:0:0:
192,192,101672,128,0,101803:0:0:0:0:
320,192,101672,1,0,0:0:0:0:
448,192,101803,1,0,0:0:0:0:
320,192,101933,128,0,102063:0:0:0:0:
64,192,101933,1,0,0:0:0:0:
64,192,102063,1,0,0:0:0:0:
448,192,102063,1,0,0:0:0:0:
448,192,102194,128,0,102324:0:0:0:0:
192,192,102194,1,0,0:0:0:0:
64,192,102324,1,0,0:0:0:0:
192,192,102324,1,0,0:0:0:0:
320,192,102455,128,0,102585:0:0:0:0:
192,192,102455,1,0,0:0:0:0:
64,192,102585,1,0,0:0:0:0:
448,192,102585,1,0,0:0:0:0:
192,192,102716,128,0,102846:0:0:0:0:
64,192,102716,1,0,0:0:0:0:
448,192,102716,1,0,0:0:0:0:
320,192,102846,1,0,0:0:0:0:
64,192,102976,128,0,103107:0:0:0:0:
448,192,102976,1,0,0:0:0:0:
320,192,102976,1,0,0:0:0:0:
320,192,103107,1,0,0:0:0:0:
192,192,103237,128,0,103368:0:0:0:0:
320,192,103237,1,0,0:0:0:0:
448,192,103237,1,0,0:0:0:0:
64,192,103368,1,0,0:0:0:0:
448,192,103368,1,0,0:0:0:0:
320,192,103498,128,0,103629:0:0:0:0:
64,192,103498,1,0,0:0:0:0:
448,192,103498,1,0,0:0:0:0:
192,192,103563,1,0,0:0:0:0:
64,192,103629,1,0,0:0:0:0:
192,192,103694,1,0,0:0:0:0:
448,192,103759,128,0,103890:0:0:0:0:
64,192,103759,1,0,0:0:0:0:
320,192,103890,1,0,0:0:0:0:
192,192,103890,1,0,0:0:0:0:
64,192,104020,128,0,104150:0:0:0:0:
192,192,104020,1,0,0:0:0:0:
448,192,104150,1,0,0:0:0:0:
320,192,104150,1,0,0:0:0:0:
192,192,104281,128,0,104411:0:0:0:0:
320,192,104281,1,0,0:0:0:0:
64,192,104411,1,0,0:0:0:0:
448,192,104411,1,0,0:0:0:0:
320,192,104542,128,0,104672:0:0:0:0:
448,192,104542,1,0,0:0:0:0:
64,192,104542,1,0,0:0:0:0:
192,192,104672,1,0,0:0:0:0:
448,192,104803,128,0,104933:0:0:0:0:
192,192,104803,1,0,0:0:0:0:
64,192,104803,1,0,0:0:0:0:
192,192,104933,1,0,0:0:0:0:
320,192,105063,128,0,105194:0:0:0:0:
64,192,105063,1,0,0:0:0:0:
64,192,105194,1,0,0:0:0:0:
192,192,105194,1,0,0:0:0:0:
448,192,105194,1,0,0:0:0:0:
192,192,105324,1,0,0:0:0:0:
320,192,105324,1,0,0:0:0:0:
64,192,105585,1,0,0:0:0:0:
448,192,105585,1,0,0:0:0:0:
192,192,105716,128,0,105846:0:0:0:0:
320,192,105716,1,0,0:0:0:0:
448,192,105716,1,0,0:0:0:0:
64,192,105716,1,0,0:0:0:0:
64,192,105846,128,0,105976:0:0:0:0:
320,192,105846,1,0,0:0:0:0:
448,192,105976,1,0,0:0:0:0:
192,192,105976,1,0,0:0:0:0:
192,192,106107,128,0,106237:0:0:0:0:
320,192,106107,1,0,0:0:0:0:
320,192,106237,1,0,0:0:0:0:
448,192,106237,1,0,0:0:0:0:
64,192,106237,1,0,0:0:0:0:
320,192,106368,128,0,106498:0:0:0:0:
448,192,106368,1,0,0:0:0:0:
64,192,106368,1,0,0:0:0:0:
64,192,106498,1,0,0:0:0:0:
64,192,106629,1,0,0:0:0:0:
448,192,106629,128,0,106759:0:0:0:0:
192,192,106629,1,0,0:0:0:0:
192,192,106759,1,0,0:0:0:0:
64,192,106890,128,0,107020:0:0:0:0:
192,192,106890,1,0,0:0:0:0:
320,192,106890,1,0,0:0:0:0:
320,192,107020,1,0,0:0:0:0:
448,192,107020,1,0,0:0:0:0:
192,192,107150,128,0,107281:0:0:0:0:
320,192,107150,1,0,0:0:0:0:
448,192,107281,1,0,0:0:0:0:
64,192,107281,1,0,0:0:0:0:
320,192,107281,1,0,0:0:0:0:
64,192,107411,1,0,0:0:0:0:
448,192,107411,1,0,0:0:0:0:
192,192,107476,1,0,0:0:0:0:
320,192,107542,1,0,0:0:0:0:
64,192,107542,1,0,0:0:0:0:
448,192,107607,1,0,0:0:0:0:
320,192,107672,1,0,0:0:0:0:
64,192,107672,1,0,0:0:0:0:
448,192,107737,1,0,0:0:0:0:
192,192,107803,1,0,0:0:0:0:
320,192,107868,1,0,0:0:0:0:
64,192,107933,128,0,108063:0:0:0:0:
192,192,107933,1,0,0:0:0:0:
320,192,108063,1,0,0:0:0:0:
64,192,108194,128,0,108455:0:0:0:0:
448,192,108194,128,0,108455:0:0:0:0:
192,192,108324,128,0,108455:0:0:0:0:
320,192,108324,128,0,108455:0:0:0:0:
192,192,108585,1,0,0:0:0:0:
320,192,108585,1,0,0:0:0:0:
64,192,108716,1,0,0:0:0:0:
448,192,108716,1,0,0:0:0:0:
192,192,108781,1,0,0:0:0:0:
320,192,108846,1,0,0:0:0:0:
64,192,108846,1,0,0:0:0:0:
448,192,108911,1,0,0:0:0:0:
192,192,108911,1,0,0:0:0:0:
320,192,108976,1,0,0:0:0:0:
448,192,109042,1,0,0:0:0:0:
64,192,109107,128,0,109237:0:0:0:0:
192,192,109107,1,0,0:0:0:0:
320,192,109107,1,0,0:0:0:0:
192,192,109237,128,0,109368:0:0:0:0:
320,192,109237,1,0,0:0:0:0:
320,192,109368,1,0,0:0:0:0:
64,192,109368,1,0,0:0:0:0:
448,192,109433,128,0,109563:0:0:0:0:
64,192,109498,1,0,0:0:0:0:
320,192,109498,1,0,0:0:0:0:
320,192,109629,128,0,109759:0:0:0:0:
192,192,109629,1,0,0:0:0:0:
448,192,109629,128,0,109759:0:0:0:0:
64,192,109694,1,0,0:0:0:0:
192,192,109759,1,0,0:0:0:0:
64,192,109824,1,0,0:0:0:0:
448,192,109824,128,0,110020:0:0:0:0:
192,192,110020,1,0,0:0:0:0:
64,192,110150,128,0,110281:0:0:0:0:
320,192,110150,1,0,0:0:0:0:
448,192,110281,1,0,0:0:0:0:
192,192,110281,1,0,0:0:0:0:
192,192,110411,128,0,110542:0:0:0:0:
320,192,110411,1,0,0:0:0:0:
448,192,110542,1,0,0:0:0:0:
320,192,110672,128,0,110803:0:0:0:0:
64,192,110672,1,0,0:0:0:0:
64,192,110803,1,0,0:0:0:0:
448,192,110803,1,0,0:0:0:0:
448,192,110933,128,0,111129:0:0:0:0:
192,192,110933,1,0,0:0:0:0:
64,192,111063,1,0,0:0:0:0:
192,192,111063,1,0,0:0:0:0:
320,192,111194,128,0,111324:0:0:0:0:
192,192,111194,1,0,0:0:0:0:
64,192,111324,1,0,0:0:0:0:
448,192,111324,1,0,0:0:0:0:
192,192,111324,1,0,0:0:0:0:
320,192,111455,1,0,0:0:0:0:
64,192,111455,1,0,0:0:0:0:
192,192,111520,1,0,0:0:0:0:
320,192,111585,1,0,0:0:0:0:
64,192,111585,1,0,0:0:0:0:
448,192,111585,1,0,0:0:0:0:
64,192,111716,128,0,111846:0:0:0:0:
448,192,111716,1,0,0:0:0:0:
320,192,111716,1,0,0:0:0:0:
320,192,111846,1,0,0:0:0:0:
192,192,111976,128,0,112107:0:0:0:0:
320,192,111976,1,0,0:0:0:0:
448,192,111976,1,0,0:0:0:0:
64,192,112107,1,0,0:0:0:0:
448,192,112107,1,0,0:0:0:0:
320,192,112237,128,0,112368:0:0:0:0:
64,192,112237,1,0,0:0:0:0:
448,192,112237,1,0,0:0:0:0:
192,192,112303,1,0,0:0:0:0:
64,192,112368,1,0,0:0:0:0:
192,192,112433,1,0,0:0:0:0:
448,192,112498,128,0,112629:0:0:0:0:
64,192,112498,1,0,0:0:0:0:
64,192,112629,128,0,112890:0:0:0:0:
320,192,112629,128,0,112890:0:0:0:0:
192,192,112759,128,0,112890:0:0:0:0:
448,192,112759,128,0,112890:0:0:0:0:
64,192,113020,1,0,0:0:0:0:
448,192,113020,1,0,0:0:0:0:
192,192,113020,1,0,0:0:0:0:
64,192,113150,1,0,0:0:0:0:
448,192,113150,1,0,0:0:0:0:
320,192,113150,1,0,0:0:0:0:
448,192,113281,1,0,0:0:0:0:
64,192,113281,1,0,0:0:0:0:
192,192,113411,1,0,0:0:0:0:
320,192,113411,1,0,0:0:0:0:
192,192,113542,1,0,0:0:0:0:
64,192,113542,1,0,0:0:0:0:
320,192,113607,1,0,0:0:0:0:
448,192,113672,1,0,0:0:0:0:
320,192,113737,1,0,0:0:0:0:
192,192,113803,1,0,0:0:0:0:
64,192,113868,1,0,0:0:0:0:
192,192,113933,1,0,0:0:0:0:
320,192,113998,1,0,0:0:0:0:
448,192,114063,1,0,0:0:0:0:
192,192,114063,1,0,0:0:0:0:
192,192,114194,128,0,114324:0:0:0:0:
320,192,114194,1,0,0:0:0:0:
64,192,114194,1,0,0:0:0:0:
320,192,114324,1,0,0:0:0:0:
448,192,114324,1,0,0:0:0:0:
64,192,114324,1,0,0:0:0:0:
320,192,114455,128,0,114585:0:0:0:0:
448,192,114455,1,0,0:0:0:0:
64,192,114455,1,0,0:0:0:0:
192,192,114585,1,0,0:0:0:0:
64,192,114650,1,0,0:0:0:0:
192,192,114716,1,0,0:0:0:0:
320,192,114781,1,0,0:0:0:0:
448,192,114846,1,0,0:0:0:0:
192,192,114911,1,0,0:0:0:0:
64,192,114976,128,0,115107:0:0:0:0:
448,192,114976,1,0,0:0:0:0:
320,192,114976,1,0,0:0:0:0:
320,192,115107,1,0,0:0:0:0:
448,192,115107,1,0,0:0:0:0:
192,192,115237,128,0,115368:0:0:0:0:
320,192,115237,1,0,0:0:0:0:
448,192,115368,1,0,0:0:0:0:
64,192,115433,128,0,115694:0:0:0:0:
448,192,115498,1,0,0:0:0:0:
320,192,115563,128,0,115694:0:0:0:0:
192,192,115759,1,0,0:0:0:0:
448,192,115824,1,0,0:0:0:0:
64,192,115824,1,0,0:0:0:0:
320,192,115890,1,0,0:0:0:0:
448,192,115955,1,0,0:0:0:0:
192,192,115955,1,0,0:0:0:0:
320,192,116020,1,0,0:0:0:0:
64,192,116020,1,0,0:0:0:0:
192,192,116085,1,0,0:0:0:0:
64,192,116150,1,0,0:0:0:0:
320,192,116150,1,0,0:0:0:0:
448,192,116150,1,0,0:0:0:0:
192,192,116281,128,0,116542:0:0:0:0:
448,192,116281,1,0,0:0:0:0:
320,192,116281,1,0,0:0:0:0:
320,192,116411,1,0,0:0:0:0:
64,192,116411,1,0,0:0:0:0:
448,192,116542,1,0,0:0:0:0:
320,192,116542,1,0,0:0:0:0:
64,192,116542,1,0,0:0:0:0:
64,192,116672,1,0,0:0:0:0:
320,192,116672,1,0,0:0:0:0:
192,192,116737,1,0,0:0:0:0:
448,192,116737,1,0,0:0:0:0:
64,192,116803,1,0,0:0:0:0:
320,192,116803,1,0,0:0:0:0:
192,192,116868,1,0,0:0:0:0:
448,192,116868,1,0,0:0:0:0:
320,192,116933,1,0,0:0:0:0:
64,192,116933,1,0,0:0:0:0:
448,192,116998,1,0,0:0:0:0:
192,192,116998,1,0,0:0:0:0:
64,192,117063,1,0,0:0:0:0:
320,192,117063,1,0,0:0:0:0:
64,192,117194,128,0,117324:0:0:0:0:
192,192,117194,1,0,0:0:0:0:
320,192,117194,1,0,0:0:0:0:
448,192,117194,128,0,117324:0:0:0:0:
320,192,117324,128,0,117520:0:0:0:0:
192,192,117324,1,0,0:0:0:0:
448,192,117455,1,0,0:0:0:0:
64,192,117455,1,0,0:0:0:0:
192,192,117455,1,0,0:0:0:0:
448,192,117585,128,0,117716:0:0:0:0:
64,192,117585,1,0,0:0:0:0:
192,192,117585,1,0,0:0:0:0:
192,192,117716,128,0,117911:0:0:0:0:
320,192,117716,1,0,0:0:0:0:
64,192,117781,1,0,0:0:0:0:
448,192,117846,128,0,118890:0:0:0:0:
320,192,117911,1,0,0:0:0:0:
64,192,117911,128,0,118890:0:0:0:0:
320,192,118890,128,0,120063:0:0:0:0:
192,192,120063,128,0,121107:0:0:0:0:
320,192,121107,128,0,122020:0:0:0:0:
448,192,122020,128,0,123063:0:0:0:0:
64,192,122020,1,0,0:0:0:0:
320,192,123063,128,0,124368:0:0:0:0:
192,192,124368,128,0,125281:0:0:0:0:
320,192,125281,128,0,126194:0:0:0:0:
64,192,125672,128,0,126194:0:0:0:0:
192,192,126063,1,0,0:0:0:0:
448,192,126194,128,0,127237:0:0:0:0:
192,192,126194,1,0,0:0:0:0:
192,192,126324,1,0,0:0:0:0:
64,192,126455,1,0,0:0:0:0:
320,192,126455,1,0,0:0:0:0:
192,192,126585,1,0,0:0:0:0:
64,192,126716,1,0,0:0:0:0:
320,192,126716,1,0,0:0:0:0:
64,192,126846,1,0,0:0:0:0:
320,192,126846,1,0,0:0:0:0:
192,192,126976,1,0,0:0:0:0:
64,192,127107,1,0,0:0:0:0:
320,192,127107,1,0,0:0:0:0:
320,192,127237,128,0,128150:0:0:0:0:
64,192,127237,1,0,0:0:0:0:
192,192,127237,1,0,0:0:0:0:
192,192,127368,1,0,0:0:0:0:
64,192,127498,1,0,0:0:0:0:
448,192,127498,1,0,0:0:0:0:
64,192,127629,1,0,0:0:0:0:
448,192,127629,1,0,0:0:0:0:
192,192,127759,1,0,0:0:0:0:
64,192,127890,1,0,0:0:0:0:
448,192,127890,1,0,0:0:0:0:
192,192,128020,1,0,0:0:0:0:
448,192,128020,1,0,0:0:0:0:
192,192,128150,128,0,129324:0:0:0:0:
64,192,128150,1,0,0:0:0:0:
320,192,128281,1,0,0:0:0:0:
448,192,128281,1,0,0:0:0:0:
64,192,128411,1,0,0:0:0:0:
320,192,128411,1,0,0:0:0:0:
320,192,128542,1,0,0:0:0:0:
320,192,128672,1,0,0:0:0:0:
448,192,128672,1,0,0:0:0:0:
320,192,128803,1,0,0:0:0:0:
64,192,128933,1,0,0:0:0:0:
448,192,128933,1,0,0:0:0:0:
320,192,129063,1,0,0:0:0:0:
64,192,129194,1,0,0:0:0:0:
448,192,129194,1,0,0:0:0:0:
320,192,129324,128,0,130368:0:0:0:0:
64,192,129324,1,0,0:0:0:0:
192,192,129455,1,0,0:0:0:0:
64,192,129585,1,0,0:0:0:0:
448,192,129585,1,0,0:0:0:0:
192,192,129716,1,0,0:0:0:0:
64,192,129846,1,0,0:0:0:0:
448,192,129846,1,0,0:0:0:0:
192,192,129976,1,0,0:0:0:0:
448,192,129976,1,0,0:0:0:0:
448,192,130107,1,0,0:0:0:0:
192,192,130107,1,0,0:0:0:0:
64,192,130237,1,0,0:0:0:0:
192,192,130237,1,0,0:0:0:0:
448,192,130237,1,0,0:0:0:0:
448,192,130368,128,0,131411:0:0:0:0:
192,192,130368,1,0,0:0:0:0:
64,192,130498,1,0,0:0:0:0:
192,192,130629,1,0,0:0:0:0:
320,192,130759,1,0,0:0:0:0:
64,192,130759,1,0,0:0:0:0:
192,192,130890,1,0,0:0:0:0:
64,192,131020,1,0,0:0:0:0:
320,192,131020,1,0,0:0:0:0:
192,192,131150,1,0,0:0:0:0:
64,192,131281,1,0,0:0:0:0:
320,192,131281,1,0,0:0:0:0:
320,192,131411,128,0,132455:0:0:0:0:
192,192,131411,1,0,0:0:0:0:
64,192,131542,1,0,0:0:0:0:
192,192,131542,1,0,0:0:0:0:
192,192,131672,1,0,0:0:0:0:
64,192,131803,1,0,0:0:0:0:
448,192,131803,1,0,0:0:0:0:
192,192,131933,1,0,0:0:0:0:
448,192,131933,1,0,0:0:0:0:
64,192,132063,1,0,0:0:0:0:
192,192,132063,1,0,0:0:0:0:
448,192,132063,1,0,0:0:0:0:
192,192,132194,1,0,0:0:0:0:
64,192,132324,1,0,0:0:0:0:
448,192,132324,1,0,0:0:0:0:
192,192,132455,128,0,133368:0:0:0:0:
448,192,132455,1,0,0:0:0:0:
64,192,132585,1,0,0:0:0:0:
320,192,132585,1,0,0:0:0:0:
448,192,132585,1,0,0:0:0:0:
448,192,132716,1,0,0:0:0:0:
320,192,132846,1,0,0:0:0:0:
64,192,132846,1,0,0:0:0:0:
64,192,132976,1,0,0:0:0:0:
448,192,133107,1,0,0:0:0:0:
320,192,133107,1,0,0:0:0:0:
64,192,133237,1,0,0:0:0:0:
448,192,133237,1,0,0:0:0:0:
320,192,133368,1,0,0:0:0:0:
192,192,133498,128,0,133824:0:0:0:0:
320,192,133498,1,0,0:0:0:0:
64,192,133498,1,0,0:0:0:0:
64,192,133629,1,0,0:0:0:0:
448,192,133759,1,0,0:0:0:0:
320,192,133824,1,0,0:0:0:0:
64,192,133824,1,0,0:0:0:0:
320,192,133955,1,0,0:0:0:0:
320,192,134085,1,0,0:0:0:0:
448,192,134085,1,0,0:0:0:0:
320,192,134216,1,0,0:0:0:0:
192,192,134281,1,0,0:0:0:0:
64,192,134411,1,0,0:0:0:0:
192,192,134476,1,0,0:0:0:0:
64,192,134607,1,0,0:0:0:0:
320,192,134607,1,0,0:0:0:0:
192,192,134672,1,0,0:0:0:0:
448,192,134672,1,0,0:0:0:0:
320,192,134737,1,0,0:0:0:0:
192,192,134803,1,0,0:0:0:0:
448,192,134803,1,0,0:0:0:0:
320,192,134933,1,0,0:0:0:0:
64,192,134933,1,0,0:0:0:0:
320,192,135063,1,0,0:0:0:0:
192,192,135063,1,0,0:0:0:0:
448,192,135063,1,0,0:0:0:0:
320,192,135194,1,0,0:0:0:0:
64,192,135194,1,0,0:0:0:0:
192,192,135259,128,0,135390:0:0:0:0:
448,192,135324,1,0,0:0:0:0:
320,192,135455,1,0,0:0:0:0:
64,192,135455,1,0,0:0:0:0:
448,192,135585,1,0,0:0:0:0:
192,192,135585,1,0,0:0:0:0:
192,192,135716,1,0,0:0:0:0:
320,192,135716,128,0,135781:0:0:0:0:
64,192,135716,1,0,0:0:0:0:
448,192,135846,128,0,135911:0:0:0:0:
320,192,135976,1,0,0:0:0:0:
192,192,135976,128,0,136107:0:0:0:0:
64,192,135976,1,0,0:0:0:0:
448,192,136107,1,0,0:0:0:0:
320,192,136107,1,0,0:0:0:0:
192,192,136237,128,0,136303:0:0:0:0:
320,192,136237,1,0,0:0:0:0:
64,192,136237,1,0,0:0:0:0:
448,192,136237,128,0,136498:0:0:0:0:
192,192,136498,1,0,0:0:0:0:
320,192,136498,128,0,136759:0:0:0:0:
64,192,136498,1,0,0:0:0:0:
448,192,136629,1,0,0:0:0:0:
192,192,136629,1,0,0:0:0:0:
448,192,136759,1,0,0:0:0:0:
192,192,136759,128,0,136890:0:0:0:0:
64,192,136759,1,0,0:0:0:0:
448,192,136890,1,0,0:0:0:0:
320,192,136890,128,0,136955:0:0:0:0:
192,192,137020,1,0,0:0:0:0:
448,192,137020,128,0,137150:0:0:0:0:
64,192,137020,1,0,0:0:0:0:
320,192,137150,1,0,0:0:0:0:
64,192,137150,1,0,0:0:0:0:
192,192,137150,1,0,0:0:0:0:
320,192,137281,1,0,0:0:0:0:
192,192,137281,128,0,137411:0:0:0:0:
64,192,137281,1,0,0:0:0:0:
320,192,137411,1,0,0:0:0:0:
448,192,137411,1,0,0:0:0:0:
192,192,137542,1,0,0:0:0:0:
448,192,137542,1,0,0:0:0:0:
64,192,137542,1,0,0:0:0:0:
320,192,137607,128,0,137737:0:0:0:0:
192,192,137672,1,0,0:0:0:0:
448,192,137803,1,0,0:0:0:0:
192,192,137803,128,0,137933:0:0:0:0:
64,192,137803,1,0,0:0:0:0:
448,192,137933,1,0,0:0:0:0:
320,192,137933,1,0,0:0:0:0:
320,192,138063,1,0,0:0:0:0:
448,192,138063,1,0,0:0:0:0:
64,192,138063,1,0,0:0:0:0:
448,192,138194,1,0,0:0:0:0:
192,192,138194,1,0,0:0:0:0:
320,192,138194,128,0,138259:0:0:0:0:
192,192,138324,1,0,0:0:0:0:
448,192,138324,128,0,138390:0:0:0:0:
64,192,138324,1,0,0:0:0:0:
64,192,138455,1,0,0:0:0:0:
320,192,138455,1,0,0:0:0:0:
192,192,138455,128,0,138520:0:0:0:0:
448,192,138585,1,0,0:0:0:0:
320,192,138585,128,0,138650:0:0:0:0:
64,192,138585,1,0,0:0:0:0:
64,192,138716,1,0,0:0:0:0:
192,192,138716,1,0,0:0:0:0:
448,192,138716,1,0,0:0:0:0:
192,192,138846,1,0,0:0:0:0:
320,192,138846,128,0,138911:0:0:0:0:
64,192,138846,1,0,0:0:0:0:
448,192,138976,128,0,139042:0:0:0:0:
320,192,139107,1,0,0:0:0:0:
192,192,139107,1,0,0:0:0:0:
64,192,139107,1,0,0:0:0:0:
448,192,139237,1,0,0:0:0:0:
192,192,139237,128,0,139303:0:0:0:0:
448,192,139368,1,0,0:0:0:0:
320,192,139368,128,0,139498:0:0:0:0:
64,192,139368,1,0,0:0:0:0:
448,192,139498,1,0,0:0:0:0:
192,192,139498,1,0,0:0:0:0:
448,192,139629,1,0,0:0:0:0:
320,192,139629,1,0,0:0:0:0:
64,192,139629,1,0,0:0:0:0:
192,192,139629,1,0,0:0:0:0:
448,192,139759,1,0,0:0:0:0:
192,192,139759,1,0,0:0:0:0:
320,192,139890,1,0,0:0:0:0:
192,192,139890,1,0,0:0:0:0:
64,192,139890,1,0,0:0:0:0:
448,192,139890,128,0,140020:0:0:0:0:
192,192,140020,1,0,0:0:0:0:
320,192,140020,128,0,140150:0:0:0:0:
448,192,140150,1,0,0:0:0:0:
192,192,140150,128,0,140216:0:0:0:0:
64,192,140150,1,0,0:0:0:0:
448,192,140281,1,0,0:0:0:0:
320,192,140411,128,0,140476:0:0:0:0:
64,192,140411,1,0,0:0:0:0:
448,192,140476,128,0,140542:0:0:0:0:
192,192,140542,1,0,0:0:0:0:
448,192,140672,1,0,0:0:0:0:
320,192,140672,1,0,0:0:0:0:
64,192,140672,1,0,0:0:0:0:
192,192,140672,128,0,140803:0:0:0:0:
320,192,140803,1,0,0:0:0:0:
448,192,140803,1,0,0:0:0:0:
448,192,140933,1,0,0:0:0:0:
320,192,140933,128,0,140998:0:0:0:0:
64,192,140933,1,0,0:0:0:0:
448,192,141063,1,0,0:0:0:0:
64,192,141063,1,0,0:0:0:0:
192,192,141063,1,0,0:0:0:0:
192,192,141194,1,0,0:0:0:0:
320,192,141194,1,0,0:0:0:0:
64,192,141194,1,0,0:0:0:0:
448,192,141194,128,0,141259:0:0:0:0:
320,192,141324,1,0,0:0:0:0:
192,192,141455,128,0,141520:0:0:0:0:
64,192,141455,1,0,0:0:0:0:
64,192,141585,1,0,0:0:0:0:
448,192,141585,1,0,0:0:0:0:
192,192,141650,1,0,0:0:0:0:
320,192,141716,128,0,141846:0:0:0:0:
64,192,141716,1,0,0:0:0:0:
192,192,141846,1,0,0:0:0:0:
448,192,141846,1,0,0:0:0:0:
64,192,141911,1,0,0:0:0:0:
192,192,141976,1,0,0:0:0:0:
320,192,142042,1,0,0:0:0:0:
64,192,142042,1,0,0:0:0:0:
448,192,142107,1,0,0:0:0:0:
192,192,142107,1,0,0:0:0:0:
320,192,142172,1,0,0:0:0:0:
448,192,142237,1,0,0:0:0:0:
320,192,142303,1,0,0:0:0:0:
192,192,142368,1,0,0:0:0:0:
448,192,142368,1,0,0:0:0:0:
64,192,142433,1,0,0:0:0:0:
320,192,142433,1,0,0:0:0:0:
192,192,142498,1,0,0:0:0:0:
64,192,142563,1,0,0:0:0:0:
448,192,142629,1,0,0:0:0:0:
192,192,142629,1,0,0:0:0:0:
320,192,142694,1,0,0:0:0:0:
192,192,142759,1,0,0:0:0:0:
64,192,142759,1,0,0:0:0:0:
448,192,142890,128,0,143020:0:0:0:0:
64,192,143150,128,0,143281:0:0:0:0:
448,192,143150,1,0,0:0:0:0:
192,192,143150,1,0,0:0:0:0:
320,192,143281,1,0,0:0:0:0:
192,192,143281,1,0,0:0:0:0:
448,192,143346,128,0,143476:0:0:0:0:
192,192,143411,1,0,0:0:0:0:
320,192,143411,1,0,0:0:0:0:
64,192,143476,128,0,143672:0:0:0:0:
320,192,143542,1,0,0:0:0:0:
192,192,143542,1,0,0:0:0:0:
320,192,143672,1,0,0:0:0:0:
192,192,143672,1,0,0:0:0:0:
448,192,143737,128,0,143868:0:0:0:0:
64,192,143803,1,0,0:0:0:0:
192,192,143803,1,0,0:0:0:0:
192,192,143933,1,0,0:0:0:0:
320,192,143933,1,0,0:0:0:0:
64,192,143933,128,0,144194:0:0:0:0:
448,192,144063,1,0,0:0:0:0:
192,192,144063,1,0,0:0:0:0:
320,192,144194,1,0,0:0:0:0:
448,192,144324,1,0,0:0:0:0:
192,192,144324,1,0,0:0:0:0:
448,192,144455,1,0,0:0:0:0:
320,192,144455,1,0,0:0:0:0:
64,192,144455,1,0,0:0:0:0:
448,192,144585,1,0,0:0:0:0:
192,192,144585,1,0,0:0:0:0:
64,192,144716,1,0,0:0:0:0:
320,192,144716,1,0,0:0:0:0:
448,192,144846,1,0,0:0:0:0:
64,192,144846,1,0,0:0:0:0:
192,192,144846,1,0,0:0:0:0:
448,192,144976,1,0,0:0:0:0:
192,192,144976,1,0,0:0:0:0:
64,192,145107,1,0,0:0:0:0:
320,192,145107,1,0,0:0:0:0:
448,192,145172,128,0,145368:0:0:0:0:
192,192,145237,1,0,0:0:0:0:
320,192,145368,1,0,0:0:0:0:
64,192,145368,128,0,145498:0:0:0:0:
192,192,145498,1,0,0:0:0:0:
448,192,145498,128,0,145759:0:0:0:0:
320,192,145629,1,0,0:0:0:0:
192,192,145759,1,0,0:0:0:0:
64,192,145759,128,0,145890:0:0:0:0:
320,192,145890,1,0,0:0:0:0:
448,192,145955,128,0,146216:0:0:0:0:
192,192,146020,1,0,0:0:0:0:
320,192,146020,1,0,0:0:0:0:
320,192,146150,1,0,0:0:0:0:
192,192,146281,1,0,0:0:0:0:
64,192,146281,1,0,0:0:0:0:
192,192,146411,1,0,0:0:0:0:
320,192,146411,1,0,0:0:0:0:
448,192,146542,1,0,0:0:0:0:
64,192,146542,1,0,0:0:0:0:
192,192,146542,1,0,0:0:0:0:
64,192,146672,1,0,0:0:0:0:
320,192,146672,1,0,0:0:0:0:
448,192,146803,1,0,0:0:0:0:
192,192,146803,1,0,0:0:0:0:
320,192,146933,1,0,0:0:0:0:
448,192,146933,1,0,0:0:0:0:
64,192,146933,1,0,0:0:0:0:
192,192,147063,1,0,0:0:0:0:
320,192,147063,1,0,0:0:0:0:
64,192,147194,1,0,0:0:0:0:
320,192,147259,1,0,0:0:0:0:
192,192,147324,1,0,0:0:0:0:
448,192,147324,1,0,0:0:0:0:
320,192,147455,1,0,0:0:0:0:
64,192,147455,1,0,0:0:0:0:
448,192,147585,1,0,0:0:0:0:
192,192,147585,1,0,0:0:0:0:
320,192,147716,1,0,0:0:0:0:
64,192,147716,1,0,0:0:0:0:
448,192,147781,1,0,0:0:0:0:
192,192,147846,1,0,0:0:0:0:
448,192,147976,1,0,0:0:0:0:
64,192,147976,1,0,0:0:0:0:
320,192,148107,1,0,0:0:0:0:
192,192,148107,1,0,0:0:0:0:
64,192,148237,1,0,0:0:0:0:
192,192,148237,1,0,0:0:0:0:
448,192,148303,1,0,0:0:0:0:
320,192,148368,1,0,0:0:0:0:
448,192,148433,1,0,0:0:0:0:
320,192,148498,1,0,0:0:0:0:
64,192,148498,1,0,0:0:0:0:
192,192,148563,1,0,0:0:0:0:
320,192,148629,1,0,0:0:0:0:
192,192,148694,1,0,0:0:0:0:
448,192,148694,1,0,0:0:0:0:
320,192,148759,1,0,0:0:0:0:
64,192,148759,1,0,0:0:0:0:
448,192,148890,1,0,0:0:0:0:
192,192,148890,1,0,0:0:0:0:
320,192,148955,1,0,0:0:0:0:
448,192,149020,1,0,0:0:0:0:
64,192,149020,1,0,0:0:0:0:
192,192,149085,1,0,0:0:0:0:
64,192,149150,1,0,0:0:0:0:
320,192,149150,1,0,0:0:0:0:
192,192,149216,1,0,0:0:0:0:
448,192,149216,1,0,0:0:0:0:
320,192,149281,1,0,0:0:0:0:
64,192,149281,128,0,149411:0:0:0:0:
192,192,149476,128,0,149542:0:0:0:0:
320,192,149542,128,0,149868:0:0:0:0:
192,192,149868,128,0,149933:0:0:0:0:
64,192,149998,128,0,150063:0:0:0:0:
320,192,150129,128,0,150194:0:0:0:0:
64,192,150259,1,0,0:0:0:0:
448,192,150259,1,0,0:0:0:0:
192,192,150259,1,0,0:0:0:0:
448,192,150390,1,0,0:0:0:0:
64,192,150390,1,0,0:0:0:0:
64,192,150520,1,0,0:0:0:0:
448,192,150520,1,0,0:0:0:0:
64,192,150650,1,0,0:0:0:0:
448,192,150650,1,0,0:0:0:0:
64,192,150781,1,0,0:0:0:0:
448,192,150781,1,0,0:0:0:0:
192,192,150781,1,0,0:0:0:0:
64,192,150911,1,0,0:0:0:0:
448,192,150911,1,0,0:0:0:0:
64,192,151042,1,0,0:0:0:0:
448,192,151042,1,0,0:0:0:0:
64,192,151172,1,0,0:0:0:0:
448,192,151172,1,0,0:0:0:0:
64,192,151303,1,0,0:0:0:0:
448,192,151303,1,0,0:0:0:0:
320,192,151303,1,0,0:0:0:0:
64,192,151433,1,0,0:0:0:0:
448,192,151433,1,0,0:0:0:0:
192,192,151433,1,0,0:0:0:0:
192,192,151563,1,0,0:0:0:0:
320,192,151563,1,0,0:0:0:0:
64,192,151629,128,0,151759:0:0:0:0:
320,192,151694,1,0,0:0:0:0:
192,192,151759,1,0,0:0:0:0:
448,192,151759,1,0,0:0:0:0:
320,192,151890,1,0,0:0:0:0:
192,192,151890,128,0,152020:0:0:0:0:
448,192,152020,1,0,0:0:0:0:
64,192,152150,1,0,0:0:0:0:
320,192,152150,128,0,152281:0:0:0:0:
448,192,152281,1,0,0:0:0:0:
64,192,152281,1,0,0:0:0:0:
192,192,152411,1,0,0:0:0:0:
448,192,152411,128,0,152542:0:0:0:0:
192,192,152542,1,0,0:0:0:0:
64,192,152542,1,0,0:0:0:0:
192,192,152672,1,0,0:0:0:0:
320,192,152672,128,0,152803:0:0:0:0:
448,192,152803,1,0,0:0:0:0:
64,192,152803,1,0,0:0:0:0:
448,192,152933,1,0,0:0:0:0:
64,192,152933,1,0,0:0:0:0:
192,192,152933,128,0,153063:0:0:0:0:
320,192,153063,1,0,0:0:0:0:
320,192,153194,1,0,0:0:0:0:
448,192,153194,1,0,0:0:0:0:
64,192,153194,128,0,153324:0:0:0:0:
320,192,153324,1,0,0:0:0:0:
448,192,153455,1,0,0:0:0:0:
192,192,153455,128,0,153585:0:0:0:0:
64,192,153585,1,0,0:0:0:0:
448,192,153716,1,0,0:0:0:0:
64,192,153716,1,0,0:0:0:0:
320,192,153716,128,0,153846:0:0:0:0:
192,192,153846,1,0,0:0:0:0:
64,192,153976,1,0,0:0:0:0:
448,192,153976,128,0,154107:0:0:0:0:
192,192,154107,1,0,0:0:0:0:
320,192,154107,1,0,0:0:0:0:
192,192,154237,1,0,0:0:0:0:
64,192,154237,128,0,154368:0:0:0:0:
320,192,154368,1,0,0:0:0:0:
448,192,154368,1,0,0:0:0:0:
64,192,154498,1,0,0:0:0:0:
448,192,154498,1,0,0:0:0:0:
64,192,154629,1,0,0:0:0:0:
448,192,154629,1,0,0:0:0:0:
64,192,154759,1,0,0:0:0:0:
448,192,154759,1,0,0:0:0:0:
64,192,154890,1,0,0:0:0:0:
448,192,154890,1,0,0:0:0:0:
320,192,155020,1,0,0:0:0:0:
448,192,155020,128,0,155150:0:0:0:0:
192,192,155020,128,0,155150:0:0:0:0:
64,192,155281,1,0,0:0:0:0:
320,192,155281,128,0,155411:0:0:0:0:
448,192,155411,1,0,0:0:0:0:
192,192,155411,1,0,0:0:0:0:
320,192,155542,1,0,0:0:0:0:
64,192,155542,1,0,0:0:0:0:
192,192,155672,1,0,0:0:0:0:
320,192,155672,1,0,0:0:0:0:
448,192,155803,1,0,0:0:0:0:
64,192,155803,1,0,0:0:0:0:
192,192,155933,128,0,156063:0:0:0:0:
320,192,155933,1,0,0:0:0:0:
320,192,156063,1,0,0:0:0:0:
64,192,156063,128,0,156194:0:0:0:0:
192,192,156194,1,0,0:0:0:0:
448,192,156194,1,0,0:0:0:0:
320,192,156324,1,0,0:0:0:0:
192,192,156324,128,0,156455:0:0:0:0:
64,192,156455,1,0,0:0:0:0:
448,192,156455,1,0,0:0:0:0:
320,192,156455,1,0,0:0:0:0:
64,192,156585,1,0,0:0:0:0:
448,192,156585,1,0,0:0:0:0:
320,192,156585,128,0,156716:0:0:0:0:
192,192,156716,1,0,0:0:0:0:
448,192,156846,128,0,156976:0:0:0:0:
64,192,156846,1,0,0:0:0:0:
192,192,156976,1,0,0:0:0:0:
320,192,157107,1,0,0:0:0:0:
192,192,157107,1,0,0:0:0:0:
64,192,157237,128,0,157498:0:0:0:0:
448,192,157237,1,0,0:0:0:0:
320,192,157237,1,0,0:0:0:0:
320,192,157368,1,0,0:0:0:0:
192,192,157368,128,0,157498:0:0:0:0:
320,192,157498,1,0,0:0:0:0:
448,192,157498,1,0,0:0:0:0:
448,192,157629,1,0,0:0:0:0:
64,192,157629,1,0,0:0:0:0:
192,192,157694,1,0,0:0:0:0:
320,192,157759,1,0,0:0:0:0:
448,192,157824,1,0,0:0:0:0:
64,192,157890,1,0,0:0:0:0:
320,192,157890,1,0,0:0:0:0:
448,192,157955,1,0,0:0:0:0:
192,192,158020,1,0,0:0:0:0:
320,192,158085,1,0,0:0:0:0:
192,192,158150,1,0,0:0:0:0:
64,192,158150,128,0,158281:0:0:0:0:
320,192,158281,1,0,0:0:0:0:
448,192,158411,1,0,0:0:0:0:
64,192,158476,1,0,0:0:0:0:
192,192,158542,1,0,0:0:0:0:
320,192,158607,1,0,0:0:0:0:
64,192,158607,1,0,0:0:0:0:
192,192,158672,1,0,0:0:0:0:
448,192,158737,1,0,0:0:0:0:
320,192,158803,1,0,0:0:0:0:
448,192,158933,1,0,0:0:0:0:
64,192,158933,1,0,0:0:0:0:
192,192,158998,1,0,0:0:0:0:
64,192,159063,1,0,0:0:0:0:
320,192,159063,1,0,0:0:0:0:
192,192,159129,1,0,0:0:0:0:
448,192,159129,1,0,0:0:0:0:
320,192,159194,1,0,0:0:0:0:
448,192,159259,1,0,0:0:0:0:
320,192,159324,1,0,0:0:0:0:
64,192,159324,128,0,159455:0:0:0:0:
192,192,159455,128,0,159585:0:0:0:0:
64,192,159585,1,0,0:0:0:0:
320,192,159585,1,0,0:0:0:0:
448,192,159650,128,0,159846:0:0:0:0:
320,192,159716,1,0,0:0:0:0:
64,192,159716,1,0,0:0:0:0:
192,192,159846,1,0,0:0:0:0:
320,192,159846,128,0,160172:0:0:0:0:
64,192,159911,1,0,0:0:0:0:
192,192,159976,1,0,0:0:0:0:
64,192,160042,1,0,0:0:0:0:
448,192,160172,128,0,160368:0:0:0:0:
192,192,160237,1,0,0:0:0:0:
320,192,160368,1,0,0:0:0:0:
64,192,160368,128,0,160498:0:0:0:0:
192,192,160498,1,0,0:0:0:0:
448,192,160498,1,0,0:0:0:0:
320,192,160629,1,0,0:0:0:0:
192,192,160629,128,0,160759:0:0:0:0:
448,192,160759,1,0,0:0:0:0:
64,192,160890,1,0,0:0:0:0:
320,192,160890,128,0,161020:0:0:0:0:
448,192,161020,1,0,0:0:0:0:
64,192,161020,1,0,0:0:0:0:
192,192,161150,1,0,0:0:0:0:
448,192,161150,128,0,161346:0:0:0:0:
64,192,161281,1,0,0:0:0:0:
192,192,161411,1,0,0:0:0:0:
320,192,161411,128,0,161542:0:0:0:0:
448,192,161542,1,0,0:0:0:0:
64,192,161542,1,0,0:0:0:0:
320,192,161672,1,0,0:0:0:0:
192,192,161737,1,0,0:0:0:0:
448,192,161803,1,0,0:0:0:0:
320,192,161803,1,0,0:0:0:0:
192,192,161933,1,0,0:0:0:0:
448,192,161933,1,0,0:0:0:0:
64,192,161933,128,0,162063:0:0:0:0:
320,192,162063,1,0,0:0:0:0:
448,192,162194,1,0,0:0:0:0:
320,192,162194,1,0,0:0:0:0:
192,192,162194,128,0,162324:0:0:0:0:
448,192,162324,1,0,0:0:0:0:
64,192,162324,1,0,0:0:0:0:
448,192,162455,1,0,0:0:0:0:
64,192,162455,1,0,0:0:0:0:
320,192,162455,128,0,162585:0:0:0:0:
192,192,162520,1,0,0:0:0:0:
64,192,162585,1,0,0:0:0:0:
192,192,162650,1,0,0:0:0:0:
64,192,162716,1,0,0:0:0:0:
448,192,162716,128,0,162846:0:0:0:0:
320,192,162781,1,0,0:0:0:0:
192,192,162911,1,0,0:0:0:0:
320,192,162976,1,0,0:0:0:0:
64,192,162976,1,0,0:0:0:0:
64,192,163107,128,0,163237:0:0:0:0:
192,192,163107,1,0,0:0:0:0:
448,192,163107,1,0,0:0:0:0:
320,192,163237,1,0,0:0:0:0:
192,192,163303,1,0,0:0:0:0:
448,192,163303,1,0,0:0:0:0:
64,192,163759,1,0,0:0:0:0:
192,192,163759,1,0,0:0:0:0:
448,192,163824,1,0,0:0:0:0:
320,192,163890,1,0,0:0:0:0:
192,192,163955,1,0,0:0:0:0:
64,192,164020,1,0,0:0:0:0:
192,192,164085,1,0,0:0:0:0:
320,192,164150,1,0,0:0:0:0:
192,192,164216,1,0,0:0:0:0:
448,192,164216,1,0,0:0:0:0:
64,192,164346,1,0,0:0:0:0:
320,192,164346,1,0,0:0:0:0:
192,192,164346,128,0,164476:0:0:0:0:
64,192,164476,1,0,0:0:0:0:
448,192,164476,1,0,0:0:0:0:
320,192,164476,1,0,0:0:0:0:
64,192,164803,1,0,0:0:0:0:
192,192,164868,1,0,0:0:0:0:
320,192,164933,1,0,0:0:0:0:
448,192,164998,1,0,0:0:0:0:
192,192,165063,1,0,0:0:0:0:
320,192,165129,1,0,0:0:0:0:
448,192,165129,1,0,0:0:0:0:
64,192,165129,128,0,165259:0:0:0:0:
448,192,165259,1,0,0:0:0:0:
320,192,165259,1,0,0:0:0:0:
320,192,165390,1,0,0:0:0:0:
192,192,165390,128,0,165520:0:0:0:0:
448,192,165520,1,0,0:0:0:0:
64,192,165585,128,0,165846:0:0:0:0:
192,192,165911,1,0,0:0:0:0:
64,192,165976,1,0,0:0:0:0:
448,192,165976,1,0,0:0:0:0:
320,192,166042,1,0,0:0:0:0:
192,192,166107,1,0,0:0:0:0:
448,192,166107,1,0,0:0:0:0:
64,192,166172,1,0,0:0:0:0:
320,192,166172,1,0,0:0:0:0:
448,192,166303,1,0,0:0:0:0:
320,192,166303,1,0,0:0:0:0:
64,192,166303,1,0,0:0:0:0:
192,192,166303,128,0,166433:0:0:0:0:
320,192,166433,1,0,0:0:0:0:
448,192,166433,1,0,0:0:0:0:
192,192,166498,128,0,166694:0:0:0:0:
64,192,166563,1,0,0:0:0:0:
320,192,166563,1,0,0:0:0:0:
64,192,166694,1,0,0:0:0:0:
320,192,166694,1,0,0:0:0:0:
448,192,166694,1,0,0:0:0:0:
320,192,166824,1,0,0:0:0:0:
64,192,166824,1,0,0:0:0:0:
448,192,166890,1,0,0:0:0:0:
192,192,166890,1,0,0:0:0:0:
320,192,166955,1,0,0:0:0:0:
64,192,166955,1,0,0:0:0:0:
448,192,167020,1,0,0:0:0:0:
192,192,167020,1,0,0:0:0:0:
64,192,167085,1,0,0:0:0:0:
320,192,167085,1,0,0:0:0:0:
192,192,167150,1,0,0:0:0:0:
448,192,167150,1,0,0:0:0:0:
320,192,167216,1,0,0:0:0:0:
64,192,167216,1,0,0:0:0:0:
320,192,167346,1,0,0:0:0:0:
448,192,167346,128,0,167476:0:0:0:0:
64,192,167346,128,0,167476:0:0:0:0:
192,192,167346,1,0,0:0:0:0:
192,192,167476,1,0,0:0:0:0:
320,192,167476,128,0,167672:0:0:0:0:
192,192,167607,1,0,0:0:0:0:
64,192,167607,1,0,0:0:0:0:
448,192,167607,1,0,0:0:0:0:
192,192,167737,1,0,0:0:0:0:
64,192,167737,1,0,0:0:0:0:
448,192,167737,128,0,167868:0:0:0:0:
320,192,167868,1,0,0:0:0:0:
192,192,167933,1,0,0:0:0:0:
64,192,168324,1,0,0:0:0:0:
192,192,168455,1,0,0:0:0:0:
320,192,168585,1,0,0:0:0:0:
448,192,168716,1,0,0:0:0:0:
192,192,168976,1,0,0:0:0:0:
64,192,169368,1,0,0:0:0:0:
192,192,169759,1,0,0:0:0:0:
320,192,170020,1,0,0:0:0:0:
448,192,170150,1,0,0:0:0:0:
320,192,170216,1,0,0:0:0:0:
448,192,170281,1,0,0:0:0:0:
320,192,170346,1,0,0:0:0:0:
64,192,170542,1,0,0:0:0:0:
192,192,170672,1,0,0:0:0:0:
320,192,170933,1,0,0:0:0:0:
192,192,171063,1,0,0:0:0:0:
64,192,171194,1,0,0:0:0:0:
192,192,171324,1,0,0:0:0:0:
320,192,171455,1,0,0:0:0:0:
448,192,171585,1,0,0:0:0:0:
192,192,171846,1,0,0:0:0:0:
448,192,172107,1,0,0:0:0:0:
192,192,172107,1,0,0:0:0:0:
64,192,172498,1,0,0:0:0:0:
192,192,172629,1,0,0:0:0:0:
320,192,172759,1,0,0:0:0:0:
448,192,172890,1,0,0:0:0:0:
192,192,173150,1,0,0:0:0:0:
320,192,173542,1,0,0:0:0:0:
64,192,173933,1,0,0:0:0:0:
192,192,174194,1,0,0:0:0:0:
320,192,174324,1,0,0:0:0:0:
192,192,174390,1,0,0:0:0:0:
320,192,174455,1,0,0:0:0:0:
192,192,174520,1,0,0:0:0:0:
320,192,174585,1,0,0:0:0:0:
448,192,174650,1,0,0:0:0:0:
320,192,174716,1,0,0:0:0:0:
64,192,174781,1,0,0:0:0:0:
192,192,174846,1,0,0:0:0:0:
320,192,175107,1,0,0:0:0:0:
192,192,175237,1,0,0:0:0:0:
64,192,175368,1,0,0:0:0:0:
192,192,175368,1,0,0:0:0:0:
192,192,175498,1,0,0:0:0:0:
320,192,175498,1,0,0:0:0:0:
320,192,175629,1,0,0:0:0:0:
448,192,175629,1,0,0:0:0:0:
448,192,175759,1,0,0:0:0:0:
64,192,175759,1,0,0:0:0:0:
192,192,176020,1,0,0:0:0:0:
320,192,176085,1,0,0:0:0:0:
448,192,176281,1,0,0:0:0:0:
64,192,176281,1,0,0:0:0:0:
192,192,176281,1,0,0:0:0:0:
64,192,176672,1,0,0:0:0:0:
448,192,176672,1,0,0:0:0:0:
192,192,176803,1,0,0:0:0:0:
320,192,176933,1,0,0:0:0:0:
448,192,177063,1,0,0:0:0:0:
64,192,177063,1,0,0:0:0:0:
192,192,177324,1,0,0:0:0:0:
64,192,177324,1,0,0:0:0:0:
64,192,177716,1,0,0:0:0:0:
448,192,177716,1,0,0:0:0:0:
192,192,178107,1,0,0:0:0:0:
448,192,178107,1,0,0:0:0:0:
320,192,178368,1,0,0:0:0:0:
64,192,178368,1,0,0:0:0:0:
448,192,178498,1,0,0:0:0:0:
320,192,178563,1,0,0:0:0:0:
448,192,178629,1,0,0:0:0:0:
320,192,178694,1,0,0:0:0:0:
64,192,178890,1,0,0:0:0:0:
192,192,178890,1,0,0:0:0:0:
192,192,179020,1,0,0:0:0:0:
64,192,179150,1,0,0:0:0:0:
448,192,179150,1,0,0:0:0:0:
320,192,179281,1,0,0:0:0:0:
64,192,179281,1,0,0:0:0:0:
448,192,179281,1,0,0:0:0:0:
192,192,179411,1,0,0:0:0:0:
64,192,179411,1,0,0:0:0:0:
448,192,179411,1,0,0:0:0:0:
64,192,179542,1,0,0:0:0:0:
192,192,179672,1,0,0:0:0:0:
320,192,179803,1,0,0:0:0:0:
448,192,179933,1,0,0:0:0:0:
64,192,179933,1,0,0:0:0:0:
320,192,179933,1,0,0:0:0:0:
192,192,180194,1,0,0:0:0:0:
448,192,180455,1,0,0:0:0:0:
192,192,180455,1,0,0:0:0:0:
64,192,180455,1,0,0:0:0:0:
64,192,180846,1,0,0:0:0:0:
320,192,180846,1,0,0:0:0:0:
192,192,180976,1,0,0:0:0:0:
320,192,181107,1,0,0:0:0:0:
448,192,181237,1,0,0:0:0:0:
64,192,181237,1,0,0:0:0:0:
192,192,181498,1,0,0:0:0:0:
448,192,181498,1,0,0:0:0:0:
320,192,181890,1,0,0:0:0:0:
192,192,181890,1,0,0:0:0:0:
192,192,182150,1,0,0:0:0:0:
320,192,182150,1,0,0:0:0:0:
64,192,182281,1,0,0:0:0:0:
448,192,182281,1,0,0:0:0:0:
192,192,182346,1,0,0:0:0:0:
320,192,182411,1,0,0:0:0:0:
448,192,182476,1,0,0:0:0:0:
192,192,182542,1,0,0:0:0:0:
320,192,182672,1,0,0:0:0:0:
192,192,182737,1,0,0:0:0:0:
320,192,182803,1,0,0:0:0:0:
192,192,182868,1,0,0:0:0:0:
64,192,182868,1,0,0:0:0:0:
320,192,182933,1,0,0:0:0:0:
448,192,182998,1,0,0:0:0:0:
320,192,183063,1,0,0:0:0:0:
64,192,183129,1,0,0:0:0:0:
192,192,183194,1,0,0:0:0:0:
448,192,183194,1,0,0:0:0:0:
320,192,183324,1,0,0:0:0:0:
64,192,183324,1,0,0:0:0:0:
320,192,183455,1,0,0:0:0:0:
192,192,183455,1,0,0:0:0:0:
192,192,183585,1,0,0:0:0:0:
64,192,183585,1,0,0:0:0:0:
320,192,183585,1,0,0:0:0:0:
448,192,183585,1,0,0:0:0:0:
64,192,183976,1,0,0:0:0:0:
448,192,183976,1,0,0:0:0:0:
192,192,184368,1,0,0:0:0:0:
320,192,184368,1,0,0:0:0:0:
64,192,184498,1,0,0:0:0:0:
448,192,184498,1,0,0:0:0:0:
192,192,184629,1,0,0:0:0:0:
320,192,184629,1,0,0:0:0:0:
64,192,184629,128,0,184759:0:0:0:0:
448,192,184759,1,0,0:0:0:0:
192,192,184890,128,0,185020:0:0:0:0:
320,192,184890,1,0,0:0:0:0:
448,192,185020,1,0,0:0:0:0:
320,192,185150,128,0,185281:0:0:0:0:
192,192,185150,1,0,0:0:0:0:
64,192,185281,1,0,0:0:0:0:
448,192,185281,1,0,0:0:0:0:
448,192,185411,128,0,185542:0:0:0:0:
320,192,185411,1,0,0:0:0:0:
64,192,185542,1,0,0:0:0:0:
192,192,185542,1,0,0:0:0:0:
320,192,185672,128,0,185803:0:0:0:0:
192,192,185672,1,0,0:0:0:0:
64,192,185803,1,0,0:0:0:0:
448,192,185803,1,0,0:0:0:0:
192,192,185933,128,0,186063:0:0:0:0:
64,192,185933,1,0,0:0:0:0:
448,192,185933,1,0,0:0:0:0:
320,192,186063,1,0,0:0:0:0:
64,192,186194,128,0,186324:0:0:0:0:
448,192,186194,1,0,0:0:0:0:
320,192,186324,1,0,0:0:0:0:
192,192,186455,128,0,186585:0:0:0:0:
320,192,186455,1,0,0:0:0:0:
448,192,186455,1,0,0:0:0:0:
64,192,186585,1,0,0:0:0:0:
448,192,186585,1,0,0:0:0:0:
320,192,186716,128,0,186846:0:0:0:0:
64,192,186716,1,0,0:0:0:0:
448,192,186716,1,0,0:0:0:0:
448,192,186846,1,0,0:0:0:0:
192,192,186911,1,0,0:0:0:0:
448,192,186976,128,0,187107:0:0:0:0:
64,192,186976,1,0,0:0:0:0:
320,192,187107,1,0,0:0:0:0:
192,192,187107,1,0,0:0:0:0:
64,192,187237,128,0,187368:0:0:0:0:
192,192,187237,1,0,0:0:0:0:
448,192,187368,1,0,0:0:0:0:
320,192,187368,1,0,0:0:0:0:
192,192,187498,128,0,187629:0:0:0:0:
320,192,187498,1,0,0:0:0:0:
64,192,187629,1,0,0:0:0:0:
448,192,187629,1,0,0:0:0:0:
320,192,187759,128,0,187890:0:0:0:0:
448,192,187759,1,0,0:0:0:0:
192,192,187759,1,0,0:0:0:0:
64,192,187890,1,0,0:0:0:0:
448,192,188020,128,0,188150:0:0:0:0:
192,192,188020,1,0,0:0:0:0:
64,192,188150,1,0,0:0:0:0:
320,192,188281,128,0,188411:0:0:0:0:
192,192,188281,1,0,0:0:0:0:
64,192,188411,1,0,0:0:0:0:
192,192,188411,1,0,0:0:0:0:
448,192,188411,1,0,0:0:0:0:
192,192,188542,128,0,188672:0:0:0:0:
448,192,188542,1,0,0:0:0:0:
64,192,188542,1,0,0:0:0:0:
192,192,188737,128,0,188868:0:0:0:0:
320,192,188737,1,0,0:0:0:0:
448,192,188737,1,0,0:0:0:0:
192,192,188933,128,0,189063:0:0:0:0:
320,192,188933,1,0,0:0:0:0:
448,192,188933,1,0,0:0:0:0:
64,192,188933,1,0,0:0:0:0:
64,192,189063,128,0,189194:0:0:0:0:
448,192,189194,1,0,0:0:0:0:
192,192,189194,1,0,0:0:0:0:
192,192,189324,128,0,189455:0:0:0:0:
320,192,189324,1,0,0:0:0:0:
320,192,189455,1,0,0:0:0:0:
448,192,189455,1,0,0:0:0:0:
64,192,189455,1,0,0:0:0:0:
320,192,189585,128,0,189716:0:0:0:0:
448,192,189585,1,0,0:0:0:0:
192,192,189716,1,0,0:0:0:0:
64,192,189846,1,0,0:0:0:0:
448,192,189846,128,0,189976:0:0:0:0:
192,192,189976,1,0,0:0:0:0:
64,192,190107,128,0,190237:0:0:0:0:
320,192,190107,1,0,0:0:0:0:
320,192,190237,1,0,0:0:0:0:
448,192,190237,1,0,0:0:0:0:
192,192,190368,128,0,190498:0:0:0:0:
320,192,190368,1,0,0:0:0:0:
448,192,190498,1,0,0:0:0:0:
320,192,190629,128,0,190759:0:0:0:0:
64,192,190629,1,0,0:0:0:0:
448,192,190629,1,0,0:0:0:0:
192,192,190759,1,0,0:0:0:0:
448,192,190890,128,0,191020:0:0:0:0:
320,192,190890,1,0,0:0:0:0:
64,192,190955,1,0,0:0:0:0:
192,192,191020,1,0,0:0:0:0:
320,192,191085,1,0,0:0:0:0:
64,192,191150,128,0,191281:0:0:0:0:
192,192,191150,1,0,0:0:0:0:
320,192,191281,1,0,0:0:0:0:
192,192,191411,128,0,191672:0:0:0:0:
448,192,191411,1,0,0:0:0:0:
320,192,191542,1,0,0:0:0:0:
448,192,191672,1,0,0:0:0:0:
320,192,191672,1,0,0:0:0:0:
64,192,191672,1,0,0:0:0:0:
192,192,191803,1,0,0:0:0:0:
320,192,191803,1,0,0:0:0:0:
64,192,191933,1,0,0:0:0:0:
448,192,191933,1,0,0:0:0:0:
192,192,191998,1,0,0:0:0:0:
320,192,192063,1,0,0:0:0:0:
64,192,192063,1,0,0:0:0:0:
448,192,192129,1,0,0:0:0:0:
192,192,192129,1,0,0:0:0:0:
320,192,192194,1,0,0:0:0:0:
448,192,192259,1,0,0:0:0:0:
64,192,192324,128,0,192455:0:0:0:0:
192,192,192324,1,0,0:0:0:0:
320,192,192324,1,0,0:0:0:0:
192,192,192455,128,0,192585:0:0:0:0:
320,192,192455,1,0,0:0:0:0:
448,192,192585,1,0,0:0:0:0:
320,192,192585,1,0,0:0:0:0:
64,192,192585,1,0,0:0:0:0:
448,192,192716,128,0,192846:0:0:0:0:
64,192,192716,1,0,0:0:0:0:
320,192,192716,1,0,0:0:0:0:
320,192,192846,128,0,192976:0:0:0:0:
192,192,192846,1,0,0:0:0:0:
64,192,192911,1,0,0:0:0:0:
192,192,192976,1,0,0:0:0:0:
448,192,192976,128,0,193237:0:0:0:0:
64,192,193042,1,0,0:0:0:0:
192,192,193237,1,0,0:0:0:0:
64,192,193368,128,0,193498:0:0:0:0:
320,192,193368,1,0,0:0:0:0:
448,192,193498,1,0,0:0:0:0:
192,192,193498,1,0,0:0:0:0:
192,192,193629,128,0,193759:0:0:0:0:
320,192,193629,1,0,0:0:0:0:
448,192,193759,1,0,0:0:0:0:
320,192,193890,128,0,194020:0:0:0:0:
192,192,193890,1,0,0:0:0:0:
64,192,194020,1,0,0:0:0:0:
448,192,194020,1,0,0:0:0:0:
448,192,194150,128,0,194346:0:0:0:0:
320,192,194150,1,0,0:0:0:0:
64,192,194281,1,0,0:0:0:0:
192,192,194281,1,0,0:0:0:0:
320,192,194411,128,0,194542:0:0:0:0:
192,192,194411,1,0,0:0:0:0:
64,192,194542,1,0,0:0:0:0:
448,192,194542,1,0,0:0:0:0:
192,192,194672,1,0,0:0:0:0:
448,192,194672,1,0,0:0:0:0:
64,192,194933,128,0,195063:0:0:0:0:
448,192,194933,1,0,0:0:0:0:
192,192,194933,1,0,0:0:0:0:
320,192,195063,1,0,0:0:0:0:
192,192,195194,128,0,195324:0:0:0:0:
320,192,195194,1,0,0:0:0:0:
448,192,195194,1,0,0:0:0:0:
64,192,195324,1,0,0:0:0:0:
448,192,195324,1,0,0:0:0:0:
320,192,195455,128,0,195585:0:0:0:0:
192,192,195455,1,0,0:0:0:0:
448,192,195455,1,0,0:0:0:0:
64,192,195585,1,0,0:0:0:0:
448,192,195585,1,0,0:0:0:0:
448,192,195716,128,0,195846:0:0:0:0:
64,192,195716,1,0,0:0:0:0:
320,192,195846,1,0,0:0:0:0:
64,192,195976,128,0,196107:0:0:0:0:
192,192,195976,1,0,0:0:0:0:
448,192,196107,1,0,0:0:0:0:
320,192,196107,1,0,0:0:0:0:
192,192,196237,128,0,196368:0:0:0:0:
320,192,196237,1,0,0:0:0:0:
64,192,196368,1,0,0:0:0:0:
448,192,196368,1,0,0:0:0:0:
320,192,196498,128,0,196629:0:0:0:0:
448,192,196498,1,0,0:0:0:0:
64,192,196498,1,0,0:0:0:0:
192,192,196629,1,0,0:0:0:0:
192,192,196759,1,0,0:0:0:0:
64,192,196759,1,0,0:0:0:0:
320,192,196890,1,0,0:0:0:0:
448,192,196890,1,0,0:0:0:0:
64,192,196890,1,0,0:0:0:0:
192,192,197020,1,0,0:0:0:0:
320,192,197020,1,0,0:0:0:0:
64,192,197150,1,0,0:0:0:0:
192,192,197150,1,0,0:0:0:0:
448,192,197150,1,0,0:0:0:0:
448,192,197281,1,0,0:0:0:0:
192,192,197281,1,0,0:0:0:0:
192,192,197411,128,0,197542:0:0:0:0:
320,192,197411,1,0,0:0:0:0:
64,192,197411,1,0,0:0:0:0:
320,192,197542,1,0,0:0:0:0:
448,192,197542,1,0,0:0:0:0:
64,192,197542,1,0,0:0:0:0:
320,192,197672,128,0,197803:0:0:0:0:
448,192,197672,1,0,0:0:0:0:
64,192,197672,1,0,0:0:0:0:
192,192,197803,1,0,0:0:0:0:
64,192,197933,1,0,0:0:0:0:
448,192,197933,128,0,198063:0:0:0:0:
192,192,198063,1,0,0:0:0:0:
64,192,198194,128,0,198324:0:0:0:0:
320,192,198194,1,0,0:0:0:0:
320,192,198324,1,0,0:0:0:0:
448,192,198324,1,0,0:0:0:0:
192,192,198455,128,0,198585:0:0:0:0:
320,192,198455,1,0,0:0:0:0:
448,192,198585,1,0,0:0:0:0:
320,192,198716,128,0,198846:0:0:0:0:
64,192,198716,1,0,0:0:0:0:
448,192,198716,1,0,0:0:0:0:
64,192,198846,1,0,0:0:0:0:
448,192,198976,128,0,199107:0:0:0:0:
192,192,198976,1,0,0:0:0:0:
64,192,199042,1,0,0:0:0:0:
192,192,199107,1,0,0:0:0:0:
320,192,199172,1,0,0:0:0:0:
64,192,199237,128,0,199368:0:0:0:0:
192,192,199237,1,0,0:0:0:0:
320,192,199368,1,0,0:0:0:0:
448,192,199368,1,0,0:0:0:0:
192,192,199498,128,0,199759:0:0:0:0:
448,192,199498,1,0,0:0:0:0:
320,192,199498,1,0,0:0:0:0:
320,192,199629,1,0,0:0:0:0:
64,192,199629,1,0,0:0:0:0:
448,192,199759,1,0,0:0:0:0:
320,192,199759,1,0,0:0:0:0:
64,192,199759,1,0,0:0:0:0:
64,192,199890,1,0,0:0:0:0:
320,192,199890,1,0,0:0:0:0:
192,192,199955,1,0,0:0:0:0:
448,192,199955,1,0,0:0:0:0:
64,192,200020,1,0,0:0:0:0:
320,192,200020,1,0,0:0:0:0:
192,192,200085,1,0,0:0:0:0:
448,192,200085,1,0,0:0:0:0:
320,192,200150,1,0,0:0:0:0:
64,192,200150,1,0,0:0:0:0:
448,192,200216,1,0,0:0:0:0:
192,192,200216,1,0,0:0:0:0:
64,192,200281,1,0,0:0:0:0:
320,192,200281,1,0,0:0:0:0:
64,192,200411,128,0,200542:0:0:0:0:
192,192,200411,1,0,0:0:0:0:
320,192,200411,1,0,0:0:0:0:
448,192,200411,128,0,200542:0:0:0:0:
320,192,200542,128,0,200737:0:0:0:0:
192,192,200542,1,0,0:0:0:0:
448,192,200672,1,0,0:0:0:0:
64,192,200672,1,0,0:0:0:0:
192,192,200672,1,0,0:0:0:0:
448,192,200803,128,0,200933:0:0:0:0:
64,192,200803,1,0,0:0:0:0:
192,192,200803,1,0,0:0:0:0:
192,192,200933,128,0,201129:0:0:0:0:
320,192,200933,1,0,0:0:0:0:
64,192,200998,1,0,0:0:0:0:
448,192,201063,128,0,201324:0:0:0:0:
64,192,201129,1,0,0:0:0:0:
320,192,201129,1,0,0:0:0:0:
64,192,201324,1,0,0:0:0:0:
320,192,201324,1,0,0:0:0:0:
192,192,201324,128,0,202368:0:0:0:0:
320,192,201716,1,0,0:0:0:0:
64,192,201846,1,0,0:0:0:0:
320,192,201976,1,0,0:0:0:0:
320,192,202368,128,0,203672:0:0:0:0:
64,192,202368,1,0,0:0:0:0:
192,192,202759,1,0,0:0:0:0:
448,192,203150,1,0,0:0:0:0:
192,192,203411,1,0,0:0:0:0:
64,192,203542,1,0,0:0:0:0:
192,192,203672,128,0,204455:0:0:0:0:
448,192,203672,1,0,0:0:0:0:
64,192,203803,1,0,0:0:0:0:
320,192,203868,1,0,0:0:0:0:
64,192,204194,1,0,0:0:0:0:
448,192,204324,1,0,0:0:0:0:
320,192,204455,128,0,205498:0:0:0:0:
64,192,204455,1,0,0:0:0:0:
192,192,204585,1,0,0:0:0:0:
448,192,204716,1,0,0:0:0:0:
192,192,204781,1,0,0:0:0:0:
448,192,204846,1,0,0:0:0:0:
64,192,205237,1,0,0:0:0:0:
64,192,205498,128,0,206542:0:0:0:0:
192,192,205498,1,0,0:0:0:0:
320,192,205890,1,0,0:0:0:0:
448,192,206020,1,0,0:0:0:0:
192,192,206150,1,0,0:0:0:0:
448,192,206542,128,0,207846:0:0:0:0:
320,192,206542,1,0,0:0:0:0:
64,192,206933,1,0,0:0:0:0:
320,192,207324,1,0,0:0:0:0:
192,192,207585,1,0,0:0:0:0:
64,192,207781,1,0,0:0:0:0:
320,192,207846,128,0,208629:0:0:0:0:
192,192,207846,1,0,0:0:0:0:
64,192,207976,1,0,0:0:0:0:
448,192,208237,1,0,0:0:0:0:
64,192,208498,1,0,0:0:0:0:
192,192,208629,128,0,209672:0:0:0:0:
448,192,208629,1,0,0:0:0:0:
64,192,208759,1,0,0:0:0:0:
320,192,209020,1,0,0:0:0:0:
448,192,209085,1,0,0:0:0:0:
320,192,209411,1,0,0:0:0:0:
448,192,209672,128,0,210716:0:0:0:0:
320,192,209672,1,0,0:0:0:0:
64,192,209672,1,0,0:0:0:0:
320,192,210063,1,0,0:0:0:0:
192,192,210194,1,0,0:0:0:0:
64,192,210324,1,0,0:0:0:0:
192,192,210716,1,0,0:0:0:0:
64,192,210716,128,0,211759:0:0:0:0:
320,192,211107,1,0,0:0:0:0:
192,192,211498,1,0,0:0:0:0:
448,192,211759,1,0,0:0:0:0:
320,192,211759,128,0,212803:0:0:0:0:
192,192,211890,1,0,0:0:0:0:
64,192,211955,1,0,0:0:0:0:
448,192,212085,1,0,0:0:0:0:
192,192,212150,1,0,0:0:0:0:
192,192,212542,1,0,0:0:0:0:
448,192,212672,1,0,0:0:0:0:
192,192,212803,128,0,213846:0:0:0:0:
64,192,212803,1,0,0:0:0:0:
448,192,212933,1,0,0:0:0:0:
64,192,212998,1,0,0:0:0:0:
320,192,213194,1,0,0:0:0:0:
448,192,213259,1,0,0:0:0:0:
64,192,213585,1,0,0:0:0:0:
320,192,213846,1,0,0:0:0:0:
448,192,213846,128,0,214890:0:0:0:0:
192,192,214237,1,0,0:0:0:0:
320,192,214368,1,0,0:0:0:0:
64,192,214498,1,0,0:0:0:0:
64,192,214890,128,0,215933:0:0:0:0:
192,192,214890,1,0,0:0:0:0:
320,192,215281,1,0,0:0:0:0:
192,192,215672,1,0,0:0:0:0:
320,192,215933,128,0,216976:0:0:0:0:
448,192,215933,1,0,0:0:0:0:
192,192,216063,1,0,0:0:0:0:
448,192,216129,1,0,0:0:0:0:
192,192,216324,1,0,0:0:0:0:
64,192,216390,1,0,0:0:0:0:
448,192,216455,1,0,0:0:0:0:
192,192,216716,1,0,0:0:0:0:
64,192,216846,1,0,0:0:0:0:
192,192,216976,128,0,218020:0:0:0:0:
448,192,216976,1,0,0:0:0:0:
64,192,217107,1,0,0:0:0:0:
320,192,217172,1,0,0:0:0:0:
448,192,217237,1,0,0:0:0:0:
320,192,217303,1,0,0:0:0:0:
64,192,217368,1,0,0:0:0:0:
320,192,217433,1,0,0:0:0:0:
448,192,217498,1,0,0:0:0:0:
320,192,217563,1,0,0:0:0:0:
64,192,217629,1,0,0:0:0:0:
320,192,217694,1,0,0:0:0:0:
448,192,217759,1,0,0:0:0:0:
320,192,217824,1,0,0:0:0:0:
64,192,217890,1,0,0:0:0:0:
320,192,217955,1,0,0:0:0:0:
448,192,218020,1,0,0:0:0:0:
64,192,218020,1,0,0:0:0:0:
320,192,218542,1,0,0:0:0:0:
192,192,218672,1,0,0:0:0:0:
64,192,218803,1,0,0:0:0:0:
192,192,219063,1,0,0:0:0:0:
320,192,219455,1,0,0:0:0:0:
448,192,219846,1,0,0:0:0:0:
192,192,220107,1,0,0:0:0:0:
320,192,220498,1,0,0:0:0:0:
192,192,220629,1,0,0:0:0:0:
64,192,220759,1,0,0:0:0:0:
192,192,221020,1,0,0:0:0:0:
320,192,221411,1,0,0:0:0:0:
448,192,221803,1,0,0:0:0:0:
192,192,222194,1,0,0:0:0:0:
320,192,222585,1,0,0:0:0:0:
192,192,222716,1,0,0:0:0:0:
64,192,222846,1,0,0:0:0:0:
192,192,223107,1,0,0:0:0:0:
320,192,223498,1,0,0:0:0:0:
448,192,223890,1,0,0:0:0:0:
192,192,224281,1,0,0:0:0:0:
320,192,224672,1,0,0:0:0:0:
192,192,224803,1,0,0:0:0:0:
64,192,224933,1,0,0:0:0:0:
192,192,225194,1,0,0:0:0:0:
320,192,225585,1,0,0:0:0:0:
448,192,225976,1,0,0:0:0:0:
192,192,226368,1,0,0:0:0:0:
64,192,226368,1,0,0:0:0:0:
448,192,226368,1,0,0:0:0:0:
64,192,226629,1,0,0:0:0:0:
448,192,226629,1,0,0:0:0:0:
192,192,226890,1,0,0:0:0:0:
448,192,226890,1,0,0:0:0:0:
64,192,227150,1,0,0:0:0:0:
192,192,227150,1,0,0:0:0:0:
192,192,227411,1,0,0:0:0:0:
448,192,227411,1,0,0:0:0:0:
320,192,227672,1,0,0:0:0:0:
192,192,227672,1,0,0:0:0:0:
64,192,227933,1,0,0:0:0:0:
448,192,227933,1,0,0:0:0:0:
192,192,228194,1,0,0:0:0:0:
320,192,228194,1,0,0:0:0:0:
64,192,228455,1,0,0:0:0:0:
448,192,228455,1,0,0:0:0:0:
192,192,228716,1,0,0:0:0:0:
448,192,228716,1,0,0:0:0:0:
64,192,228976,1,0,0:0:0:0:
320,192,228976,1,0,0:0:0:0:
192,192,229237,1,0,0:0:0:0:
64,192,229237,1,0,0:0:0:0:
192,192,229498,1,0,0:0:0:0:
448,192,229498,1,0,0:0:0:0:
320,192,229759,1,0,0:0:0:0:
448,192,229759,1,0,0:0:0:0:
192,192,230020,1,0,0:0:0:0:
320,192,230020,1,0,0:0:0:0:
64,192,230281,1,0,0:0:0:0:
448,192,230281,1,0,0:0:0:0:
192,192,230542,1,0,0:0:0:0:
320,192,230542,1,0,0:0:0:0:
192,192,230672,1,0,0:0:0:0:
448,192,230672,1,0,0:0:0:0:
64,192,230803,1,0,0:0:0:0:
320,192,230803,1,0,0:0:0:0:
192,192,230933,1,0,0:0:0:0:
448,192,230933,1,0,0:0:0:0:
192,192,231063,1,0,0:0:0:0:
320,192,231063,1,0,0:0:0:0:
64,192,231194,1,0,0:0:0:0:
448,192,231194,1,0,0:0:0:0:
64,192,231324,1,0,0:0:0:0:
192,192,231324,1,0,0:0:0:0:
320,192,231455,1,0,0:0:0:0:
64,192,231455,1,0,0:0:0:0:
192,192,231585,1,0,0:0:0:0:
448,192,231585,1,0,0:0:0:0:
64,192,231716,1,0,0:0:0:0:
448,192,231716,1,0,0:0:0:0:
192,192,231846,1,0,0:0:0:0:
320,192,231846,1,0,0:0:0:0:
64,192,231976,1,0,0:0:0:0:
448,192,231976,1,0,0:0:0:0:
320,192,232107,1,0,0:0:0:0:
192,192,232107,1,0,0:0:0:0:
64,192,232237,1,0,0:0:0:0:
192,192,232237,1,0,0:0:0:0:
448,192,232237,1,0,0:0:0:0:
192,192,232368,1,0,0:0:0:0:
320,192,232368,1,0,0:0:0:0:
64,192,232498,1,0,0:0:0:0:
320,192,232498,1,0,0:0:0:0:
320,192,232629,1,0,0:0:0:0:
192,192,232629,1,0,0:0:0:0:
64,192,232629,1,0,0:0:0:0:
320,192,232759,1,0,0:0:0:0:
192,192,232759,1,0,0:0:0:0:
448,192,232759,1,0,0:0:0:0:
192,192,232890,1,0,0:0:0:0:
448,192,232890,1,0,0:0:0:0:
64,192,232890,1,0,0:0:0:0:
64,192,233020,1,0,0:0:0:0:
192,192,233085,1,0,0:0:0:0:
320,192,233150,1,0,0:0:0:0:
448,192,233216,1,0,0:0:0:0:
64,192,233216,1,0,0:0:0:0:
192,192,233281,1,0,0:0:0:0:
320,192,233346,1,0,0:0:0:0:
448,192,233411,1,0,0:0:0:0:
64,192,233411,1,0,0:0:0:0:
192,192,233476,1,0,0:0:0:0:
320,192,233542,1,0,0:0:0:0:
448,192,233607,1,0,0:0:0:0:
64,192,233607,1,0,0:0:0:0:
192,192,233672,1,0,0:0:0:0:
320,192,233737,1,0,0:0:0:0:
448,192,233803,1,0,0:0:0:0:
64,192,233803,1,0,0:0:0:0:
192,192,233868,1,0,0:0:0:0:
320,192,233933,1,0,0:0:0:0:
448,192,233998,1,0,0:0:0:0:
64,192,234063,1,0,0:0:0:0:
64,192,234324,1,0,0:0:0:0:
448,192,234324,1,0,0:0:0:0:
64,192,234585,1,0,0:0:0:0:
448,192,234585,1,0,0:0:0:0:
