osu file format v14

[General]
AudioFilename: 4. DJKurara - Japanese Transformation.mp3
AudioLeadIn: 1500
PreviewTime: 89872
Countdown: 0
SampleSet: Normal
StackLeniency: 0.7
Mode: 3
LetterboxInBreaks: 0
SpecialStyle: 0
WidescreenStoryboard: 1

[Editor]
Bookmarks: 85949,149180
DistanceSpacing: 1
BeatDivisor: 2
GridSize: 16
TimelineZoom: 2

[Metadata]
Title:Japanese Transformation
TitleUnicode:Japanese Transformation
Artist:DJKurara
ArtistUnicode:DJKurara
Creator:XeoStyle
Version:Xeo VS _UJ Insane
Source:
Tags:KyokudoCore Records KCRCD003 Tanoshi Torture J-Speedcore Happy J-Core jpt Blocko Todestrieb _underjoy Fullerene-
BeatmapID:1201654
BeatmapSetID:520438

[Difficulty]
HPDrainRate:8
CircleSize:4
OverallDifficulty:8
ApproachRate:9
SliderMultiplier:1.4
SliderTickRate:1

[Events]
//Background and Video events
0,0,"Japanese Transformation.jpg",0,0
//Break Periods
//Storyboard Layer 0 (Background)
//Storyboard Layer 1 (Fail)
//Storyboard Layer 2 (Pass)
//Storyboard Layer 3 (Foreground)
//Storyboard Sound Samples

[TimingPoints]
1488,230.769230769231,4,1,1,40,1,0
31026,-100,4,1,1,40,0,1
44872,-100,4,1,1,40,0,0
45795,-100,4,1,1,40,0,1
60564,-100,4,1,1,40,0,0
90103,-100,4,1,1,40,0,1
103949,-100,4,1,1,40,0,0
104872,-100,4,1,1,40,0,1
119641,-100,4,1,1,40,0,0
178718,-100,4,1,1,40,0,1
192564,-100,4,1,1,40,0,0
193488,-100,4,1,1,40,0,1
208257,-100,4,1,1,40,0,0

[HitObjects]
320,192,1488,5,6,0:0:0:0:
64,192,1488,1,2,0:0:0:0:
192,192,1641,1,0,0:0:0:0:
448,192,1718,1,0,0:0:0:0:
64,192,1872,1,0,0:0:0:0:
320,192,1949,1,0,0:0:0:0:
192,192,2064,1,0,0:0:0:0:
320,192,2180,1,0,0:0:0:0:
64,192,2295,1,0,0:0:0:0:
320,192,2526,1,0,0:0:0:0:
192,192,2584,1,0,0:0:0:0:
320,192,2641,1,0,0:0:0:0:
64,192,2795,1,0,0:0:0:0:
320,192,2872,1,0,0:0:0:0:
192,192,2988,1,0,0:0:0:0:
320,192,3103,1,0,0:0:0:0:
64,192,3218,1,0,0:0:0:0:
448,192,3276,1,0,0:0:0:0:
192,192,3334,1,0,0:0:0:0:
320,192,3488,1,0,0:0:0:0:
64,192,3564,1,0,0:0:0:0:
192,192,3718,1,0,0:0:0:0:
64,192,3795,1,0,0:0:0:0:
448,192,3911,1,0,0:0:0:0:
192,192,4026,1,0,0:0:0:0:
320,192,4141,1,0,0:0:0:0:
320,192,4372,1,0,0:0:0:0:
192,192,4430,1,0,0:0:0:0:
448,192,4488,1,0,0:0:0:0:
64,192,4603,1,0,0:0:0:0:
192,192,4661,1,0,0:0:0:0:
320,192,4718,1,0,0:0:0:0:
192,192,4776,1,0,0:0:0:0:
64,192,4834,1,0,0:0:0:0:
320,192,4891,1,0,0:0:0:0:
192,192,4949,1,0,0:0:0:0:
448,192,5007,1,0,0:0:0:0:
64,192,5064,1,0,0:0:0:0:
320,192,5122,1,0,0:0:0:0:
192,192,5180,1,0,0:0:0:0:
320,192,5334,1,0,0:0:0:0:
64,192,5411,1,0,0:0:0:0:
448,192,5564,1,0,0:0:0:0:
192,192,5641,1,0,0:0:0:0:
320,192,5757,1,0,0:0:0:0:
64,192,5872,1,0,0:0:0:0:
448,192,5988,1,0,0:0:0:0:
192,192,6218,1,0,0:0:0:0:
320,192,6276,1,0,0:0:0:0:
192,192,6334,1,0,0:0:0:0:
448,192,6488,1,0,0:0:0:0:
64,192,6564,1,0,0:0:0:0:
320,192,6680,1,0,0:0:0:0:
192,192,6795,1,0,0:0:0:0:
448,192,6911,1,0,0:0:0:0:
64,192,6968,1,0,0:0:0:0:
192,192,7026,1,0,0:0:0:0:
64,192,7180,1,0,0:0:0:0:
448,192,7257,1,0,0:0:0:0:
192,192,7411,1,0,0:0:0:0:
320,192,7488,1,0,0:0:0:0:
64,192,7603,1,0,0:0:0:0:
448,192,7718,1,0,0:0:0:0:
192,192,7834,1,0,0:0:0:0:
320,192,8064,1,0,0:0:0:0:
64,192,8122,1,0,0:0:0:0:
320,192,8180,1,0,0:0:0:0:
192,192,8295,1,0,0:0:0:0:
448,192,8353,1,0,0:0:0:0:
192,192,8411,1,0,0:0:0:0:
320,192,8468,1,0,0:0:0:0:
64,192,8526,1,0,0:0:0:0:
320,192,8641,1,0,0:0:0:0:
192,192,8699,1,0,0:0:0:0:
448,192,8757,1,0,0:0:0:0:
64,192,8872,1,6,0:0:0:0:
448,192,8872,1,2,0:0:0:0:
192,192,9026,1,0,0:0:0:0:
320,192,9103,1,0,0:0:0:0:
64,192,9257,1,0,0:0:0:0:
320,192,9334,1,0,0:0:0:0:
64,192,9449,1,0,0:0:0:0:
448,192,9564,1,0,0:0:0:0:
192,192,9680,1,0,0:0:0:0:
320,192,9911,1,0,0:0:0:0:
192,192,9968,1,0,0:0:0:0:
320,192,10026,1,0,0:0:0:0:
64,192,10180,1,0,0:0:0:0:
192,192,10257,1,0,0:0:0:0:
320,192,10372,1,0,0:0:0:0:
192,192,10488,1,0,0:0:0:0:
64,192,10603,1,0,0:0:0:0:
448,192,10661,1,0,0:0:0:0:
192,192,10718,1,0,0:0:0:0:
320,192,10872,1,0,0:0:0:0:
64,192,10949,1,0,0:0:0:0:
64,192,11103,1,0,0:0:0:0:
448,192,11180,1,0,0:0:0:0:
192,192,11295,1,0,0:0:0:0:
320,192,11411,1,0,0:0:0:0:
64,192,11526,1,0,0:0:0:0:
448,192,11757,1,0,0:0:0:0:
192,192,11814,1,0,0:0:0:0:
448,192,11872,1,0,0:0:0:0:
64,192,11988,1,0,0:0:0:0:
192,192,12045,1,0,0:0:0:0:
320,192,12103,1,0,0:0:0:0:
192,192,12161,1,0,0:0:0:0:
64,192,12218,1,0,0:0:0:0:
320,192,12276,1,0,0:0:0:0:
192,192,12334,1,0,0:0:0:0:
448,192,12391,1,0,0:0:0:0:
320,192,12449,1,0,0:0:0:0:
192,192,12507,1,0,0:0:0:0:
64,192,12564,1,0,0:0:0:0:
448,192,12718,1,0,0:0:0:0:
192,192,12795,1,0,0:0:0:0:
192,192,12949,1,0,0:0:0:0:
448,192,13026,1,0,0:0:0:0:
64,192,13141,1,0,0:0:0:0:
320,192,13257,1,0,0:0:0:0:
192,192,13372,1,0,0:0:0:0:
192,192,13603,1,0,0:0:0:0:
320,192,13661,1,0,0:0:0:0:
192,192,13718,1,0,0:0:0:0:
448,192,13872,1,0,0:0:0:0:
64,192,13949,1,0,0:0:0:0:
192,192,14064,1,0,0:0:0:0:
64,192,14180,1,0,0:0:0:0:
448,192,14295,1,0,0:0:0:0:
192,192,14353,1,0,0:0:0:0:
320,192,14411,1,0,0:0:0:0:
64,192,14564,1,0,0:0:0:0:
192,192,14641,1,0,0:0:0:0:
320,192,14795,1,0,0:0:0:0:
192,192,14872,1,0,0:0:0:0:
64,192,14988,1,0,0:0:0:0:
448,192,15103,1,0,0:0:0:0:
192,192,15218,1,0,0:0:0:0:
320,192,15334,1,0,0:0:0:0:
320,192,15449,1,0,0:0:0:0:
64,192,15564,1,8,0:0:0:0:
448,192,15680,1,0,0:0:0:0:
192,192,15738,1,0,0:0:0:0:
320,192,15795,1,0,0:0:0:0:
64,192,15853,1,0,0:0:0:0:
448,192,15911,1,0,0:0:0:0:
192,192,16026,1,2,0:0:0:0:
448,192,16026,1,2,0:0:0:0:
64,192,16257,1,6,0:0:0:0:
320,192,16257,1,2,0:0:0:0:
192,192,16603,1,2,0:0:0:0:
320,192,16603,1,2,0:0:0:0:
448,192,16949,1,2,0:0:0:0:
192,192,16949,1,2,0:0:0:0:
320,192,17295,1,2,0:0:0:0:
192,192,17295,1,2,0:0:0:0:
448,192,17641,1,2,0:0:0:0:
64,192,17641,1,2,0:0:0:0:
64,192,17872,1,8,0:0:0:0:
192,192,17930,1,0,0:0:0:0:
320,192,17988,1,0,0:0:0:0:
448,192,18045,1,0,0:0:0:0:
64,192,18103,1,0,0:0:0:0:
64,192,18218,1,0,0:0:0:0:
320,192,18334,1,8,0:0:0:0:
192,192,18449,1,0,0:0:0:0:
192,192,18564,1,0,0:0:0:0:
448,192,18680,1,8,0:0:0:0:
64,192,18795,1,0,0:0:0:0:
64,192,18911,1,0,0:0:0:0:
320,192,19026,1,8,0:0:0:0:
192,192,19141,1,0,0:0:0:0:
192,192,19257,1,0,0:0:0:0:
448,192,19372,1,8,0:0:0:0:
192,192,19488,1,2,0:0:0:0:
320,192,19603,1,2,0:0:0:0:
64,192,19718,1,2,0:0:0:0:
320,192,19834,1,2,0:0:0:0:
192,192,19891,1,2,0:0:0:0:
320,192,19949,1,2,0:0:0:0:
64,192,19949,1,2,0:0:0:0:
192,192,20295,1,2,0:0:0:0:
448,192,20295,1,2,0:0:0:0:
64,192,20641,1,2,0:0:0:0:
320,192,20641,1,2,0:0:0:0:
64,192,20988,1,2,0:0:0:0:
192,192,20988,1,2,0:0:0:0:
64,192,21334,1,2,0:0:0:0:
320,192,21391,1,0,0:0:0:0:
192,192,21449,1,0,0:0:0:0:
448,192,21507,1,0,0:0:0:0:
192,192,21564,1,2,0:0:0:0:
448,192,21795,1,8,0:0:0:0:
64,192,21911,1,0,0:0:0:0:
320,192,21968,1,0,0:0:0:0:
192,192,22026,1,0,0:0:0:0:
320,192,22084,1,0,0:0:0:0:
64,192,22141,1,8,0:0:0:0:
448,192,22257,1,0,0:0:0:0:
192,192,22314,1,0,0:0:0:0:
320,192,22372,1,0,0:0:0:0:
192,192,22430,1,0,0:0:0:0:
448,192,22488,1,8,0:0:0:0:
64,192,22603,1,0,0:0:0:0:
192,192,22661,1,0,0:0:0:0:
320,192,22718,1,8,0:0:0:0:
448,192,22776,1,0,0:0:0:0:
64,192,22834,1,8,0:0:0:0:
64,192,22949,1,8,0:0:0:0:
64,192,23064,1,8,0:0:0:0:
448,192,23122,1,8,0:0:0:0:
192,192,23180,1,8,0:0:0:0:
320,192,23295,1,8,0:0:0:0:
64,192,23411,1,2,0:0:0:0:
448,192,23468,1,2,0:0:0:0:
192,192,23526,1,2,0:0:0:0:
320,192,23584,1,2,0:0:0:0:
192,192,23641,1,6,0:0:0:0:
448,192,23641,1,2,0:0:0:0:
320,192,23988,1,2,0:0:0:0:
448,192,23988,1,2,0:0:0:0:
64,192,24334,1,2,0:0:0:0:
192,192,24334,1,2,0:0:0:0:
64,192,24680,1,2,0:0:0:0:
448,192,24680,1,2,0:0:0:0:
320,192,25026,1,2,0:0:0:0:
64,192,25026,1,2,0:0:0:0:
448,192,25257,1,8,0:0:0:0:
192,192,25314,1,0,0:0:0:0:
320,192,25372,1,0,0:0:0:0:
64,192,25430,1,0,0:0:0:0:
448,192,25488,1,2,0:0:0:0:
192,192,25488,1,2,0:0:0:0:
64,192,25834,1,2,0:0:0:0:
320,192,25834,1,2,0:0:0:0:
192,192,26180,1,2,0:0:0:0:
448,192,26180,1,2,0:0:0:0:
64,192,26526,1,2,0:0:0:0:
192,192,26526,1,2,0:0:0:0:
64,192,26872,1,2,0:0:0:0:
448,192,26872,1,2,0:0:0:0:
64,192,27103,1,2,0:0:0:0:
320,192,27103,1,2,0:0:0:0:
64,192,27218,1,2,0:0:0:0:
320,192,27218,1,2,0:0:0:0:
448,192,27334,1,2,0:0:0:0:
192,192,27334,1,2,0:0:0:0:
192,192,27507,1,2,0:0:0:0:
320,192,27507,1,2,0:0:0:0:
320,192,27680,1,2,0:0:0:0:
64,192,27680,1,2,0:0:0:0:
320,192,27795,1,2,0:0:0:0:
64,192,27795,1,2,0:0:0:0:
192,192,27968,1,2,0:0:0:0:
320,192,27968,1,2,0:0:0:0:
192,192,28141,1,2,0:0:0:0:
448,192,28141,1,2,0:0:0:0:
192,192,28257,1,2,0:0:0:0:
448,192,28257,1,2,0:0:0:0:
320,192,28430,1,2,0:0:0:0:
192,192,28430,1,2,0:0:0:0:
320,192,28603,1,2,0:0:0:0:
64,192,28603,1,0,0:0:0:0:
320,192,28718,1,2,0:0:0:0:
64,192,28718,1,0,0:0:0:0:
192,192,28891,1,2,0:0:0:0:
448,192,28891,1,0,0:0:0:0:
320,192,29064,1,2,0:0:0:0:
64,192,29180,1,2,0:0:0:0:
192,192,29238,1,0,0:0:0:0:
320,192,29295,1,0,0:0:0:0:
448,192,29353,1,0,0:0:0:0:
64,192,29411,1,0,0:0:0:0:
320,192,29468,1,0,0:0:0:0:
192,192,29526,1,0,0:0:0:0:
448,192,29584,1,0,0:0:0:0:
64,192,29641,1,0,0:0:0:0:
192,192,29699,1,0,0:0:0:0:
320,192,29757,1,0,0:0:0:0:
448,192,29814,1,0,0:0:0:0:
64,192,29872,1,0,0:0:0:0:
192,192,29930,1,0,0:0:0:0:
320,192,29988,1,0,0:0:0:0:
192,192,30045,1,0,0:0:0:0:
64,192,30103,1,2,0:0:0:0:
448,192,30218,1,2,0:0:0:0:
192,192,30334,1,8,0:0:0:0:
320,192,30564,1,8,0:0:0:0:
64,192,30680,1,8,0:0:0:0:
448,192,30795,1,2,0:0:0:0:
448,192,31026,1,6,0:0:0:0:
320,192,31084,1,0,0:0:0:0:
192,192,31141,1,2,0:0:0:0:
64,192,31199,1,0,0:0:0:0:
448,192,31257,1,2,0:0:0:0:
192,192,31314,1,0,0:0:0:0:
320,192,31372,1,2,0:0:0:0:
64,192,31430,1,0,0:0:0:0:
448,192,31488,1,2,0:0:0:0:
192,192,31545,1,0,0:0:0:0:
320,192,31603,1,2,0:0:0:0:
192,192,31661,1,0,0:0:0:0:
448,192,31718,1,2,0:0:0:0:
64,192,31776,1,0,0:0:0:0:
192,192,31834,1,2,0:0:0:0:
320,192,31891,1,0,0:0:0:0:
448,192,31949,1,2,0:0:0:0:
64,192,32007,1,0,0:0:0:0:
320,192,32064,1,2,0:0:0:0:
192,192,32122,1,0,0:0:0:0:
448,192,32180,1,2,0:0:0:0:
64,192,32238,1,0,0:0:0:0:
320,192,32295,1,2,0:0:0:0:
192,192,32353,1,0,0:0:0:0:
448,192,32411,1,2,0:0:0:0:
320,192,32468,1,0,0:0:0:0:
448,192,32526,1,2,0:0:0:0:
192,192,32584,1,0,0:0:0:0:
448,192,32641,1,2,0:0:0:0:
64,192,32699,1,0,0:0:0:0:
320,192,32757,1,2,0:0:0:0:
192,192,32814,1,2,0:0:0:0:
320,192,32872,1,2,0:0:0:0:
64,192,32930,1,0,0:0:0:0:
192,192,32988,1,2,0:0:0:0:
320,192,33045,1,0,0:0:0:0:
448,192,33103,1,2,0:0:0:0:
192,192,33161,1,0,0:0:0:0:
320,192,33218,1,2,0:0:0:0:
64,192,33276,1,0,0:0:0:0:
448,192,33334,1,2,0:0:0:0:
192,192,33391,1,0,0:0:0:0:
320,192,33449,1,2,0:0:0:0:
192,192,33507,1,0,0:0:0:0:
448,192,33564,1,2,0:0:0:0:
64,192,33622,1,0,0:0:0:0:
320,192,33680,1,2,0:0:0:0:
192,192,33738,1,0,0:0:0:0:
448,192,33795,1,2,0:0:0:0:
192,192,33853,1,0,0:0:0:0:
320,192,33911,1,2,0:0:0:0:
64,192,33968,1,0,0:0:0:0:
320,192,34026,1,2,0:0:0:0:
192,192,34084,1,0,0:0:0:0:
448,192,34141,1,2,0:0:0:0:
320,192,34199,1,0,0:0:0:0:
192,192,34257,1,2,0:0:0:0:
64,192,34314,1,0,0:0:0:0:
192,192,34372,1,2,0:0:0:0:
320,192,34430,1,0,0:0:0:0:
448,192,34488,1,2,0:0:0:0:
64,192,34545,1,2,0:0:0:0:
448,192,34603,1,2,0:0:0:0:
64,192,34661,1,2,0:0:0:0:
448,192,34718,1,2,0:0:0:0:
192,192,34776,1,0,0:0:0:0:
320,192,34834,1,2,0:0:0:0:
64,192,34891,1,0,0:0:0:0:
192,192,34949,1,2,0:0:0:0:
320,192,35007,1,0,0:0:0:0:
448,192,35064,1,2,0:0:0:0:
64,192,35122,1,0,0:0:0:0:
320,192,35180,1,2,0:0:0:0:
192,192,35238,1,0,0:0:0:0:
320,192,35295,1,2,0:0:0:0:
64,192,35353,1,0,0:0:0:0:
448,192,35411,1,2,0:0:0:0:
192,192,35468,1,0,0:0:0:0:
320,192,35526,1,2,0:0:0:0:
192,192,35584,1,0,0:0:0:0:
448,192,35641,1,2,0:0:0:0:
64,192,35699,1,0,0:0:0:0:
192,192,35757,1,2,0:0:0:0:
64,192,35814,1,0,0:0:0:0:
448,192,35872,1,2,0:0:0:0:
320,192,35930,1,0,0:0:0:0:
192,192,35988,1,2,0:0:0:0:
64,192,36045,1,0,0:0:0:0:
448,192,36103,1,2,0:0:0:0:
320,192,36161,1,0,0:0:0:0:
448,192,36218,1,2,0:0:0:0:
192,192,36276,1,0,0:0:0:0:
448,192,36334,1,2,0:0:0:0:
64,192,36391,1,2,0:0:0:0:
320,192,36449,1,2,0:0:0:0:
192,192,36507,1,2,0:0:0:0:
320,192,36564,1,2,0:0:0:0:
64,192,36622,1,0,0:0:0:0:
448,192,36680,1,2,0:0:0:0:
320,192,36738,1,0,0:0:0:0:
192,192,36795,1,2,0:0:0:0:
320,192,36853,1,0,0:0:0:0:
448,192,36911,1,2,0:0:0:0:
64,192,36968,1,0,0:0:0:0:
192,192,37026,1,2,0:0:0:0:
320,192,37084,1,2,0:0:0:0:
192,192,37141,1,2,0:0:0:0:
320,192,37199,1,0,0:0:0:0:
448,192,37257,1,2,0:0:0:0:
64,192,37314,1,0,0:0:0:0:
448,192,37372,1,2,0:0:0:0:
320,192,37430,1,0,0:0:0:0:
192,192,37488,1,2,0:0:0:0:
64,192,37545,1,2,0:0:0:0:
320,192,37603,1,2,0:0:0:0:
64,192,37661,1,2,0:0:0:0:
320,192,37718,1,2,0:0:0:0:
64,192,37776,1,0,0:0:0:0:
192,192,37834,1,2,0:0:0:0:
320,192,37891,1,0,0:0:0:0:
448,192,37949,1,8,0:0:0:0:
192,192,38007,1,8,0:0:0:0:
448,192,38064,1,8,0:0:0:0:
64,192,38180,1,8,0:0:0:0:
320,192,38238,1,8,0:0:0:0:
64,192,38295,1,8,0:0:0:0:
448,192,38411,1,6,0:0:0:0:
320,192,38468,1,0,0:0:0:0:
192,192,38526,1,2,0:0:0:0:
64,192,38584,1,0,0:0:0:0:
448,192,38641,1,2,0:0:0:0:
192,192,38699,1,0,0:0:0:0:
320,192,38757,1,2,0:0:0:0:
64,192,38814,1,0,0:0:0:0:
192,192,38872,1,2,0:0:0:0:
320,192,38930,1,0,0:0:0:0:
448,192,38988,1,2,0:0:0:0:
64,192,39045,1,0,0:0:0:0:
320,192,39103,1,2,0:0:0:0:
64,192,39161,1,0,0:0:0:0:
448,192,39218,1,2,0:0:0:0:
192,192,39276,1,0,0:0:0:0:
448,192,39334,1,2,0:0:0:0:
64,192,39391,1,0,0:0:0:0:
320,192,39449,1,2,0:0:0:0:
192,192,39507,1,0,0:0:0:0:
320,192,39564,1,2,0:0:0:0:
64,192,39622,1,0,0:0:0:0:
448,192,39680,1,2,0:0:0:0:
64,192,39738,1,0,0:0:0:0:
320,192,39795,1,2,0:0:0:0:
192,192,39853,1,0,0:0:0:0:
320,192,39911,1,2,0:0:0:0:
64,192,39968,1,0,0:0:0:0:
320,192,40026,1,2,0:0:0:0:
192,192,40084,1,0,0:0:0:0:
448,192,40141,1,2,0:0:0:0:
64,192,40199,1,2,0:0:0:0:
448,192,40257,1,2,0:0:0:0:
192,192,40314,1,0,0:0:0:0:
320,192,40372,1,2,0:0:0:0:
64,192,40430,1,0,0:0:0:0:
320,192,40488,1,2,0:0:0:0:
192,192,40545,1,0,0:0:0:0:
448,192,40603,1,2,0:0:0:0:
320,192,40661,1,0,0:0:0:0:
192,192,40718,1,2,0:0:0:0:
64,192,40776,1,0,0:0:0:0:
448,192,40834,1,2,0:0:0:0:
320,192,40891,1,0,0:0:0:0:
448,192,40949,1,2,0:0:0:0:
192,192,41007,1,0,0:0:0:0:
320,192,41064,1,2,0:0:0:0:
64,192,41122,1,0,0:0:0:0:
192,192,41180,1,2,0:0:0:0:
320,192,41238,1,0,0:0:0:0:
448,192,41295,1,2,0:0:0:0:
64,192,41353,1,0,0:0:0:0:
320,192,41411,1,2,0:0:0:0:
192,192,41468,1,0,0:0:0:0:
448,192,41526,1,2,0:0:0:0:
64,192,41584,1,8,0:0:0:0:
320,192,41641,128,8,41872:0:0:0:0:
64,192,41872,1,8,0:0:0:0:
448,192,41930,1,8,0:0:0:0:
64,192,41988,1,8,0:0:0:0:
448,192,42045,1,8,0:0:0:0:
64,192,42103,1,2,0:0:0:0:
320,192,42161,1,0,0:0:0:0:
192,192,42218,1,2,0:0:0:0:
448,192,42276,1,0,0:0:0:0:
64,192,42334,1,2,0:0:0:0:
192,192,42391,1,0,0:0:0:0:
320,192,42449,1,2,0:0:0:0:
448,192,42507,1,0,0:0:0:0:
64,192,42564,1,2,0:0:0:0:
320,192,42622,1,0,0:0:0:0:
64,192,42680,1,2,0:0:0:0:
448,192,42738,1,0,0:0:0:0:
192,192,42795,1,2,0:0:0:0:
448,192,42853,1,0,0:0:0:0:
64,192,42911,1,2,0:0:0:0:
320,192,42968,1,0,0:0:0:0:
192,192,43026,1,2,0:0:0:0:
448,192,43084,1,0,0:0:0:0:
64,192,43141,1,2,0:0:0:0:
320,192,43199,1,0,0:0:0:0:
64,192,43257,1,2,0:0:0:0:
192,192,43314,1,0,0:0:0:0:
320,192,43372,1,2,0:0:0:0:
448,192,43430,1,0,0:0:0:0:
64,192,43488,1,2,0:0:0:0:
192,192,43545,1,0,0:0:0:0:
64,192,43603,1,2,0:0:0:0:
320,192,43661,1,0,0:0:0:0:
64,192,43718,1,2,0:0:0:0:
448,192,43776,1,0,0:0:0:0:
192,192,43834,1,2,0:0:0:0:
320,192,43891,1,2,0:0:0:0:
192,192,43949,1,2,0:0:0:0:
448,192,44007,1,2,0:0:0:0:
192,192,44064,1,2,0:0:0:0:
448,192,44122,1,2,0:0:0:0:
64,192,44180,1,2,0:0:0:0:
320,192,44295,1,2,0:0:0:0:
64,192,44411,1,8,0:0:0:0:
192,192,44468,1,8,0:0:0:0:
320,192,44526,1,8,0:0:0:0:
448,192,44584,1,8,0:0:0:0:
64,192,44641,1,8,0:0:0:0:
192,192,44699,1,8,0:0:0:0:
320,192,44757,1,8,0:0:0:0:
448,192,44814,1,8,0:0:0:0:
320,192,44872,1,0,0:0:0:0:
192,192,44930,1,0,0:0:0:0:
64,192,44988,1,8,0:0:0:0:
64,192,45218,1,2,0:0:0:0:
448,192,45218,1,8,0:0:0:0:
448,192,45334,1,10,0:0:0:0:
192,192,45449,1,0,0:0:0:0:
320,192,45564,1,8,0:0:0:0:
192,192,45680,1,0,0:0:0:0:
448,192,45795,1,6,0:0:0:0:
320,192,45853,1,8,0:0:0:0:
192,192,45911,1,2,0:0:0:0:
64,192,45968,1,8,0:0:0:0:
320,192,46026,1,2,0:0:0:0:
192,192,46084,1,8,0:0:0:0:
448,192,46141,1,2,0:0:0:0:
64,192,46199,1,8,0:0:0:0:
192,192,46257,1,2,0:0:0:0:
320,192,46314,1,8,0:0:0:0:
448,192,46372,1,2,0:0:0:0:
64,192,46430,1,8,0:0:0:0:
320,192,46488,1,2,0:0:0:0:
64,192,46545,1,8,0:0:0:0:
448,192,46603,1,2,0:0:0:0:
192,192,46661,1,8,0:0:0:0:
448,192,46718,1,2,0:0:0:0:
320,192,46776,1,8,0:0:0:0:
192,192,46834,1,2,0:0:0:0:
64,192,46891,1,8,0:0:0:0:
192,192,46949,1,2,0:0:0:0:
320,192,47007,1,8,0:0:0:0:
448,192,47064,1,2,0:0:0:0:
192,192,47122,1,8,0:0:0:0:
320,192,47180,1,2,0:0:0:0:
64,192,47238,1,8,0:0:0:0:
320,192,47295,1,2,0:0:0:0:
192,192,47353,1,8,0:0:0:0:
320,192,47411,1,2,0:0:0:0:
64,192,47468,1,8,0:0:0:0:
448,192,47526,1,2,0:0:0:0:
192,192,47584,1,2,0:0:0:0:
448,192,47641,1,2,0:0:0:0:
64,192,47699,1,8,0:0:0:0:
320,192,47757,1,2,0:0:0:0:
192,192,47814,1,8,0:0:0:0:
448,192,47872,1,2,0:0:0:0:
320,192,47930,1,8,0:0:0:0:
192,192,47988,1,2,0:0:0:0:
64,192,48045,1,8,0:0:0:0:
448,192,48103,1,2,0:0:0:0:
64,192,48161,1,8,0:0:0:0:
320,192,48218,1,2,0:0:0:0:
192,192,48276,1,8,0:0:0:0:
320,192,48334,1,2,0:0:0:0:
64,192,48391,1,8,0:0:0:0:
448,192,48449,1,2,0:0:0:0:
192,192,48507,1,8,0:0:0:0:
320,192,48564,1,2,0:0:0:0:
64,192,48622,1,8,0:0:0:0:
192,192,48680,1,2,0:0:0:0:
64,192,48738,1,8,0:0:0:0:
448,192,48795,1,2,0:0:0:0:
320,192,48853,1,2,0:0:0:0:
448,192,48911,1,2,0:0:0:0:
320,192,48968,1,2,0:0:0:0:
192,192,49026,1,2,0:0:0:0:
64,192,49084,1,8,0:0:0:0:
320,192,49141,1,2,0:0:0:0:
192,192,49199,1,8,0:0:0:0:
448,192,49257,1,2,0:0:0:0:
64,192,49314,1,2,0:0:0:0:
448,192,49372,1,2,0:0:0:0:
64,192,49430,1,2,0:0:0:0:
448,192,49488,1,2,0:0:0:0:
192,192,49545,1,8,0:0:0:0:
320,192,49603,1,2,0:0:0:0:
64,192,49661,1,8,0:0:0:0:
192,192,49718,1,2,0:0:0:0:
320,192,49776,1,8,0:0:0:0:
448,192,49834,1,2,0:0:0:0:
320,192,49891,1,8,0:0:0:0:
192,192,49949,1,2,0:0:0:0:
64,192,50007,1,8,0:0:0:0:
320,192,50064,1,2,0:0:0:0:
192,192,50122,1,8,0:0:0:0:
448,192,50180,1,2,0:0:0:0:
320,192,50238,1,8,0:0:0:0:
192,192,50295,1,2,0:0:0:0:
64,192,50353,1,8,0:0:0:0:
448,192,50411,1,2,0:0:0:0:
192,192,50468,1,8,0:0:0:0:
320,192,50526,1,2,0:0:0:0:
64,192,50584,1,8,0:0:0:0:
320,192,50641,1,2,0:0:0:0:
192,192,50699,1,8,0:0:0:0:
448,192,50757,1,2,0:0:0:0:
64,192,50814,1,8,0:0:0:0:
320,192,50872,1,2,0:0:0:0:
192,192,50930,1,8,0:0:0:0:
320,192,50988,1,2,0:0:0:0:
64,192,51045,1,8,0:0:0:0:
320,192,51103,1,2,0:0:0:0:
192,192,51161,1,8,0:0:0:0:
448,192,51218,1,2,0:0:0:0:
64,192,51276,1,8,0:0:0:0:
448,192,51334,1,2,0:0:0:0:
320,192,51391,1,0,0:0:0:0:
192,192,51449,1,2,0:0:0:0:
64,192,51507,1,0,0:0:0:0:
320,192,51564,1,2,0:0:0:0:
192,192,51622,1,2,0:0:0:0:
320,192,51680,1,2,0:0:0:0:
64,192,51738,1,0,0:0:0:0:
192,192,51795,1,2,0:0:0:0:
320,192,51853,1,0,0:0:0:0:
448,192,51911,1,2,0:0:0:0:
64,192,51968,1,2,0:0:0:0:
448,192,52026,1,2,0:0:0:0:
192,192,52084,1,0,0:0:0:0:
320,192,52141,1,0,0:0:0:0:
64,192,52199,1,0,0:0:0:0:
448,192,52257,1,2,0:0:0:0:
320,192,52314,1,2,0:0:0:0:
448,192,52372,1,2,0:0:0:0:
320,192,52430,1,2,0:0:0:0:
448,192,52488,1,2,0:0:0:0:
192,192,52545,1,0,0:0:0:0:
448,192,52603,1,2,0:0:0:0:
192,192,52661,1,2,0:0:0:0:
320,192,52718,1,0,0:0:0:0:
64,192,52776,1,0,0:0:0:0:
320,192,52834,128,0,53180:0:0:0:0:
64,192,53180,1,2,0:0:0:0:
320,192,53238,1,2,0:0:0:0:
64,192,53295,1,2,0:0:0:0:
320,192,53353,1,2,0:0:0:0:
192,192,53411,1,2,0:0:0:0:
448,192,53468,1,2,0:0:0:0:
192,192,53526,1,2,0:0:0:0:
448,192,53584,1,2,0:0:0:0:
64,192,53641,1,2,0:0:0:0:
320,192,53699,1,2,0:0:0:0:
64,192,53757,1,2,0:0:0:0:
320,192,53814,1,2,0:0:0:0:
192,192,53872,1,2,0:0:0:0:
448,192,53988,128,8,54103:0:0:0:0:
64,192,54103,1,2,0:0:0:0:
192,192,54161,1,2,0:0:0:0:
64,192,54218,1,2,0:0:0:0:
192,192,54276,1,2,0:0:0:0:
320,192,54334,1,2,0:0:0:0:
448,192,54391,1,2,0:0:0:0:
320,192,54449,1,2,0:0:0:0:
448,192,54507,1,2,0:0:0:0:
64,192,54564,1,2,0:0:0:0:
192,192,54622,1,2,0:0:0:0:
64,192,54680,1,2,0:0:0:0:
192,192,54738,1,2,0:0:0:0:
320,192,54795,1,2,0:0:0:0:
192,192,54911,1,10,0:0:0:0:
64,192,55026,1,2,0:0:0:0:
448,192,55084,1,2,0:0:0:0:
64,192,55141,1,2,0:0:0:0:
448,192,55199,1,2,0:0:0:0:
192,192,55257,1,2,0:0:0:0:
320,192,55314,1,2,0:0:0:0:
192,192,55372,128,8,55488:0:0:0:0:
448,192,55488,1,2,0:0:0:0:
192,192,55603,128,8,55718:0:0:0:0:
448,192,55718,1,2,0:0:0:0:
448,192,55834,1,2,0:0:0:0:
192,192,55949,1,2,0:0:0:0:
320,192,56007,1,2,0:0:0:0:
64,192,56064,128,8,56180:0:0:0:0:
320,192,56180,1,2,0:0:0:0:
192,192,56238,1,0,0:0:0:0:
448,192,56295,128,8,56411:0:0:0:0:
64,192,56411,1,2,0:0:0:0:
320,192,56468,1,0,0:0:0:0:
192,192,56526,128,8,56641:0:0:0:0:
448,192,56641,1,0,0:0:0:0:
192,192,56757,128,8,56872:0:0:0:0:
448,192,56872,1,2,0:0:0:0:
64,192,57045,1,2,0:0:0:0:
448,192,57218,1,10,0:0:0:0:
192,192,57218,1,0,0:0:0:0:
448,192,57334,1,10,0:0:0:0:
192,192,57334,1,0,0:0:0:0:
320,192,57507,1,2,0:0:0:0:
192,192,57507,1,0,0:0:0:0:
64,192,57680,1,10,0:0:0:0:
320,192,57680,1,2,0:0:0:0:
64,192,57795,1,10,0:0:0:0:
320,192,57795,1,2,0:0:0:0:
448,192,57911,1,10,0:0:0:0:
192,192,58026,1,2,0:0:0:0:
320,192,58084,1,2,0:0:0:0:
192,192,58141,1,2,0:0:0:0:
448,192,58199,1,2,0:0:0:0:
64,192,58257,128,8,58718:0:0:0:0:
448,192,58718,1,2,0:0:0:0:
64,192,58776,1,2,0:0:0:0:
448,192,58834,1,2,0:0:0:0:
64,192,58891,1,2,0:0:0:0:
448,192,58949,1,2,0:0:0:0:
64,192,59007,1,2,0:0:0:0:
448,192,59064,1,2,0:0:0:0:
64,192,59122,1,2,0:0:0:0:
320,192,59180,128,2,59641:0:0:0:0:
64,192,59641,1,2,0:0:0:0:
448,192,59641,1,2,0:0:0:0:
64,192,59872,128,0,60564:0:0:0:0:
192,192,60564,1,2,0:0:0:0:
448,192,60564,1,6,0:0:0:0:
192,192,60680,1,2,0:0:0:0:
192,192,60795,1,8,0:0:0:0:
448,192,60911,1,0,0:0:0:0:
448,192,61141,1,0,0:0:0:0:
64,192,61257,1,8,0:0:0:0:
64,192,61372,1,0,0:0:0:0:
320,192,61488,1,0,0:0:0:0:
320,192,61603,1,0,0:0:0:0:
320,192,61718,1,8,0:0:0:0:
192,192,61834,1,0,0:0:0:0:
192,192,62064,1,0,0:0:0:0:
448,192,62180,1,8,0:0:0:0:
448,192,62295,1,8,0:0:0:0:
64,192,62411,1,0,0:0:0:0:
64,192,62526,1,0,0:0:0:0:
64,192,62641,1,8,0:0:0:0:
192,192,62757,1,0,0:0:0:0:
192,192,62988,1,0,0:0:0:0:
320,192,63103,1,8,0:0:0:0:
320,192,63218,1,0,0:0:0:0:
448,192,63334,1,0,0:0:0:0:
64,192,63449,1,8,0:0:0:0:
448,192,63564,1,0,0:0:0:0:
64,192,63680,1,8,0:0:0:0:
448,192,63795,1,0,0:0:0:0:
64,192,63911,1,8,0:0:0:0:
448,192,64026,1,0,0:0:0:0:
64,192,64141,1,8,0:0:0:0:
320,192,64257,1,0,0:0:0:0:
320,192,64372,1,0,0:0:0:0:
320,192,64488,1,8,0:0:0:0:
64,192,64603,1,0,0:0:0:0:
64,192,64834,1,0,0:0:0:0:
448,192,64949,1,8,0:0:0:0:
448,192,65064,1,0,0:0:0:0:
192,192,65180,1,0,0:0:0:0:
192,192,65295,1,0,0:0:0:0:
192,192,65411,1,8,0:0:0:0:
320,192,65526,1,0,0:0:0:0:
320,192,65757,1,0,0:0:0:0:
64,192,65872,1,8,0:0:0:0:
64,192,65988,1,8,0:0:0:0:
448,192,66103,1,0,0:0:0:0:
448,192,66218,1,0,0:0:0:0:
448,192,66334,1,8,0:0:0:0:
192,192,66449,1,0,0:0:0:0:
192,192,66680,1,0,0:0:0:0:
320,192,66795,1,8,0:0:0:0:
320,192,66911,1,0,0:0:0:0:
64,192,67026,1,0,0:0:0:0:
448,192,67141,1,8,0:0:0:0:
64,192,67257,1,0,0:0:0:0:
448,192,67372,1,8,0:0:0:0:
192,192,67488,1,8,0:0:0:0:
320,192,67603,1,8,0:0:0:0:
192,192,67718,1,8,0:0:0:0:
320,192,67834,1,8,0:0:0:0:
64,192,67949,1,6,0:0:0:0:
320,192,67949,1,0,0:0:0:0:
64,192,68064,1,0,0:0:0:0:
64,192,68180,1,8,0:0:0:0:
320,192,68295,1,0,0:0:0:0:
320,192,68526,1,0,0:0:0:0:
64,192,68641,1,8,0:0:0:0:
64,192,68757,1,0,0:0:0:0:
448,192,68872,1,0,0:0:0:0:
448,192,68988,1,0,0:0:0:0:
448,192,69103,1,8,0:0:0:0:
192,192,69218,1,0,0:0:0:0:
192,192,69449,1,0,0:0:0:0:
320,192,69564,1,8,0:0:0:0:
320,192,69680,1,0,0:0:0:0:
64,192,69795,1,0,0:0:0:0:
64,192,69911,1,0,0:0:0:0:
64,192,70026,1,8,0:0:0:0:
320,192,70141,1,0,0:0:0:0:
320,192,70372,1,0,0:0:0:0:
192,192,70488,1,8,0:0:0:0:
192,192,70603,1,0,0:0:0:0:
448,192,70718,1,0,0:0:0:0:
64,192,70834,1,8,0:0:0:0:
448,192,70949,1,0,0:0:0:0:
64,192,71064,1,8,0:0:0:0:
448,192,71180,1,0,0:0:0:0:
64,192,71295,1,8,0:0:0:0:
448,192,71411,1,0,0:0:0:0:
64,192,71526,1,8,0:0:0:0:
320,192,71641,1,0,0:0:0:0:
320,192,71757,1,0,0:0:0:0:
320,192,71872,1,8,0:0:0:0:
192,192,71988,1,0,0:0:0:0:
192,192,72218,1,0,0:0:0:0:
448,192,72334,1,8,0:0:0:0:
448,192,72449,1,0,0:0:0:0:
192,192,72564,1,0,0:0:0:0:
192,192,72680,1,0,0:0:0:0:
192,192,72795,1,8,0:0:0:0:
320,192,72911,1,0,0:0:0:0:
320,192,73141,1,0,0:0:0:0:
64,192,73257,1,8,0:0:0:0:
64,192,73372,1,8,0:0:0:0:
448,192,73488,1,0,0:0:0:0:
448,192,73603,1,0,0:0:0:0:
448,192,73718,1,8,0:0:0:0:
192,192,73834,1,0,0:0:0:0:
192,192,74064,1,0,0:0:0:0:
320,192,74180,1,8,0:0:0:0:
320,192,74295,1,0,0:0:0:0:
64,192,74411,1,0,0:0:0:0:
320,192,74526,1,8,0:0:0:0:
64,192,74641,1,0,0:0:0:0:
320,192,74757,1,8,0:0:0:0:
192,192,74872,1,0,0:0:0:0:
448,192,74988,1,8,0:0:0:0:
192,192,75103,1,0,0:0:0:0:
448,192,75218,1,8,0:0:0:0:
448,192,75334,1,6,0:0:0:0:
64,192,75334,1,0,0:0:0:0:
192,192,75564,1,10,0:0:0:0:
448,192,75564,1,10,0:0:0:0:
64,192,75795,1,2,0:0:0:0:
192,192,75795,1,2,0:0:0:0:
320,192,76026,1,10,0:0:0:0:
448,192,76026,1,10,0:0:0:0:
192,192,76257,1,2,0:0:0:0:
320,192,76257,1,2,0:0:0:0:
64,192,76488,1,10,0:0:0:0:
448,192,76488,1,10,0:0:0:0:
320,192,76718,1,2,0:0:0:0:
448,192,76718,1,2,0:0:0:0:
64,192,76949,1,10,0:0:0:0:
192,192,76949,1,10,0:0:0:0:
192,192,77180,1,2,0:0:0:0:
448,192,77180,1,2,0:0:0:0:
64,192,77411,1,10,0:0:0:0:
320,192,77411,1,10,0:0:0:0:
192,192,77641,1,2,0:0:0:0:
320,192,77641,1,2,0:0:0:0:
64,192,77872,1,10,0:0:0:0:
448,192,77872,1,10,0:0:0:0:
448,192,78103,1,2,0:0:0:0:
320,192,78218,1,0,0:0:0:0:
192,192,78334,1,10,0:0:0:0:
320,192,78449,1,0,0:0:0:0:
448,192,78564,1,2,0:0:0:0:
320,192,78680,1,0,0:0:0:0:
192,192,78795,1,10,0:0:0:0:
320,192,78911,1,2,0:0:0:0:
64,192,79026,1,2,0:0:0:0:
448,192,79026,1,2,0:0:0:0:
64,192,79257,1,10,0:0:0:0:
320,192,79257,1,10,0:0:0:0:
192,192,79488,1,2,0:0:0:0:
448,192,79488,1,2,0:0:0:0:
192,192,79718,1,10,0:0:0:0:
320,192,79718,1,10,0:0:0:0:
64,192,79949,1,2,0:0:0:0:
448,192,79949,1,2,0:0:0:0:
64,192,80180,1,10,0:0:0:0:
192,192,80180,1,10,0:0:0:0:
320,192,80411,1,2,0:0:0:0:
448,192,80411,1,2,0:0:0:0:
64,192,80641,1,10,0:0:0:0:
320,192,80641,1,10,0:0:0:0:
192,192,80872,1,2,0:0:0:0:
448,192,80872,1,2,0:0:0:0:
64,192,81103,1,10,0:0:0:0:
192,192,81103,1,10,0:0:0:0:
64,192,81334,1,2,0:0:0:0:
448,192,81334,1,2,0:0:0:0:
192,192,81564,1,10,0:0:0:0:
320,192,81564,1,10,0:0:0:0:
64,192,81795,1,2,0:0:0:0:
320,192,81911,1,2,0:0:0:0:
64,192,82026,1,10,0:0:0:0:
320,192,82026,1,10,0:0:0:0:
64,192,82257,1,0,0:0:0:0:
448,192,82257,1,0,0:0:0:0:
448,192,82488,1,8,0:0:0:0:
64,192,82545,1,8,0:0:0:0:
448,192,82603,1,8,0:0:0:0:
192,192,82718,1,6,0:0:0:0:
320,192,82834,1,2,0:0:0:0:
64,192,82949,1,10,0:0:0:0:
320,192,82949,1,10,0:0:0:0:
192,192,83180,1,2,0:0:0:0:
448,192,83180,1,2,0:0:0:0:
192,192,83411,1,10,0:0:0:0:
320,192,83411,1,10,0:0:0:0:
64,192,83641,1,2,0:0:0:0:
448,192,83641,1,2,0:0:0:0:
320,192,83872,1,10,0:0:0:0:
448,192,83872,1,10,0:0:0:0:
64,192,84103,1,2,0:0:0:0:
192,192,84103,1,2,0:0:0:0:
64,192,84334,1,10,0:0:0:0:
448,192,84334,1,10,0:0:0:0:
64,192,84449,1,2,0:0:0:0:
320,192,84564,1,2,0:0:0:0:
448,192,84564,1,2,0:0:0:0:
64,192,84795,1,10,0:0:0:0:
320,192,84795,1,10,0:0:0:0:
192,192,85026,1,2,0:0:0:0:
448,192,85026,1,2,0:0:0:0:
64,192,85257,1,10,0:0:0:0:
192,192,85257,1,10,0:0:0:0:
64,192,85488,1,2,0:0:0:0:
320,192,85603,1,0,0:0:0:0:
64,192,85718,1,10,0:0:0:0:
448,192,85834,1,0,0:0:0:0:
64,192,85949,1,2,0:0:0:0:
320,192,86007,1,2,0:0:0:0:
64,192,86064,1,2,0:0:0:0:
448,192,86180,1,2,0:0:0:0:
448,192,86295,1,2,0:0:0:0:
320,192,86411,1,8,0:0:0:0:
64,192,86411,1,8,0:0:0:0:
64,192,86526,1,8,0:0:0:0:
448,192,86641,1,8,0:0:0:0:
448,192,86757,1,8,0:0:0:0:
192,192,86872,1,8,0:0:0:0:
192,192,86988,1,8,0:0:0:0:
448,192,87103,1,8,0:0:0:0:
448,192,87218,1,8,0:0:0:0:
192,192,87334,1,8,0:0:0:0:
192,192,87449,1,8,0:0:0:0:
320,192,87564,1,8,0:0:0:0:
320,192,87680,1,8,0:0:0:0:
64,192,87795,1,8,0:0:0:0:
64,192,87911,1,8,0:0:0:0:
448,192,88026,1,8,0:0:0:0:
448,192,88141,1,8,0:0:0:0:
192,192,88257,128,8,89180:0:0:0:0:
320,192,89180,128,8,89641:0:0:0:0:
64,192,89641,128,0,89872:0:0:0:0:
448,192,89872,1,8,0:0:0:0:
64,192,90103,1,6,0:0:0:0:
320,192,90161,1,0,0:0:0:0:
64,192,90218,1,2,0:0:0:0:
192,192,90276,1,0,0:0:0:0:
320,192,90334,1,2,0:0:0:0:
448,192,90391,1,0,0:0:0:0:
192,192,90449,1,2,0:0:0:0:
448,192,90507,1,0,0:0:0:0:
64,192,90564,1,2,0:0:0:0:
320,192,90622,1,0,0:0:0:0:
64,192,90680,1,2,0:0:0:0:
192,192,90738,1,0,0:0:0:0:
320,192,90795,1,2,0:0:0:0:
448,192,90853,1,0,0:0:0:0:
192,192,90911,1,2,0:0:0:0:
448,192,90968,1,0,0:0:0:0:
64,192,91026,1,2,0:0:0:0:
320,192,91084,1,0,0:0:0:0:
192,192,91141,1,2,0:0:0:0:
448,192,91199,1,0,0:0:0:0:
64,192,91257,1,2,0:0:0:0:
320,192,91314,1,0,0:0:0:0:
192,192,91372,1,2,0:0:0:0:
448,192,91430,1,0,0:0:0:0:
64,192,91488,1,2,0:0:0:0:
320,192,91545,1,0,0:0:0:0:
192,192,91603,1,2,0:0:0:0:
320,192,91661,1,0,0:0:0:0:
64,192,91718,1,2,0:0:0:0:
448,192,91776,1,0,0:0:0:0:
192,192,91834,1,2,0:0:0:0:
448,192,91891,1,2,0:0:0:0:
192,192,91949,1,2,0:0:0:0:
320,192,92007,1,0,0:0:0:0:
64,192,92064,1,2,0:0:0:0:
448,192,92122,1,0,0:0:0:0:
192,192,92180,1,2,0:0:0:0:
320,192,92238,1,0,0:0:0:0:
64,192,92295,1,2,0:0:0:0:
448,192,92353,1,0,0:0:0:0:
320,192,92411,1,2,0:0:0:0:
192,192,92468,1,0,0:0:0:0:
64,192,92526,1,2,0:0:0:0:
192,192,92584,1,0,0:0:0:0:
320,192,92641,1,2,0:0:0:0:
448,192,92699,1,0,0:0:0:0:
64,192,92757,1,2,0:0:0:0:
192,192,92814,1,0,0:0:0:0:
320,192,92872,128,2,92988:0:0:0:0:
192,192,92988,128,2,93103:0:0:0:0:
448,192,93103,128,2,93218:0:0:0:0:
64,192,93218,128,2,93334:0:0:0:0:
320,192,93334,1,10,0:0:0:0:
320,192,93564,1,2,0:0:0:0:
64,192,93622,1,2,0:0:0:0:
320,192,93680,1,2,0:0:0:0:
64,192,93738,1,2,0:0:0:0:
448,192,93795,1,2,0:0:0:0:
192,192,93853,1,0,0:0:0:0:
448,192,93911,1,2,0:0:0:0:
320,192,93968,1,0,0:0:0:0:
192,192,94026,1,2,0:0:0:0:
64,192,94084,1,0,0:0:0:0:
320,192,94141,1,2,0:0:0:0:
64,192,94199,1,0,0:0:0:0:
448,192,94257,1,2,0:0:0:0:
192,192,94314,1,0,0:0:0:0:
448,192,94372,1,2,0:0:0:0:
320,192,94430,1,0,0:0:0:0:
192,192,94488,1,2,0:0:0:0:
64,192,94545,1,0,0:0:0:0:
320,192,94603,1,2,0:0:0:0:
64,192,94661,1,0,0:0:0:0:
448,192,94718,1,2,0:0:0:0:
192,192,94776,1,0,0:0:0:0:
320,192,94834,1,2,0:0:0:0:
64,192,94891,1,0,0:0:0:0:
448,192,94949,1,2,0:0:0:0:
192,192,95007,1,0,0:0:0:0:
320,192,95064,1,2,0:0:0:0:
64,192,95122,1,0,0:0:0:0:
448,192,95180,1,2,0:0:0:0:
192,192,95238,1,0,0:0:0:0:
320,192,95295,1,2,0:0:0:0:
192,192,95353,1,0,0:0:0:0:
448,192,95411,1,2,0:0:0:0:
64,192,95468,1,0,0:0:0:0:
320,192,95526,1,2,0:0:0:0:
64,192,95584,1,2,0:0:0:0:
320,192,95641,1,2,0:0:0:0:
192,192,95699,1,0,0:0:0:0:
448,192,95757,1,2,0:0:0:0:
320,192,95814,1,0,0:0:0:0:
192,192,95872,1,2,0:0:0:0:
64,192,95930,1,0,0:0:0:0:
448,192,95988,1,2,0:0:0:0:
320,192,96045,1,0,0:0:0:0:
192,192,96103,1,2,0:0:0:0:
320,192,96161,1,2,0:0:0:0:
192,192,96218,1,2,0:0:0:0:
448,192,96276,1,0,0:0:0:0:
64,192,96334,1,2,0:0:0:0:
320,192,96449,1,2,0:0:0:0:
64,192,96564,128,10,96795:0:0:0:0:
448,192,96795,128,10,97026:0:0:0:0:
192,192,97026,128,10,97257:0:0:0:0:
320,192,97257,1,10,0:0:0:0:
64,192,97372,1,2,0:0:0:0:
448,192,97430,1,2,0:0:0:0:
64,192,97488,1,6,0:0:0:0:
192,192,97545,1,0,0:0:0:0:
64,192,97603,1,2,0:0:0:0:
320,192,97661,1,0,0:0:0:0:
192,192,97718,1,2,0:0:0:0:
448,192,97776,1,0,0:0:0:0:
320,192,97834,1,2,0:0:0:0:
448,192,97891,1,0,0:0:0:0:
64,192,97949,1,2,0:0:0:0:
192,192,98007,1,0,0:0:0:0:
64,192,98064,1,2,0:0:0:0:
320,192,98122,1,0,0:0:0:0:
192,192,98180,1,2,0:0:0:0:
448,192,98238,1,0,0:0:0:0:
320,192,98295,1,2,0:0:0:0:
448,192,98353,1,0,0:0:0:0:
64,192,98411,1,2,0:0:0:0:
320,192,98468,1,0,0:0:0:0:
64,192,98526,1,2,0:0:0:0:
448,192,98584,1,0,0:0:0:0:
192,192,98641,1,2,0:0:0:0:
320,192,98699,1,0,0:0:0:0:
192,192,98757,1,2,0:0:0:0:
448,192,98814,1,0,0:0:0:0:
320,192,98872,1,2,0:0:0:0:
192,192,98930,1,0,0:0:0:0:
64,192,98988,1,2,0:0:0:0:
192,192,99045,1,0,0:0:0:0:
320,192,99103,1,2,0:0:0:0:
448,192,99161,1,0,0:0:0:0:
192,192,99218,1,2,0:0:0:0:
320,192,99276,1,2,0:0:0:0:
192,192,99334,1,2,0:0:0:0:
448,192,99391,1,0,0:0:0:0:
64,192,99449,1,2,0:0:0:0:
320,192,99507,1,0,0:0:0:0:
192,192,99564,1,2,0:0:0:0:
448,192,99622,1,0,0:0:0:0:
64,192,99680,1,2,0:0:0:0:
192,192,99738,1,0,0:0:0:0:
320,192,99795,1,2,0:0:0:0:
448,192,99853,1,0,0:0:0:0:
320,192,99911,1,2,0:0:0:0:
192,192,99968,1,0,0:0:0:0:
64,192,100026,1,2,0:0:0:0:
448,192,100084,1,0,0:0:0:0:
192,192,100141,1,2,0:0:0:0:
320,192,100199,1,0,0:0:0:0:
64,192,100257,128,2,100372:0:0:0:0:
448,192,100372,128,2,100488:0:0:0:0:
64,192,100488,128,2,100603:0:0:0:0:
448,192,100603,128,2,100718:0:0:0:0:
192,192,100718,128,8,100949:0:0:0:0:
320,192,100949,1,10,0:0:0:0:
64,192,101180,1,2,0:0:0:0:
192,192,101238,1,0,0:0:0:0:
64,192,101295,1,2,0:0:0:0:
320,192,101353,1,0,0:0:0:0:
192,192,101411,1,2,0:0:0:0:
448,192,101468,1,0,0:0:0:0:
320,192,101526,1,2,0:0:0:0:
448,192,101584,1,0,0:0:0:0:
64,192,101641,1,2,0:0:0:0:
192,192,101699,1,0,0:0:0:0:
64,192,101757,1,2,0:0:0:0:
320,192,101814,1,0,0:0:0:0:
192,192,101872,1,2,0:0:0:0:
448,192,101930,1,0,0:0:0:0:
320,192,101988,1,2,0:0:0:0:
448,192,102045,1,0,0:0:0:0:
64,192,102103,1,2,0:0:0:0:
192,192,102161,1,0,0:0:0:0:
320,192,102218,1,2,0:0:0:0:
192,192,102276,1,0,0:0:0:0:
64,192,102334,1,2,0:0:0:0:
448,192,102391,1,0,0:0:0:0:
320,192,102449,1,2,0:0:0:0:
192,192,102507,1,0,0:0:0:0:
64,192,102564,1,2,0:0:0:0:
320,192,102622,1,0,0:0:0:0:
64,192,102680,1,2,0:0:0:0:
320,192,102738,1,0,0:0:0:0:
192,192,102795,1,2,0:0:0:0:
448,192,102853,1,0,0:0:0:0:
64,192,102911,1,2,0:0:0:0:
320,192,102968,1,2,0:0:0:0:
64,192,103026,1,2,0:0:0:0:
448,192,103084,1,0,0:0:0:0:
192,192,103141,1,2,0:0:0:0:
320,192,103199,1,2,0:0:0:0:
192,192,103257,1,2,0:0:0:0:
448,192,103314,1,0,0:0:0:0:
64,192,103372,1,2,0:0:0:0:
192,192,103430,1,2,0:0:0:0:
320,192,103488,128,2,103949:0:0:0:0:
192,192,103949,1,14,0:0:0:0:
448,192,104180,1,8,0:0:0:0:
64,192,104411,1,8,0:0:0:0:
320,192,104641,1,8,0:0:0:0:
64,192,104872,1,6,0:0:0:0:
320,192,104930,1,0,0:0:0:0:
64,192,104988,1,2,0:0:0:0:
192,192,105045,1,0,0:0:0:0:
320,192,105103,1,2,0:0:0:0:
448,192,105161,1,0,0:0:0:0:
192,192,105218,1,2,0:0:0:0:
448,192,105276,1,0,0:0:0:0:
64,192,105334,1,2,0:0:0:0:
320,192,105391,1,0,0:0:0:0:
64,192,105449,1,2,0:0:0:0:
192,192,105507,1,0,0:0:0:0:
320,192,105564,1,2,0:0:0:0:
448,192,105622,1,0,0:0:0:0:
192,192,105680,1,2,0:0:0:0:
448,192,105738,1,0,0:0:0:0:
64,192,105795,1,2,0:0:0:0:
192,192,105853,1,0,0:0:0:0:
320,192,105911,1,2,0:0:0:0:
448,192,105968,1,0,0:0:0:0:
64,192,106026,1,2,0:0:0:0:
448,192,106084,1,0,0:0:0:0:
320,192,106141,1,2,0:0:0:0:
192,192,106199,1,0,0:0:0:0:
64,192,106257,1,2,0:0:0:0:
320,192,106314,1,0,0:0:0:0:
64,192,106372,1,2,0:0:0:0:
320,192,106430,1,0,0:0:0:0:
192,192,106488,1,2,0:0:0:0:
448,192,106545,1,0,0:0:0:0:
64,192,106603,1,2,0:0:0:0:
320,192,106661,1,2,0:0:0:0:
64,192,106718,1,2,0:0:0:0:
448,192,106776,1,0,0:0:0:0:
320,192,106834,1,2,0:0:0:0:
192,192,106891,1,0,0:0:0:0:
64,192,106949,1,2,0:0:0:0:
320,192,107007,1,0,0:0:0:0:
192,192,107064,1,2,0:0:0:0:
448,192,107122,1,0,0:0:0:0:
64,192,107180,1,2,0:0:0:0:
320,192,107238,1,0,0:0:0:0:
192,192,107295,1,2,0:0:0:0:
320,192,107353,1,0,0:0:0:0:
64,192,107411,1,2,0:0:0:0:
448,192,107468,1,0,0:0:0:0:
320,192,107526,1,2,0:0:0:0:
192,192,107584,1,0,0:0:0:0:
64,192,107641,1,10,0:0:0:0:
64,192,107872,1,10,0:0:0:0:
64,192,107988,1,10,0:0:0:0:
64,192,108103,1,10,0:0:0:0:
448,192,108103,1,10,0:0:0:0:
64,192,108334,1,10,0:0:0:0:
192,192,108334,1,10,0:0:0:0:
448,192,108564,1,2,0:0:0:0:
192,192,108622,1,0,0:0:0:0:
448,192,108680,1,2,0:0:0:0:
320,192,108738,1,0,0:0:0:0:
192,192,108795,1,2,0:0:0:0:
64,192,108853,1,0,0:0:0:0:
320,192,108911,1,2,0:0:0:0:
64,192,108968,1,0,0:0:0:0:
448,192,109026,1,2,0:0:0:0:
192,192,109084,1,0,0:0:0:0:
448,192,109141,1,2,0:0:0:0:
320,192,109199,1,0,0:0:0:0:
192,192,109257,1,2,0:0:0:0:
64,192,109314,1,0,0:0:0:0:
320,192,109372,1,2,0:0:0:0:
64,192,109430,1,0,0:0:0:0:
448,192,109488,1,2,0:0:0:0:
192,192,109545,1,0,0:0:0:0:
320,192,109603,1,2,0:0:0:0:
192,192,109661,1,0,0:0:0:0:
448,192,109718,1,2,0:0:0:0:
64,192,109776,1,0,0:0:0:0:
320,192,109834,1,2,0:0:0:0:
64,192,109891,1,0,0:0:0:0:
448,192,109949,1,2,0:0:0:0:
320,192,110007,1,0,0:0:0:0:
192,192,110064,1,2,0:0:0:0:
64,192,110122,1,0,0:0:0:0:
192,192,110180,1,2,0:0:0:0:
320,192,110238,1,0,0:0:0:0:
448,192,110295,1,2,0:0:0:0:
64,192,110353,1,2,0:0:0:0:
448,192,110411,1,2,0:0:0:0:
192,192,110526,1,2,0:0:0:0:
320,192,110641,1,2,0:0:0:0:
192,192,110699,1,2,0:0:0:0:
320,192,110757,1,2,0:0:0:0:
192,192,110872,1,2,0:0:0:0:
320,192,110930,1,2,0:0:0:0:
192,192,110988,1,2,0:0:0:0:
320,192,111045,1,2,0:0:0:0:
192,192,111103,1,2,0:0:0:0:
448,192,111449,1,8,0:0:0:0:
64,192,111680,1,8,0:0:0:0:
448,192,111911,1,8,0:0:0:0:
64,192,112141,1,8,0:0:0:0:
448,192,112257,1,6,0:0:0:0:
64,192,112314,1,0,0:0:0:0:
448,192,112372,1,2,0:0:0:0:
320,192,112430,1,0,0:0:0:0:
192,192,112488,1,2,0:0:0:0:
64,192,112545,1,0,0:0:0:0:
448,192,112603,1,2,0:0:0:0:
64,192,112661,1,0,0:0:0:0:
320,192,112718,1,2,0:0:0:0:
192,192,112776,1,0,0:0:0:0:
320,192,112834,1,2,0:0:0:0:
64,192,112891,1,0,0:0:0:0:
448,192,112949,1,2,0:0:0:0:
192,192,113007,1,0,0:0:0:0:
320,192,113064,1,2,0:0:0:0:
192,192,113122,1,0,0:0:0:0:
448,192,113180,1,2,0:0:0:0:
64,192,113238,1,0,0:0:0:0:
320,192,113295,1,2,0:0:0:0:
192,192,113353,1,0,0:0:0:0:
448,192,113411,1,2,0:0:0:0:
64,192,113468,1,0,0:0:0:0:
320,192,113526,1,2,0:0:0:0:
192,192,113584,1,0,0:0:0:0:
448,192,113641,1,2,0:0:0:0:
320,192,113699,1,0,0:0:0:0:
192,192,113757,1,2,0:0:0:0:
64,192,113814,1,0,0:0:0:0:
192,192,113872,1,2,0:0:0:0:
320,192,113930,1,0,0:0:0:0:
448,192,113988,1,2,0:0:0:0:
192,192,114045,1,2,0:0:0:0:
448,192,114103,1,2,0:0:0:0:
64,192,114161,1,0,0:0:0:0:
192,192,114218,1,2,0:0:0:0:
320,192,114276,1,0,0:0:0:0:
448,192,114334,1,2,0:0:0:0:
192,192,114391,1,0,0:0:0:0:
320,192,114449,1,2,0:0:0:0:
192,192,114507,1,0,0:0:0:0:
448,192,114564,1,2,0:0:0:0:
64,192,114622,1,0,0:0:0:0:
448,192,114680,128,2,114795:0:0:0:0:
64,192,114795,1,2,0:0:0:0:
64,192,114911,1,2,0:0:0:0:
320,192,115026,1,2,0:0:0:0:
192,192,115084,1,2,0:0:0:0:
320,192,115141,128,2,115257:0:0:0:0:
64,192,115257,1,2,0:0:0:0:
64,192,115372,1,2,0:0:0:0:
320,192,115488,1,2,0:0:0:0:
192,192,115545,1,2,0:0:0:0:
320,192,115603,128,2,115718:0:0:0:0:
64,192,115718,1,2,0:0:0:0:
448,192,115949,1,2,0:0:0:0:
192,192,116064,1,2,0:0:0:0:
320,192,116180,1,2,0:0:0:0:
64,192,116238,1,2,0:0:0:0:
320,192,116295,1,2,0:0:0:0:
64,192,116353,1,2,0:0:0:0:
448,192,116411,1,2,0:0:0:0:
448,192,116526,1,2,0:0:0:0:
64,192,116641,1,2,0:0:0:0:
320,192,116699,1,2,0:0:0:0:
64,192,116757,1,2,0:0:0:0:
320,192,116814,1,2,0:0:0:0:
192,192,116872,1,2,0:0:0:0:
192,192,116988,1,2,0:0:0:0:
448,192,117103,1,2,0:0:0:0:
192,192,117161,1,2,0:0:0:0:
448,192,117218,1,2,0:0:0:0:
192,192,117276,1,2,0:0:0:0:
320,192,117334,1,2,0:0:0:0:
320,192,117449,1,2,0:0:0:0:
64,192,117564,128,2,117795:0:0:0:0:
448,192,117795,1,2,0:0:0:0:
192,192,118026,1,8,0:0:0:0:
320,192,118141,1,2,0:0:0:0:
320,192,118372,1,8,0:0:0:0:
320,192,118488,1,2,0:0:0:0:
192,192,118488,1,2,0:0:0:0:
320,192,118718,1,2,0:0:0:0:
192,192,118718,1,2,0:0:0:0:
320,192,119064,1,2,0:0:0:0:
192,192,119180,1,2,0:0:0:0:
320,192,119295,1,2,0:0:0:0:
64,192,119411,1,2,0:0:0:0:
448,192,119468,1,2,0:0:0:0:
192,192,119526,1,2,0:0:0:0:
320,192,119584,1,2,0:0:0:0:
64,192,119641,1,6,0:0:0:0:
448,192,119757,1,2,0:0:0:0:
64,192,119872,1,2,0:0:0:0:
448,192,119988,1,2,0:0:0:0:
64,192,120103,1,2,0:0:0:0:
448,192,120218,1,2,0:0:0:0:
64,192,120334,1,2,0:0:0:0:
448,192,120449,1,2,0:0:0:0:
64,192,120564,1,2,0:0:0:0:
448,192,120680,1,2,0:0:0:0:
64,192,120795,1,2,0:0:0:0:
448,192,120911,1,2,0:0:0:0:
64,192,121026,1,2,0:0:0:0:
448,192,121141,1,2,0:0:0:0:
64,192,121257,1,2,0:0:0:0:
448,192,121372,1,2,0:0:0:0:
64,192,121488,1,2,0:0:0:0:
448,192,121603,1,2,0:0:0:0:
64,192,121718,1,2,0:0:0:0:
448,192,121834,1,2,0:0:0:0:
64,192,121949,1,2,0:0:0:0:
448,192,122064,1,2,0:0:0:0:
64,192,122180,1,2,0:0:0:0:
448,192,122295,1,2,0:0:0:0:
64,192,122411,1,2,0:0:0:0:
448,192,122526,1,2,0:0:0:0:
64,192,122641,1,2,0:0:0:0:
448,192,122757,1,2,0:0:0:0:
64,192,122872,1,2,0:0:0:0:
448,192,122988,1,2,0:0:0:0:
64,192,123103,1,2,0:0:0:0:
448,192,123218,1,2,0:0:0:0:
64,192,123334,128,0,123564:0:0:0:0:
320,192,123680,128,0,123911:0:0:0:0:
192,192,124026,128,0,124257:0:0:0:0:
448,192,124372,128,0,124603:0:0:0:0:
64,192,124718,128,0,124949:0:0:0:0:
192,192,124949,128,0,125180:0:0:0:0:
320,192,125180,128,0,125411:0:0:0:0:
192,192,125526,128,0,125757:0:0:0:0:
64,192,125872,128,0,126103:0:0:0:0:
448,192,126218,128,0,126449:0:0:0:0:
320,192,126564,128,0,126795:0:0:0:0:
192,192,126795,128,0,127026:0:0:0:0:
64,192,127026,1,4,0:0:0:0:
448,192,127026,128,0,127257:0:0:0:0:
192,192,127372,128,0,127603:0:0:0:0:
320,192,127718,128,0,127949:0:0:0:0:
64,192,128064,128,0,128295:0:0:0:0:
448,192,128411,128,0,128641:0:0:0:0:
320,192,128641,128,0,128872:0:0:0:0:
192,192,128872,128,0,129103:0:0:0:0:
320,192,129218,128,0,129449:0:0:0:0:
192,192,129564,128,0,129795:0:0:0:0:
64,192,129911,128,0,130141:0:0:0:0:
448,192,130257,128,0,130488:0:0:0:0:
192,192,130488,128,0,130718:0:0:0:0:
320,192,130718,128,0,130949:0:0:0:0:
64,192,131064,128,0,131295:0:0:0:0:
320,192,131411,128,0,131641:0:0:0:0:
192,192,131757,128,0,131988:0:0:0:0:
448,192,132103,128,0,132334:0:0:0:0:
64,192,132334,128,0,132564:0:0:0:0:
320,192,132564,128,0,132795:0:0:0:0:
64,192,132911,128,0,133141:0:0:0:0:
448,192,133257,128,0,133488:0:0:0:0:
192,192,133603,128,0,133834:0:0:0:0:
448,192,133949,128,0,134180:0:0:0:0:
320,192,134180,128,0,134411:0:0:0:0:
448,192,134411,1,4,0:0:0:0:
64,192,134411,1,0,0:0:0:0:
192,192,134526,1,8,0:0:0:0:
192,192,134641,1,8,0:0:0:0:
448,192,134872,1,0,0:0:0:0:
192,192,134988,1,8,0:0:0:0:
192,192,135103,1,8,0:0:0:0:
320,192,135334,1,0,0:0:0:0:
64,192,135449,1,8,0:0:0:0:
64,192,135564,1,8,0:0:0:0:
320,192,135795,1,0,0:0:0:0:
64,192,135911,1,8,0:0:0:0:
64,192,136026,1,8,0:0:0:0:
320,192,136257,1,0,0:0:0:0:
192,192,136372,1,8,0:0:0:0:
192,192,136488,1,8,0:0:0:0:
320,192,136718,1,0,0:0:0:0:
192,192,136834,1,8,0:0:0:0:
192,192,136949,1,8,0:0:0:0:
448,192,137180,1,0,0:0:0:0:
64,192,137295,1,8,0:0:0:0:
64,192,137411,1,8,0:0:0:0:
320,192,137641,1,0,0:0:0:0:
64,192,137757,1,8,0:0:0:0:
64,192,137872,1,8,0:0:0:0:
192,192,138103,1,0,0:0:0:0:
448,192,138218,1,8,0:0:0:0:
448,192,138334,1,8,0:0:0:0:
192,192,138564,1,0,0:0:0:0:
448,192,138680,1,8,0:0:0:0:
448,192,138795,1,8,0:0:0:0:
64,192,139026,1,0,0:0:0:0:
320,192,139141,1,8,0:0:0:0:
320,192,139257,1,8,0:0:0:0:
64,192,139488,1,0,0:0:0:0:
320,192,139603,1,8,0:0:0:0:
320,192,139718,1,8,0:0:0:0:
192,192,139949,1,0,0:0:0:0:
320,192,140064,1,8,0:0:0:0:
320,192,140180,1,8,0:0:0:0:
192,192,140411,1,0,0:0:0:0:
320,192,140526,1,8,0:0:0:0:
320,192,140641,1,8,0:0:0:0:
64,192,140872,1,0,0:0:0:0:
448,192,140988,1,8,0:0:0:0:
448,192,141103,1,8,0:0:0:0:
64,192,141334,1,0,0:0:0:0:
448,192,141449,1,8,0:0:0:0:
448,192,141564,1,8,0:0:0:0:
64,192,141795,1,4,0:0:0:0:
320,192,141795,1,0,0:0:0:0:
320,192,141911,1,8,0:0:0:0:
64,192,142026,1,8,0:0:0:0:
64,192,142257,1,0,0:0:0:0:
320,192,142372,1,8,0:0:0:0:
64,192,142488,1,8,0:0:0:0:
448,192,142718,1,0,0:0:0:0:
192,192,142834,1,8,0:0:0:0:
448,192,142949,1,8,0:0:0:0:
448,192,143180,1,0,0:0:0:0:
192,192,143295,1,8,0:0:0:0:
448,192,143411,1,8,0:0:0:0:
192,192,143641,1,4,0:0:0:0:
320,192,143641,1,0,0:0:0:0:
320,192,143757,1,8,0:0:0:0:
192,192,143872,1,8,0:0:0:0:
192,192,144103,1,0,0:0:0:0:
320,192,144218,1,8,0:0:0:0:
192,192,144334,1,8,0:0:0:0:
448,192,144564,1,0,0:0:0:0:
64,192,144680,1,8,0:0:0:0:
448,192,144795,1,8,0:0:0:0:
448,192,145026,1,0,0:0:0:0:
64,192,145141,1,8,0:0:0:0:
448,192,145257,1,8,0:0:0:0:
64,192,145488,1,4,0:0:0:0:
320,192,145488,1,0,0:0:0:0:
320,192,145603,1,8,0:0:0:0:
64,192,145718,1,8,0:0:0:0:
64,192,145949,1,0,0:0:0:0:
320,192,146064,1,8,0:0:0:0:
64,192,146180,1,8,0:0:0:0:
448,192,146411,1,4,0:0:0:0:
192,192,146411,1,0,0:0:0:0:
192,192,146526,1,8,0:0:0:0:
448,192,146641,1,8,0:0:0:0:
448,192,146872,1,0,0:0:0:0:
192,192,146988,1,8,0:0:0:0:
448,192,147103,1,8,0:0:0:0:
192,192,147334,128,12,148603:0:0:0:0:
320,192,148603,128,0,149180:0:0:0:0:
64,192,149180,1,6,0:0:0:0:
192,192,149238,1,0,0:0:0:0:
320,192,149295,1,0,0:0:0:0:
448,192,149353,1,0,0:0:0:0:
64,192,149411,1,10,0:0:0:0:
192,192,149468,1,0,0:0:0:0:
320,192,149526,1,0,0:0:0:0:
448,192,149584,1,0,0:0:0:0:
64,192,149641,1,2,0:0:0:0:
320,192,149699,1,0,0:0:0:0:
192,192,149757,1,0,0:0:0:0:
448,192,149814,1,0,0:0:0:0:
64,192,149872,1,10,0:0:0:0:
320,192,149930,1,0,0:0:0:0:
192,192,149988,1,0,0:0:0:0:
448,192,150045,1,0,0:0:0:0:
64,192,150103,1,2,0:0:0:0:
192,192,150161,1,0,0:0:0:0:
320,192,150218,1,0,0:0:0:0:
448,192,150276,1,0,0:0:0:0:
64,192,150334,1,10,0:0:0:0:
192,192,150391,1,0,0:0:0:0:
320,192,150449,1,0,0:0:0:0:
448,192,150507,1,0,0:0:0:0:
64,192,150564,1,2,0:0:0:0:
320,192,150622,1,0,0:0:0:0:
64,192,150680,1,0,0:0:0:0:
320,192,150738,1,0,0:0:0:0:
192,192,150795,1,10,0:0:0:0:
448,192,150853,1,0,0:0:0:0:
192,192,150911,1,0,0:0:0:0:
448,192,150968,1,0,0:0:0:0:
64,192,151026,1,2,0:0:0:0:
192,192,151084,1,0,0:0:0:0:
320,192,151141,1,0,0:0:0:0:
448,192,151199,1,0,0:0:0:0:
64,192,151257,1,10,0:0:0:0:
192,192,151314,1,0,0:0:0:0:
320,192,151372,1,0,0:0:0:0:
448,192,151430,1,0,0:0:0:0:
64,192,151488,1,2,0:0:0:0:
320,192,151545,1,0,0:0:0:0:
192,192,151603,1,0,0:0:0:0:
448,192,151661,1,0,0:0:0:0:
64,192,151718,1,10,0:0:0:0:
320,192,151776,1,0,0:0:0:0:
192,192,151834,1,0,0:0:0:0:
448,192,151891,1,0,0:0:0:0:
64,192,151949,1,2,0:0:0:0:
192,192,152007,1,0,0:0:0:0:
320,192,152064,1,0,0:0:0:0:
448,192,152122,1,0,0:0:0:0:
64,192,152180,1,10,0:0:0:0:
192,192,152238,1,0,0:0:0:0:
320,192,152295,1,0,0:0:0:0:
448,192,152353,1,0,0:0:0:0:
192,192,152411,1,2,0:0:0:0:
320,192,152468,1,2,0:0:0:0:
192,192,152526,1,2,0:0:0:0:
320,192,152641,1,10,0:0:0:0:
192,192,152757,1,10,0:0:0:0:
448,192,152872,1,2,0:0:0:0:
320,192,152930,1,0,0:0:0:0:
192,192,152988,1,0,0:0:0:0:
64,192,153045,1,0,0:0:0:0:
448,192,153103,1,10,0:0:0:0:
320,192,153161,1,0,0:0:0:0:
192,192,153218,1,0,0:0:0:0:
64,192,153276,1,0,0:0:0:0:
448,192,153334,1,2,0:0:0:0:
192,192,153391,1,0,0:0:0:0:
320,192,153449,1,0,0:0:0:0:
64,192,153507,1,0,0:0:0:0:
448,192,153564,1,10,0:0:0:0:
192,192,153622,1,0,0:0:0:0:
320,192,153680,1,0,0:0:0:0:
64,192,153738,1,0,0:0:0:0:
448,192,153795,1,2,0:0:0:0:
320,192,153853,1,0,0:0:0:0:
192,192,153911,1,0,0:0:0:0:
64,192,153968,1,0,0:0:0:0:
448,192,154026,1,10,0:0:0:0:
320,192,154084,1,0,0:0:0:0:
192,192,154141,1,0,0:0:0:0:
64,192,154199,1,0,0:0:0:0:
448,192,154257,1,2,0:0:0:0:
192,192,154314,1,0,0:0:0:0:
448,192,154372,1,0,0:0:0:0:
192,192,154430,1,0,0:0:0:0:
320,192,154488,1,10,0:0:0:0:
64,192,154545,1,0,0:0:0:0:
320,192,154603,1,0,0:0:0:0:
64,192,154661,1,0,0:0:0:0:
448,192,154718,1,2,0:0:0:0:
320,192,154776,1,0,0:0:0:0:
192,192,154834,1,0,0:0:0:0:
64,192,154891,1,0,0:0:0:0:
448,192,154949,1,10,0:0:0:0:
320,192,155007,1,0,0:0:0:0:
192,192,155064,1,0,0:0:0:0:
64,192,155122,1,0,0:0:0:0:
448,192,155180,1,2,0:0:0:0:
192,192,155238,1,0,0:0:0:0:
320,192,155295,1,0,0:0:0:0:
64,192,155353,1,0,0:0:0:0:
448,192,155411,1,10,0:0:0:0:
192,192,155468,1,0,0:0:0:0:
320,192,155526,1,0,0:0:0:0:
64,192,155584,1,0,0:0:0:0:
448,192,155641,1,2,0:0:0:0:
192,192,155699,1,0,0:0:0:0:
448,192,155757,1,2,0:0:0:0:
192,192,155814,1,0,0:0:0:0:
320,192,155872,128,10,156103:0:0:0:0:
64,192,156103,1,2,0:0:0:0:
448,192,156334,1,2,0:0:0:0:
192,192,156449,1,2,0:0:0:0:
448,192,156564,1,6,0:0:0:0:
320,192,156622,1,0,0:0:0:0:
192,192,156680,1,0,0:0:0:0:
64,192,156738,1,0,0:0:0:0:
448,192,156795,1,10,0:0:0:0:
320,192,156853,1,0,0:0:0:0:
192,192,156911,1,0,0:0:0:0:
64,192,156968,1,0,0:0:0:0:
448,192,157026,1,2,0:0:0:0:
192,192,157084,1,0,0:0:0:0:
320,192,157141,1,0,0:0:0:0:
64,192,157199,1,0,0:0:0:0:
320,192,157257,1,10,0:0:0:0:
192,192,157314,1,0,0:0:0:0:
448,192,157372,1,0,0:0:0:0:
192,192,157430,1,0,0:0:0:0:
320,192,157488,1,2,0:0:0:0:
64,192,157545,1,0,0:0:0:0:
192,192,157603,1,0,0:0:0:0:
320,192,157661,1,0,0:0:0:0:
448,192,157718,1,10,0:0:0:0:
320,192,157776,1,0,0:0:0:0:
192,192,157834,1,0,0:0:0:0:
64,192,157891,1,0,0:0:0:0:
448,192,157949,1,2,0:0:0:0:
320,192,158007,1,0,0:0:0:0:
448,192,158064,1,0,0:0:0:0:
320,192,158122,1,0,0:0:0:0:
192,192,158180,1,10,0:0:0:0:
64,192,158238,1,0,0:0:0:0:
192,192,158295,1,0,0:0:0:0:
64,192,158353,1,0,0:0:0:0:
448,192,158411,1,2,0:0:0:0:
320,192,158468,1,0,0:0:0:0:
192,192,158526,1,0,0:0:0:0:
64,192,158584,1,0,0:0:0:0:
448,192,158641,1,10,0:0:0:0:
320,192,158699,1,0,0:0:0:0:
192,192,158757,1,0,0:0:0:0:
64,192,158814,1,0,0:0:0:0:
448,192,158872,1,2,0:0:0:0:
192,192,158930,1,0,0:0:0:0:
320,192,158988,1,0,0:0:0:0:
64,192,159045,1,0,0:0:0:0:
320,192,159103,1,10,0:0:0:0:
192,192,159161,1,0,0:0:0:0:
448,192,159218,1,0,0:0:0:0:
192,192,159276,1,0,0:0:0:0:
320,192,159334,1,2,0:0:0:0:
64,192,159391,1,2,0:0:0:0:
320,192,159449,1,2,0:0:0:0:
64,192,159564,1,10,0:0:0:0:
64,192,159680,1,2,0:0:0:0:
448,192,159795,1,2,0:0:0:0:
192,192,159853,1,2,0:0:0:0:
448,192,159911,1,2,0:0:0:0:
64,192,160026,1,2,0:0:0:0:
320,192,160084,1,2,0:0:0:0:
64,192,160141,1,2,0:0:0:0:
320,192,160199,1,2,0:0:0:0:
64,192,160257,1,2,0:0:0:0:
192,192,160314,1,0,0:0:0:0:
320,192,160372,1,0,0:0:0:0:
448,192,160430,1,0,0:0:0:0:
64,192,160488,1,10,0:0:0:0:
192,192,160545,1,0,0:0:0:0:
320,192,160603,1,0,0:0:0:0:
448,192,160661,1,0,0:0:0:0:
64,192,160718,1,2,0:0:0:0:
320,192,160776,1,0,0:0:0:0:
192,192,160834,1,0,0:0:0:0:
448,192,160891,1,0,0:0:0:0:
192,192,160949,1,10,0:0:0:0:
320,192,161007,1,0,0:0:0:0:
64,192,161064,1,0,0:0:0:0:
320,192,161122,1,0,0:0:0:0:
192,192,161180,1,2,0:0:0:0:
448,192,161238,1,0,0:0:0:0:
320,192,161295,1,0,0:0:0:0:
192,192,161353,1,0,0:0:0:0:
64,192,161411,1,10,0:0:0:0:
192,192,161468,1,0,0:0:0:0:
320,192,161526,1,0,0:0:0:0:
448,192,161584,1,0,0:0:0:0:
64,192,161641,1,2,0:0:0:0:
192,192,161699,1,0,0:0:0:0:
64,192,161757,1,0,0:0:0:0:
192,192,161814,1,0,0:0:0:0:
320,192,161872,1,10,0:0:0:0:
448,192,161930,1,0,0:0:0:0:
320,192,161988,1,0,0:0:0:0:
448,192,162045,1,0,0:0:0:0:
64,192,162103,128,2,162334:0:0:0:0:
320,192,162334,1,10,0:0:0:0:
320,192,162449,1,2,0:0:0:0:
192,192,162564,128,2,162795:0:0:0:0:
320,192,162795,1,10,0:0:0:0:
320,192,162911,1,10,0:0:0:0:
448,192,163141,1,0,0:0:0:0:
448,192,163372,1,0,0:0:0:0:
448,192,163603,1,0,0:0:0:0:
320,192,163718,1,2,0:0:0:0:
192,192,163834,1,2,0:0:0:0:
64,192,163949,1,6,0:0:0:0:
320,192,164007,1,0,0:0:0:0:
192,192,164064,1,0,0:0:0:0:
320,192,164122,1,0,0:0:0:0:
64,192,164180,1,10,0:0:0:0:
448,192,164238,1,0,0:0:0:0:
192,192,164295,1,0,0:0:0:0:
448,192,164353,1,0,0:0:0:0:
64,192,164411,1,2,0:0:0:0:
192,192,164468,1,0,0:0:0:0:
320,192,164526,1,0,0:0:0:0:
192,192,164584,1,0,0:0:0:0:
64,192,164641,1,10,0:0:0:0:
448,192,164699,1,0,0:0:0:0:
320,192,164757,1,0,0:0:0:0:
192,192,164814,1,0,0:0:0:0:
64,192,164872,1,2,0:0:0:0:
448,192,164930,1,0,0:0:0:0:
64,192,164988,1,0,0:0:0:0:
320,192,165045,1,0,0:0:0:0:
192,192,165103,1,10,0:0:0:0:
448,192,165161,1,0,0:0:0:0:
320,192,165218,1,0,0:0:0:0:
192,192,165276,1,0,0:0:0:0:
64,192,165334,1,2,0:0:0:0:
320,192,165391,1,0,0:0:0:0:
64,192,165449,1,0,0:0:0:0:
320,192,165507,1,0,0:0:0:0:
192,192,165564,1,10,0:0:0:0:
448,192,165622,1,0,0:0:0:0:
192,192,165680,1,0,0:0:0:0:
448,192,165738,1,0,0:0:0:0:
64,192,165795,1,2,0:0:0:0:
320,192,165853,1,0,0:0:0:0:
192,192,165911,1,0,0:0:0:0:
320,192,165968,1,0,0:0:0:0:
64,192,166026,1,10,0:0:0:0:
448,192,166084,1,0,0:0:0:0:
192,192,166141,1,0,0:0:0:0:
448,192,166199,1,0,0:0:0:0:
64,192,166257,1,2,0:0:0:0:
192,192,166314,1,0,0:0:0:0:
320,192,166372,1,0,0:0:0:0:
192,192,166430,1,0,0:0:0:0:
64,192,166488,1,10,0:0:0:0:
448,192,166545,1,0,0:0:0:0:
320,192,166603,1,0,0:0:0:0:
192,192,166661,1,0,0:0:0:0:
64,192,166718,1,2,0:0:0:0:
448,192,166776,1,0,0:0:0:0:
64,192,166834,1,0,0:0:0:0:
320,192,166891,1,0,0:0:0:0:
192,192,166949,1,10,0:0:0:0:
448,192,167007,1,0,0:0:0:0:
320,192,167064,1,0,0:0:0:0:
448,192,167122,1,0,0:0:0:0:
64,192,167180,1,2,0:0:0:0:
320,192,167238,1,2,0:0:0:0:
64,192,167295,1,2,0:0:0:0:
448,192,167353,1,0,0:0:0:0:
192,192,167411,1,10,0:0:0:0:
320,192,167468,1,0,0:0:0:0:
192,192,167526,1,2,0:0:0:0:
448,192,167584,1,0,0:0:0:0:
64,192,167641,1,2,0:0:0:0:
192,192,167699,1,0,0:0:0:0:
320,192,167757,1,0,0:0:0:0:
448,192,167814,1,0,0:0:0:0:
192,192,167872,1,10,0:0:0:0:
320,192,167930,1,0,0:0:0:0:
64,192,167988,1,0,0:0:0:0:
448,192,168045,1,0,0:0:0:0:
320,192,168103,1,2,0:0:0:0:
192,192,168161,1,0,0:0:0:0:
64,192,168218,1,0,0:0:0:0:
448,192,168276,1,0,0:0:0:0:
192,192,168334,1,10,0:0:0:0:
448,192,168391,1,0,0:0:0:0:
64,192,168449,1,0,0:0:0:0:
320,192,168507,1,0,0:0:0:0:
64,192,168564,1,2,0:0:0:0:
192,192,168622,1,0,0:0:0:0:
320,192,168680,1,0,0:0:0:0:
448,192,168738,1,0,0:0:0:0:
64,192,168795,1,10,0:0:0:0:
320,192,168853,1,0,0:0:0:0:
192,192,168911,1,0,0:0:0:0:
448,192,168968,1,0,0:0:0:0:
64,192,169026,1,2,0:0:0:0:
192,192,169084,1,0,0:0:0:0:
64,192,169141,1,0,0:0:0:0:
192,192,169199,1,0,0:0:0:0:
320,192,169257,1,10,0:0:0:0:
448,192,169314,1,0,0:0:0:0:
320,192,169372,1,0,0:0:0:0:
448,192,169430,1,0,0:0:0:0:
64,192,169488,1,2,0:0:0:0:
192,192,169545,1,0,0:0:0:0:
64,192,169603,1,2,0:0:0:0:
320,192,169661,1,0,0:0:0:0:
64,192,169718,1,2,0:0:0:0:
192,192,169776,1,0,0:0:0:0:
320,192,169834,1,0,0:0:0:0:
448,192,169891,1,0,0:0:0:0:
64,192,169949,1,2,0:0:0:0:
192,192,170064,1,0,0:0:0:0:
320,192,170180,1,8,0:0:0:0:
448,192,170295,1,8,0:0:0:0:
64,192,170411,128,2,170526:0:0:0:0:
64,192,170757,128,2,170872:0:0:0:0:
320,192,170757,1,2,0:0:0:0:
64,192,171103,128,2,171218:0:0:0:0:
320,192,171103,1,2,0:0:0:0:
448,192,171334,1,6,0:0:0:0:
192,192,171391,1,0,0:0:0:0:
320,192,171449,1,0,0:0:0:0:
192,192,171507,1,0,0:0:0:0:
448,192,171564,1,10,0:0:0:0:
64,192,171622,1,0,0:0:0:0:
320,192,171680,1,0,0:0:0:0:
64,192,171738,1,0,0:0:0:0:
448,192,171795,1,2,0:0:0:0:
320,192,171853,1,0,0:0:0:0:
192,192,171911,1,0,0:0:0:0:
320,192,171968,1,0,0:0:0:0:
448,192,172026,1,10,0:0:0:0:
64,192,172084,1,0,0:0:0:0:
192,192,172141,1,0,0:0:0:0:
320,192,172199,1,0,0:0:0:0:
448,192,172257,1,2,0:0:0:0:
64,192,172314,1,0,0:0:0:0:
448,192,172372,1,0,0:0:0:0:
192,192,172430,1,0,0:0:0:0:
320,192,172488,1,10,0:0:0:0:
64,192,172545,1,0,0:0:0:0:
192,192,172603,1,0,0:0:0:0:
320,192,172661,1,0,0:0:0:0:
448,192,172718,1,8,0:0:0:0:
192,192,172776,1,0,0:0:0:0:
448,192,172834,1,0,0:0:0:0:
192,192,172891,1,0,0:0:0:0:
320,192,172949,1,10,0:0:0:0:
64,192,173007,1,0,0:0:0:0:
320,192,173064,1,2,0:0:0:0:
64,192,173122,1,0,0:0:0:0:
448,192,173180,1,2,0:0:0:0:
192,192,173238,1,0,0:0:0:0:
320,192,173295,1,0,0:0:0:0:
192,192,173353,1,0,0:0:0:0:
448,192,173411,1,10,0:0:0:0:
64,192,173468,1,0,0:0:0:0:
320,192,173526,1,0,0:0:0:0:
64,192,173584,1,0,0:0:0:0:
448,192,173641,1,2,0:0:0:0:
320,192,173699,1,0,0:0:0:0:
192,192,173757,1,0,0:0:0:0:
320,192,173814,1,0,0:0:0:0:
448,192,173872,1,10,0:0:0:0:
64,192,173930,1,0,0:0:0:0:
192,192,173988,1,0,0:0:0:0:
320,192,174045,1,0,0:0:0:0:
448,192,174103,1,2,0:0:0:0:
64,192,174161,1,0,0:0:0:0:
448,192,174218,1,0,0:0:0:0:
192,192,174276,1,0,0:0:0:0:
320,192,174334,1,10,0:0:0:0:
64,192,174391,1,0,0:0:0:0:
192,192,174449,1,0,0:0:0:0:
64,192,174507,1,0,0:0:0:0:
448,192,174564,1,2,0:0:0:0:
192,192,174622,1,2,0:0:0:0:
448,192,174680,1,2,0:0:0:0:
64,192,174738,1,0,0:0:0:0:
320,192,174795,1,10,0:0:0:0:
192,192,174853,1,0,0:0:0:0:
320,192,174911,1,2,0:0:0:0:
64,192,174968,1,0,0:0:0:0:
448,192,175026,1,2,0:0:0:0:
192,192,175084,1,0,0:0:0:0:
448,192,175141,1,2,0:0:0:0:
192,192,175199,1,0,0:0:0:0:
448,192,175257,1,10,0:0:0:0:
320,192,175314,1,0,0:0:0:0:
192,192,175372,1,0,0:0:0:0:
64,192,175430,1,0,0:0:0:0:
448,192,175488,1,2,0:0:0:0:
192,192,175545,1,0,0:0:0:0:
320,192,175603,1,0,0:0:0:0:
64,192,175661,1,0,0:0:0:0:
320,192,175718,1,10,0:0:0:0:
192,192,175776,1,0,0:0:0:0:
448,192,175834,1,0,0:0:0:0:
192,192,175891,1,0,0:0:0:0:
320,192,175949,1,2,0:0:0:0:
64,192,176007,1,0,0:0:0:0:
192,192,176064,1,0,0:0:0:0:
320,192,176122,1,0,0:0:0:0:
448,192,176180,1,10,0:0:0:0:
320,192,176238,1,0,0:0:0:0:
192,192,176295,1,0,0:0:0:0:
64,192,176353,1,0,0:0:0:0:
448,192,176411,1,2,0:0:0:0:
192,192,176468,1,0,0:0:0:0:
320,192,176526,1,0,0:0:0:0:
192,192,176584,1,0,0:0:0:0:
448,192,176641,1,10,0:0:0:0:
64,192,176699,1,0,0:0:0:0:
320,192,176757,1,0,0:0:0:0:
192,192,176814,1,0,0:0:0:0:
448,192,176872,1,2,0:0:0:0:
64,192,176930,1,0,0:0:0:0:
320,192,176988,1,10,0:0:0:0:
192,192,177045,1,0,0:0:0:0:
448,192,177103,1,2,0:0:0:0:
64,192,177161,1,0,0:0:0:0:
320,192,177218,1,10,0:0:0:0:
192,192,177276,1,10,0:0:0:0:
320,192,177334,1,10,0:0:0:0:
192,192,177449,128,0,177795:0:0:0:0:
448,192,177795,128,2,177911:0:0:0:0:
448,192,178026,1,8,0:0:0:0:
448,192,178141,1,8,0:0:0:0:
64,192,178257,1,0,0:0:0:0:
320,192,178488,1,2,0:0:0:0:
64,192,178718,1,6,0:0:0:0:
320,192,178776,1,0,0:0:0:0:
64,192,178834,1,2,0:0:0:0:
192,192,178891,1,0,0:0:0:0:
320,192,178949,1,2,0:0:0:0:
448,192,179007,1,0,0:0:0:0:
192,192,179064,1,2,0:0:0:0:
448,192,179122,1,0,0:0:0:0:
64,192,179180,1,2,0:0:0:0:
320,192,179238,1,2,0:0:0:0:
64,192,179295,1,2,0:0:0:0:
192,192,179353,1,0,0:0:0:0:
320,192,179411,1,2,0:0:0:0:
448,192,179468,1,0,0:0:0:0:
192,192,179526,1,2,0:0:0:0:
448,192,179584,1,0,0:0:0:0:
64,192,179641,1,2,0:0:0:0:
320,192,179699,1,0,0:0:0:0:
192,192,179757,1,2,0:0:0:0:
448,192,179814,1,0,0:0:0:0:
192,192,179872,1,2,0:0:0:0:
320,192,179930,1,0,0:0:0:0:
64,192,179988,1,2,0:0:0:0:
448,192,180045,1,0,0:0:0:0:
64,192,180103,1,2,0:0:0:0:
320,192,180161,1,0,0:0:0:0:
192,192,180218,1,2,0:0:0:0:
448,192,180276,1,0,0:0:0:0:
320,192,180334,1,2,0:0:0:0:
448,192,180391,1,0,0:0:0:0:
192,192,180449,1,2,0:0:0:0:
320,192,180507,1,2,0:0:0:0:
64,192,180564,1,2,0:0:0:0:
448,192,180622,1,0,0:0:0:0:
192,192,180680,1,2,0:0:0:0:
448,192,180738,1,0,0:0:0:0:
64,192,180795,1,2,0:0:0:0:
320,192,180853,1,0,0:0:0:0:
64,192,180911,1,2,0:0:0:0:
448,192,180968,1,0,0:0:0:0:
192,192,181026,1,2,0:0:0:0:
320,192,181084,1,0,0:0:0:0:
64,192,181141,1,2,0:0:0:0:
320,192,181199,1,0,0:0:0:0:
192,192,181257,1,2,0:0:0:0:
448,192,181314,1,0,0:0:0:0:
64,192,181372,1,2,0:0:0:0:
320,192,181430,1,0,0:0:0:0:
64,192,181488,1,2,0:0:0:0:
192,192,181545,1,0,0:0:0:0:
320,192,181603,1,2,0:0:0:0:
448,192,181661,1,0,0:0:0:0:
192,192,181718,1,2,0:0:0:0:
320,192,181776,1,0,0:0:0:0:
64,192,181834,1,2,0:0:0:0:
192,192,181891,1,0,0:0:0:0:
320,192,181949,1,2,0:0:0:0:
448,192,182007,1,0,0:0:0:0:
64,192,182064,1,2,0:0:0:0:
448,192,182122,1,0,0:0:0:0:
320,192,182180,1,2,0:0:0:0:
192,192,182238,1,2,0:0:0:0:
320,192,182295,1,2,0:0:0:0:
192,192,182353,1,2,0:0:0:0:
64,192,182411,1,2,0:0:0:0:
320,192,182468,1,0,0:0:0:0:
64,192,182526,1,2,0:0:0:0:
448,192,182584,1,0,0:0:0:0:
192,192,182641,1,2,0:0:0:0:
448,192,182699,1,0,0:0:0:0:
64,192,182757,1,2,0:0:0:0:
320,192,182814,1,0,0:0:0:0:
192,192,182872,1,2,0:0:0:0:
448,192,182930,1,0,0:0:0:0:
64,192,182988,1,2,0:0:0:0:
320,192,183045,1,0,0:0:0:0:
192,192,183103,1,2,0:0:0:0:
320,192,183161,1,0,0:0:0:0:
64,192,183218,1,2,0:0:0:0:
448,192,183276,1,0,0:0:0:0:
192,192,183334,1,2,0:0:0:0:
320,192,183391,1,0,0:0:0:0:
64,192,183449,1,2,0:0:0:0:
192,192,183507,1,0,0:0:0:0:
320,192,183564,1,2,0:0:0:0:
448,192,183622,1,0,0:0:0:0:
192,192,183680,1,2,0:0:0:0:
320,192,183738,1,0,0:0:0:0:
64,192,183795,1,2,0:0:0:0:
320,192,183853,1,0,0:0:0:0:
192,192,183911,1,2,0:0:0:0:
448,192,183968,1,0,0:0:0:0:
64,192,184026,1,2,0:0:0:0:
320,192,184084,1,0,0:0:0:0:
192,192,184141,1,2,0:0:0:0:
448,192,184199,1,2,0:0:0:0:
192,192,184257,1,2,0:0:0:0:
320,192,184314,1,0,0:0:0:0:
64,192,184372,1,2,0:0:0:0:
192,192,184430,1,0,0:0:0:0:
320,192,184488,1,2,0:0:0:0:
448,192,184545,1,0,0:0:0:0:
192,192,184603,1,2,0:0:0:0:
320,192,184661,1,0,0:0:0:0:
64,192,184718,1,2,0:0:0:0:
448,192,184776,1,2,0:0:0:0:
64,192,184834,1,2,0:0:0:0:
320,192,184891,1,0,0:0:0:0:
192,192,184949,1,2,0:0:0:0:
448,192,185007,1,2,0:0:0:0:
192,192,185064,1,2,0:0:0:0:
320,192,185122,1,0,0:0:0:0:
64,192,185180,1,8,0:0:0:0:
192,192,185238,1,8,0:0:0:0:
64,192,185295,1,8,0:0:0:0:
192,192,185353,1,8,0:0:0:0:
320,192,185411,1,8,0:0:0:0:
448,192,185468,1,8,0:0:0:0:
320,192,185526,1,8,0:0:0:0:
448,192,185584,1,8,0:0:0:0:
64,192,185641,1,8,0:0:0:0:
320,192,185699,1,0,0:0:0:0:
64,192,185757,1,0,0:0:0:0:
320,192,185814,1,0,0:0:0:0:
192,192,185872,1,0,0:0:0:0:
448,192,185930,1,0,0:0:0:0:
192,192,185988,1,0,0:0:0:0:
448,192,186045,1,0,0:0:0:0:
64,192,186103,1,6,0:0:0:0:
320,192,186161,1,0,0:0:0:0:
64,192,186218,1,2,0:0:0:0:
192,192,186276,1,0,0:0:0:0:
320,192,186334,1,2,0:0:0:0:
448,192,186391,1,0,0:0:0:0:
192,192,186449,1,2,0:0:0:0:
448,192,186507,1,0,0:0:0:0:
64,192,186564,1,2,0:0:0:0:
192,192,186622,1,0,0:0:0:0:
64,192,186680,1,2,0:0:0:0:
320,192,186738,1,0,0:0:0:0:
192,192,186795,1,2,0:0:0:0:
448,192,186853,1,0,0:0:0:0:
320,192,186911,1,2,0:0:0:0:
448,192,186968,1,0,0:0:0:0:
64,192,187026,1,2,0:0:0:0:
192,192,187084,1,0,0:0:0:0:
320,192,187141,1,2,0:0:0:0:
192,192,187199,1,0,0:0:0:0:
64,192,187257,1,2,0:0:0:0:
448,192,187314,1,0,0:0:0:0:
320,192,187372,1,2,0:0:0:0:
192,192,187430,1,0,0:0:0:0:
64,192,187488,1,2,0:0:0:0:
448,192,187545,1,0,0:0:0:0:
192,192,187603,1,2,0:0:0:0:
320,192,187661,1,0,0:0:0:0:
64,192,187718,1,2,0:0:0:0:
320,192,187776,1,0,0:0:0:0:
192,192,187834,1,2,0:0:0:0:
448,192,187891,1,2,0:0:0:0:
64,192,187949,1,2,0:0:0:0:
192,192,188007,1,0,0:0:0:0:
320,192,188064,1,2,0:0:0:0:
448,192,188122,1,0,0:0:0:0:
192,192,188180,1,2,0:0:0:0:
320,192,188238,1,0,0:0:0:0:
64,192,188295,1,2,0:0:0:0:
192,192,188353,1,0,0:0:0:0:
64,192,188411,1,2,0:0:0:0:
448,192,188468,1,0,0:0:0:0:
192,192,188526,1,2,0:0:0:0:
320,192,188584,1,0,0:0:0:0:
64,192,188641,1,2,0:0:0:0:
320,192,188699,1,0,0:0:0:0:
192,192,188757,1,2,0:0:0:0:
448,192,188814,1,0,0:0:0:0:
64,192,188872,1,2,0:0:0:0:
320,192,188930,1,0,0:0:0:0:
192,192,188988,1,2,0:0:0:0:
320,192,189045,1,0,0:0:0:0:
64,192,189103,1,2,0:0:0:0:
448,192,189161,1,0,0:0:0:0:
192,192,189218,1,2,0:0:0:0:
448,192,189276,1,0,0:0:0:0:
320,192,189334,1,2,0:0:0:0:
192,192,189391,1,0,0:0:0:0:
64,192,189449,1,2,0:0:0:0:
448,192,189507,1,2,0:0:0:0:
64,192,189564,1,2,0:0:0:0:
192,192,189622,1,2,0:0:0:0:
320,192,189680,1,2,0:0:0:0:
448,192,189738,1,0,0:0:0:0:
64,192,189795,1,2,0:0:0:0:
192,192,189853,1,0,0:0:0:0:
64,192,189911,1,2,0:0:0:0:
448,192,189968,1,0,0:0:0:0:
192,192,190026,1,2,0:0:0:0:
448,192,190084,1,0,0:0:0:0:
64,192,190141,1,2,0:0:0:0:
320,192,190199,1,0,0:0:0:0:
64,192,190257,1,2,0:0:0:0:
448,192,190314,1,0,0:0:0:0:
320,192,190372,1,2,0:0:0:0:
192,192,190430,1,0,0:0:0:0:
64,192,190488,1,2,0:0:0:0:
320,192,190545,1,0,0:0:0:0:
192,192,190603,1,2,0:0:0:0:
448,192,190661,1,0,0:0:0:0:
64,192,190718,1,2,0:0:0:0:
320,192,190776,1,0,0:0:0:0:
64,192,190834,1,2,0:0:0:0:
448,192,190891,1,0,0:0:0:0:
320,192,190949,1,2,0:0:0:0:
448,192,191007,1,0,0:0:0:0:
64,192,191064,5,2,0:0:0:0:
192,192,191122,1,0,0:0:0:0:
64,192,191180,1,2,0:0:0:0:
320,192,191238,1,0,0:0:0:0:
192,192,191295,1,2,0:0:0:0:
448,192,191353,1,0,0:0:0:0:
192,192,191411,1,2,0:0:0:0:
320,192,191468,1,0,0:0:0:0:
64,192,191526,1,2,0:0:0:0:
192,192,191584,1,0,0:0:0:0:
64,192,191641,1,2,0:0:0:0:
448,192,191699,1,0,0:0:0:0:
320,192,191757,1,0,0:0:0:0:
192,192,191814,1,0,0:0:0:0:
64,192,191872,1,0,0:0:0:0:
448,192,191930,1,0,0:0:0:0:
320,192,191988,1,0,0:0:0:0:
192,192,192045,1,0,0:0:0:0:
64,192,192103,1,8,0:0:0:0:
448,192,192161,1,8,0:0:0:0:
320,192,192218,1,8,0:0:0:0:
192,192,192276,1,8,0:0:0:0:
64,192,192334,1,8,0:0:0:0:
448,192,192391,1,8,0:0:0:0:
64,192,192449,1,8,0:0:0:0:
448,192,192507,1,8,0:0:0:0:
192,192,192564,1,0,0:0:0:0:
192,192,192795,1,0,0:0:0:0:
192,192,192911,1,0,0:0:0:0:
64,192,193026,1,2,0:0:0:0:
448,192,193026,1,2,0:0:0:0:
320,192,193257,1,0,0:0:0:0:
64,192,193488,1,6,0:0:0:0:
192,192,193545,1,0,0:0:0:0:
320,192,193603,1,2,0:0:0:0:
448,192,193661,1,0,0:0:0:0:
192,192,193718,1,2,0:0:0:0:
320,192,193776,1,0,0:0:0:0:
64,192,193834,1,2,0:0:0:0:
192,192,193891,1,0,0:0:0:0:
320,192,193949,1,2,0:0:0:0:
448,192,194007,1,0,0:0:0:0:
192,192,194064,1,2,0:0:0:0:
448,192,194122,1,0,0:0:0:0:
320,192,194180,1,2,0:0:0:0:
192,192,194238,1,0,0:0:0:0:
64,192,194295,1,2,0:0:0:0:
320,192,194353,1,0,0:0:0:0:
64,192,194411,1,2,0:0:0:0:
448,192,194468,1,0,0:0:0:0:
320,192,194526,1,2,0:0:0:0:
448,192,194584,1,0,0:0:0:0:
192,192,194641,1,2,0:0:0:0:
320,192,194699,1,0,0:0:0:0:
64,192,194757,1,2,0:0:0:0:
192,192,194814,1,0,0:0:0:0:
64,192,194872,1,2,0:0:0:0:
320,192,194930,1,0,0:0:0:0:
192,192,194988,1,2,0:0:0:0:
448,192,195045,1,0,0:0:0:0:
320,192,195103,1,2,0:0:0:0:
192,192,195161,1,0,0:0:0:0:
64,192,195218,1,2,0:0:0:0:
448,192,195276,1,2,0:0:0:0:
64,192,195334,1,2,0:0:0:0:
320,192,195391,1,0,0:0:0:0:
192,192,195449,1,2,0:0:0:0:
320,192,195507,1,0,0:0:0:0:
64,192,195564,1,2,0:0:0:0:
192,192,195622,1,0,0:0:0:0:
320,192,195680,1,2,0:0:0:0:
448,192,195738,1,0,0:0:0:0:
64,192,195795,1,2,0:0:0:0:
448,192,195853,1,0,0:0:0:0:
320,192,195911,1,2,0:0:0:0:
192,192,195968,1,0,0:0:0:0:
64,192,196026,1,2,0:0:0:0:
320,192,196084,1,0,0:0:0:0:
192,192,196141,1,2,0:0:0:0:
448,192,196199,1,0,0:0:0:0:
64,192,196257,1,2,0:0:0:0:
192,192,196314,1,0,0:0:0:0:
320,192,196372,1,2,0:0:0:0:
448,192,196430,1,0,0:0:0:0:
64,192,196488,1,0,0:0:0:0:
320,192,196545,1,0,0:0:0:0:
64,192,196603,1,2,0:0:0:0:
448,192,196661,1,0,0:0:0:0:
320,192,196718,1,2,0:0:0:0:
192,192,196776,1,0,0:0:0:0:
64,192,196834,1,2,0:0:0:0:
448,192,196891,1,0,0:0:0:0:
192,192,196949,1,2,0:0:0:0:
320,192,197007,1,2,0:0:0:0:
192,192,197064,1,2,0:0:0:0:
320,192,197122,1,2,0:0:0:0:
64,192,197180,1,2,0:0:0:0:
192,192,197238,1,0,0:0:0:0:
64,192,197295,1,2,0:0:0:0:
320,192,197353,1,0,0:0:0:0:
64,192,197411,1,2,0:0:0:0:
448,192,197468,1,0,0:0:0:0:
192,192,197526,1,2,0:0:0:0:
448,192,197584,1,0,0:0:0:0:
320,192,197641,1,2,0:0:0:0:
448,192,197699,1,0,0:0:0:0:
192,192,197757,1,2,0:0:0:0:
320,192,197814,1,0,0:0:0:0:
64,192,197872,1,2,0:0:0:0:
320,192,197930,1,0,0:0:0:0:
192,192,197988,1,2,0:0:0:0:
448,192,198045,1,0,0:0:0:0:
64,192,198103,1,2,0:0:0:0:
192,192,198161,1,0,0:0:0:0:
320,192,198218,1,2,0:0:0:0:
448,192,198276,1,0,0:0:0:0:
192,192,198334,1,2,0:0:0:0:
320,192,198391,1,0,0:0:0:0:
64,192,198449,5,2,0:0:0:0:
320,192,198507,1,0,0:0:0:0:
192,192,198564,1,2,0:0:0:0:
448,192,198622,1,0,0:0:0:0:
320,192,198680,1,2,0:0:0:0:
192,192,198738,1,0,0:0:0:0:
64,192,198795,1,2,0:0:0:0:
320,192,198853,1,0,0:0:0:0:
192,192,198911,1,2,0:0:0:0:
448,192,198968,1,0,0:0:0:0:
64,192,199026,128,6,199199:0:0:0:0:
320,192,199026,1,0,0:0:0:0:
64,192,199257,128,6,199430:0:0:0:0:
320,192,199257,1,0,0:0:0:0:
64,192,199488,128,6,199661:0:0:0:0:
320,192,199488,1,0,0:0:0:0:
64,192,199718,128,6,199891:0:0:0:0:
320,192,199718,1,0,0:0:0:0:
448,192,199949,128,8,200411:0:0:0:0:
192,192,199949,1,0,0:0:0:0:
192,192,200064,1,0,0:0:0:0:
320,192,200180,1,0,0:0:0:0:
320,192,200295,1,0,0:0:0:0:
64,192,200411,1,0,0:0:0:0:
320,192,200526,1,10,0:0:0:0:
320,192,200641,1,10,0:0:0:0:
320,192,200757,1,10,0:0:0:0:
64,192,200872,1,2,0:0:0:0:
448,192,200930,1,0,0:0:0:0:
192,192,200988,1,0,0:0:0:0:
320,192,201045,1,0,0:0:0:0:
64,192,201103,1,2,0:0:0:0:
448,192,201161,1,0,0:0:0:0:
192,192,201218,1,0,0:0:0:0:
320,192,201276,1,0,0:0:0:0:
64,192,201334,1,2,0:0:0:0:
448,192,201391,1,2,0:0:0:0:
64,192,201449,1,2,0:0:0:0:
448,192,201507,1,2,0:0:0:0:
192,192,201564,1,2,0:0:0:0:
192,192,201680,1,2,0:0:0:0:
320,192,201795,1,2,0:0:0:0:
320,192,201911,1,0,0:0:0:0:
64,192,202026,1,0,0:0:0:0:
320,192,202141,1,0,0:0:0:0:
192,192,202257,1,0,0:0:0:0:
448,192,202372,1,2,0:0:0:0:
64,192,202488,1,2,0:0:0:0:
192,192,202545,1,0,0:0:0:0:
320,192,202603,1,0,0:0:0:0:
448,192,202661,1,0,0:0:0:0:
64,192,202718,1,2,0:0:0:0:
320,192,202776,1,2,0:0:0:0:
64,192,202834,1,2,0:0:0:0:
320,192,202891,1,2,0:0:0:0:
192,192,202949,1,2,0:0:0:0:
192,192,203064,1,2,0:0:0:0:
448,192,203180,1,0,0:0:0:0:
64,192,203295,128,0,203411:0:0:0:0:
320,192,203411,1,2,0:0:0:0:
192,192,203526,1,2,0:0:0:0:
320,192,203641,1,2,0:0:0:0:
64,192,203699,1,0,0:0:0:0:
448,192,203757,1,0,0:0:0:0:
192,192,203814,1,0,0:0:0:0:
320,192,203872,1,0,0:0:0:0:
64,192,203930,1,0,0:0:0:0:
448,192,203988,1,2,0:0:0:0:
192,192,204045,1,0,0:0:0:0:
320,192,204103,1,0,0:0:0:0:
64,192,204161,1,0,0:0:0:0:
448,192,204218,1,0,0:0:0:0:
192,192,204276,1,0,0:0:0:0:
320,192,204334,1,0,0:0:0:0:
64,192,204391,1,0,0:0:0:0:
448,192,204449,1,0,0:0:0:0:
192,192,204507,1,0,0:0:0:0:
320,192,204564,128,8,204738:0:0:0:0:
320,192,204795,1,8,0:0:0:0:
320,192,204911,1,8,0:0:0:0:
320,192,205026,1,8,0:0:0:0:
320,192,205141,1,8,0:0:0:0:
320,192,205257,128,8,205430:0:0:0:0:
192,192,205488,128,8,205661:0:0:0:0:
192,192,205718,1,0,0:0:0:0:
192,192,205834,1,8,0:0:0:0:
192,192,205949,1,8,0:0:0:0:
192,192,206064,1,8,0:0:0:0:
192,192,206180,128,8,206353:0:0:0:0:
448,192,206411,1,2,0:0:0:0:
320,192,206468,1,0,0:0:0:0:
192,192,206526,1,0,0:0:0:0:
64,192,206584,1,0,0:0:0:0:
320,192,206641,1,0,0:0:0:0:
192,192,206699,1,0,0:0:0:0:
320,192,206757,1,2,0:0:0:0:
64,192,206814,1,0,0:0:0:0:
192,192,206872,1,0,0:0:0:0:
320,192,206930,1,0,0:0:0:0:
448,192,206988,1,2,0:0:0:0:
192,192,207045,1,0,0:0:0:0:
320,192,207103,1,0,0:0:0:0:
192,192,207161,1,0,0:0:0:0:
448,192,207218,1,0,0:0:0:0:
320,192,207276,1,0,0:0:0:0:
192,192,207334,1,2,0:0:0:0:
64,192,207391,1,0,0:0:0:0:
320,192,207449,1,0,0:0:0:0:
192,192,207507,1,0,0:0:0:0:
448,192,207564,1,0,0:0:0:0:
320,192,207622,1,0,0:0:0:0:
192,192,207680,1,0,0:0:0:0:
64,192,207738,1,0,0:0:0:0:
192,192,207795,1,0,0:0:0:0:
320,192,207853,1,0,0:0:0:0:
448,192,207911,1,2,0:0:0:0:
192,192,208026,1,2,0:0:0:0:
64,192,208257,1,2,0:0:0:0:
448,192,208257,1,6,0:0:0:0:
