osu file format v14

[General]
AudioFilename: 4. DJKurara - Japanese Transformation.mp3
AudioLeadIn: 1500
PreviewTime: 89872
Countdown: 0
SampleSet: Normal
StackLeniency: 0.7
Mode: 3
LetterboxInBreaks: 0
SpecialStyle: 0
WidescreenStoryboard: 1

[Editor]
Bookmarks: 85949,149180
DistanceSpacing: 1
BeatDivisor: 4
GridSize: 16
TimelineZoom: 1.5

[Metadata]
Title:Japanese Transformation
TitleUnicode:Japanese Transformation
Artist:DJKurara
ArtistUnicode:DJKurara
Creator:XeoStyle
Version:Medium
Source:
Tags:KyokudoCore Records KCRCD003 Tanoshi Torture J-Speedcore Happy J-Core jpt Blocko Todestrieb _underjoy Fullerene-
BeatmapID:1115522
BeatmapSetID:520438

[Difficulty]
HPDrainRate:7.5
CircleSize:4
OverallDifficulty:7.5
ApproachRate:9
SliderMultiplier:1.4
SliderTickRate:1

[Events]
//Background and Video events
0,0,"Japanese Transformation.jpg",0,0
//Break Periods
//Storyboard Layer 0 (Background)
//Storyboard Layer 1 (Fail)
//Storyboard Layer 2 (Pass)
//Storyboard Layer 3 (Foreground)
//Storyboard Sound Samples

[TimingPoints]
1488,230.769230769231,4,1,1,40,1,0
31026,-100,4,1,1,40,0,1
44872,-100,4,1,1,40,0,0
45795,-100,4,1,1,40,0,1
60564,-100,4,1,1,40,0,0
90103,-100,4,1,1,40,0,1
103949,-100,4,1,1,40,0,0
104872,-100,4,1,1,40,0,1
119641,-100,4,1,1,40,0,0
178718,-100,4,1,1,40,0,1
192564,-100,4,1,1,40,0,0
193488,-100,4,1,1,40,0,1
208257,-100,4,1,1,40,0,0

[HitObjects]
64,192,1488,5,6,0:0:0:0:
448,192,1488,1,2,0:0:0:0:
192,192,1718,1,0,0:0:0:0:
320,192,1718,1,0,0:0:0:0:
448,192,1949,1,0,0:0:0:0:
64,192,2064,1,0,0:0:0:0:
192,192,2180,1,0,0:0:0:0:
320,192,2295,1,0,0:0:0:0:
64,192,2295,1,0,0:0:0:0:
192,192,2526,128,0,2641:0:0:0:0:
320,192,2641,1,0,0:0:0:0:
448,192,2641,1,0,0:0:0:0:
448,192,2872,1,0,0:0:0:0:
64,192,2872,1,0,0:0:0:0:
320,192,2988,1,0,0:0:0:0:
64,192,3103,1,0,0:0:0:0:
192,192,3103,1,0,0:0:0:0:
448,192,3218,128,0,3334:0:0:0:0:
320,192,3334,1,0,0:0:0:0:
64,192,3334,1,0,0:0:0:0:
192,192,3564,1,0,0:0:0:0:
320,192,3564,1,0,0:0:0:0:
448,192,3795,1,0,0:0:0:0:
320,192,3911,1,0,0:0:0:0:
192,192,4026,1,0,0:0:0:0:
64,192,4141,1,0,0:0:0:0:
448,192,4141,1,0,0:0:0:0:
320,192,4372,128,0,4488:0:0:0:0:
192,192,4488,1,0,0:0:0:0:
64,192,4488,1,0,0:0:0:0:
448,192,4603,1,0,0:0:0:0:
64,192,4718,128,0,4834:0:0:0:0:
320,192,4834,128,0,4949:0:0:0:0:
192,192,4949,128,0,5064:0:0:0:0:
448,192,5064,128,0,5180:0:0:0:0:
64,192,5180,1,0,0:0:0:0:
320,192,5180,1,0,0:0:0:0:
192,192,5411,1,0,0:0:0:0:
320,192,5411,1,0,0:0:0:0:
192,192,5641,1,0,0:0:0:0:
64,192,5757,1,0,0:0:0:0:
448,192,5872,1,0,0:0:0:0:
64,192,5988,1,0,0:0:0:0:
320,192,5988,1,0,0:0:0:0:
192,192,6218,128,0,6334:0:0:0:0:
320,192,6334,1,0,0:0:0:0:
448,192,6334,1,0,0:0:0:0:
448,192,6564,1,0,0:0:0:0:
192,192,6564,1,0,0:0:0:0:
320,192,6680,1,0,0:0:0:0:
64,192,6795,1,0,0:0:0:0:
192,192,6795,1,0,0:0:0:0:
320,192,6911,128,0,7026:0:0:0:0:
448,192,7026,1,0,0:0:0:0:
64,192,7026,1,0,0:0:0:0:
192,192,7257,1,0,0:0:0:0:
320,192,7257,1,0,0:0:0:0:
64,192,7488,1,0,0:0:0:0:
192,192,7603,1,0,0:0:0:0:
448,192,7718,1,0,0:0:0:0:
64,192,7834,1,0,0:0:0:0:
320,192,7834,1,0,0:0:0:0:
192,192,8064,128,0,8180:0:0:0:0:
64,192,8180,1,0,0:0:0:0:
448,192,8180,1,0,0:0:0:0:
320,192,8295,1,0,0:0:0:0:
448,192,8411,128,0,8526:0:0:0:0:
192,192,8526,1,0,0:0:0:0:
448,192,8641,128,0,8757:0:0:0:0:
192,192,8757,1,0,0:0:0:0:
320,192,8872,5,6,0:0:0:0:
64,192,8872,1,2,0:0:0:0:
448,192,9103,1,0,0:0:0:0:
192,192,9103,1,0,0:0:0:0:
64,192,9334,1,0,0:0:0:0:
448,192,9449,1,0,0:0:0:0:
320,192,9564,1,0,0:0:0:0:
192,192,9680,1,0,0:0:0:0:
448,192,9680,1,0,0:0:0:0:
320,192,9911,128,0,10026:0:0:0:0:
64,192,10026,1,0,0:0:0:0:
192,192,10026,1,0,0:0:0:0:
64,192,10257,1,0,0:0:0:0:
448,192,10257,1,0,0:0:0:0:
192,192,10372,1,0,0:0:0:0:
320,192,10488,1,0,0:0:0:0:
448,192,10488,1,0,0:0:0:0:
64,192,10603,128,0,10718:0:0:0:0:
448,192,10718,1,0,0:0:0:0:
192,192,10718,1,0,0:0:0:0:
192,192,10949,1,0,0:0:0:0:
320,192,10949,1,0,0:0:0:0:
64,192,11180,1,0,0:0:0:0:
192,192,11295,1,0,0:0:0:0:
320,192,11411,1,0,0:0:0:0:
64,192,11526,1,0,0:0:0:0:
448,192,11526,1,0,0:0:0:0:
192,192,11757,128,0,11872:0:0:0:0:
448,192,11872,1,0,0:0:0:0:
320,192,11872,1,0,0:0:0:0:
64,192,11988,1,0,0:0:0:0:
448,192,12103,128,0,12218:0:0:0:0:
192,192,12218,128,0,12334:0:0:0:0:
320,192,12334,128,0,12449:0:0:0:0:
64,192,12449,128,0,12564:0:0:0:0:
192,192,12564,1,0,0:0:0:0:
448,192,12564,1,0,0:0:0:0:
192,192,12795,1,0,0:0:0:0:
320,192,12795,1,0,0:0:0:0:
320,192,13026,1,0,0:0:0:0:
448,192,13141,1,0,0:0:0:0:
64,192,13257,1,0,0:0:0:0:
192,192,13372,1,0,0:0:0:0:
448,192,13372,1,0,0:0:0:0:
320,192,13603,128,0,13718:0:0:0:0:
64,192,13718,1,0,0:0:0:0:
192,192,13718,1,0,0:0:0:0:
320,192,13949,1,0,0:0:0:0:
64,192,13949,1,0,0:0:0:0:
192,192,14064,1,0,0:0:0:0:
448,192,14180,1,0,0:0:0:0:
320,192,14180,1,0,0:0:0:0:
192,192,14295,128,0,14411:0:0:0:0:
448,192,14411,1,0,0:0:0:0:
64,192,14411,1,0,0:0:0:0:
320,192,14641,1,0,0:0:0:0:
192,192,14641,1,0,0:0:0:0:
448,192,14872,1,0,0:0:0:0:
320,192,14988,1,0,0:0:0:0:
64,192,15103,1,0,0:0:0:0:
448,192,15218,1,0,0:0:0:0:
192,192,15218,1,0,0:0:0:0:
320,192,15334,1,0,0:0:0:0:
320,192,15449,1,0,0:0:0:0:
64,192,15564,1,8,0:0:0:0:
448,192,15564,1,0,0:0:0:0:
192,192,15680,1,0,0:0:0:0:
320,192,15795,1,0,0:0:0:0:
448,192,15911,1,0,0:0:0:0:
320,192,16026,1,2,0:0:0:0:
64,192,16026,1,2,0:0:0:0:
192,192,16257,1,2,0:0:0:0:
448,192,16257,1,6,0:0:0:0:
320,192,16603,1,2,0:0:0:0:
192,192,16603,1,2,0:0:0:0:
64,192,16949,1,2,0:0:0:0:
192,192,16949,1,2,0:0:0:0:
320,192,17295,1,2,0:0:0:0:
448,192,17295,1,2,0:0:0:0:
192,192,17641,1,2,0:0:0:0:
320,192,17641,1,2,0:0:0:0:
64,192,17872,128,8,18103:0:0:0:0:
320,192,18103,1,0,0:0:0:0:
320,192,18218,1,0,0:0:0:0:
448,192,18334,1,8,0:0:0:0:
192,192,18449,1,0,0:0:0:0:
192,192,18564,1,0,0:0:0:0:
64,192,18680,1,8,0:0:0:0:
448,192,18795,1,0,0:0:0:0:
448,192,18911,1,0,0:0:0:0:
320,192,19026,1,8,0:0:0:0:
64,192,19141,1,0,0:0:0:0:
64,192,19257,1,0,0:0:0:0:
448,192,19372,1,0,0:0:0:0:
192,192,19488,1,2,0:0:0:0:
64,192,19488,1,2,0:0:0:0:
320,192,19603,1,2,0:0:0:0:
448,192,19718,1,2,0:0:0:0:
192,192,19718,1,2,0:0:0:0:
64,192,19834,128,2,19949:0:0:0:0:
320,192,19949,1,2,0:0:0:0:
448,192,19949,1,2,0:0:0:0:
192,192,20295,1,2,0:0:0:0:
64,192,20295,1,2,0:0:0:0:
192,192,20641,1,2,0:0:0:0:
448,192,20641,1,2,0:0:0:0:
320,192,20988,1,2,0:0:0:0:
64,192,20988,1,2,0:0:0:0:
448,192,21334,128,2,21564:0:0:0:0:
192,192,21564,1,2,0:0:0:0:
64,192,21564,1,2,0:0:0:0:
320,192,21795,1,8,0:0:0:0:
64,192,21911,1,0,0:0:0:0:
448,192,22026,1,0,0:0:0:0:
192,192,22141,1,8,0:0:0:0:
320,192,22257,1,0,0:0:0:0:
192,192,22372,1,0,0:0:0:0:
64,192,22488,1,0,0:0:0:0:
448,192,22488,1,8,0:0:0:0:
320,192,22603,1,0,0:0:0:0:
192,192,22718,1,8,0:0:0:0:
192,192,22834,1,8,0:0:0:0:
448,192,22949,1,8,0:0:0:0:
448,192,23064,1,8,0:0:0:0:
64,192,23180,1,8,0:0:0:0:
320,192,23295,1,8,0:0:0:0:
192,192,23411,1,2,0:0:0:0:
448,192,23526,128,2,23641:0:0:0:0:
192,192,23641,1,6,0:0:0:0:
64,192,23641,1,2,0:0:0:0:
320,192,23988,1,2,0:0:0:0:
448,192,23988,1,2,0:0:0:0:
320,192,24334,1,2,0:0:0:0:
192,192,24334,1,2,0:0:0:0:
192,192,24680,1,2,0:0:0:0:
448,192,24680,1,2,0:0:0:0:
64,192,25026,1,2,0:0:0:0:
320,192,25026,1,2,0:0:0:0:
192,192,25257,1,8,0:0:0:0:
320,192,25372,1,0,0:0:0:0:
448,192,25488,1,2,0:0:0:0:
64,192,25488,1,2,0:0:0:0:
320,192,25834,1,2,0:0:0:0:
64,192,25834,1,2,0:0:0:0:
320,192,26180,1,2,0:0:0:0:
448,192,26180,1,2,0:0:0:0:
192,192,26526,1,2,0:0:0:0:
448,192,26526,1,2,0:0:0:0:
320,192,26872,1,2,0:0:0:0:
64,192,26872,1,2,0:0:0:0:
192,192,27103,1,2,0:0:0:0:
192,192,27218,1,2,0:0:0:0:
192,192,27334,1,2,0:0:0:0:
320,192,27507,1,2,0:0:0:0:
448,192,27507,1,2,0:0:0:0:
64,192,27680,1,2,0:0:0:0:
64,192,27795,1,2,0:0:0:0:
192,192,27968,1,2,0:0:0:0:
448,192,27968,1,2,0:0:0:0:
320,192,28141,1,2,0:0:0:0:
320,192,28257,1,2,0:0:0:0:
64,192,28430,1,2,0:0:0:0:
192,192,28430,1,2,0:0:0:0:
448,192,28603,1,2,0:0:0:0:
448,192,28718,1,2,0:0:0:0:
64,192,28891,1,2,0:0:0:0:
320,192,28891,1,2,0:0:0:0:
448,192,29064,1,2,0:0:0:0:
64,192,29180,1,2,0:0:0:0:
320,192,29295,1,0,0:0:0:0:
192,192,29353,1,0,0:0:0:0:
64,192,29411,128,2,30103:0:0:0:0:
448,192,30103,1,2,0:0:0:0:
320,192,30103,128,2,30276:0:0:0:0:
192,192,30334,128,8,30507:0:0:0:0:
448,192,30564,128,8,30795:0:0:0:0:
320,192,30795,1,2,0:0:0:0:
64,192,30795,1,2,0:0:0:0:
192,192,31026,1,6,0:0:0:0:
448,192,31026,1,2,0:0:0:0:
320,192,31141,1,2,0:0:0:0:
64,192,31257,1,2,0:0:0:0:
448,192,31372,1,2,0:0:0:0:
320,192,31488,1,2,0:0:0:0:
64,192,31488,1,2,0:0:0:0:
192,192,31603,1,2,0:0:0:0:
320,192,31718,1,2,0:0:0:0:
448,192,31834,1,2,0:0:0:0:
64,192,31949,1,2,0:0:0:0:
192,192,31949,1,2,0:0:0:0:
320,192,32064,1,2,0:0:0:0:
448,192,32180,1,2,0:0:0:0:
192,192,32295,1,2,0:0:0:0:
64,192,32411,1,2,0:0:0:0:
320,192,32411,1,2,0:0:0:0:
448,192,32526,1,2,0:0:0:0:
192,192,32641,1,2,0:0:0:0:
64,192,32757,128,2,32872:0:0:0:0:
320,192,32872,1,2,0:0:0:0:
448,192,32872,1,2,0:0:0:0:
192,192,32988,1,2,0:0:0:0:
320,192,33103,1,2,0:0:0:0:
64,192,33218,1,2,0:0:0:0:
192,192,33334,1,2,0:0:0:0:
448,192,33334,1,2,0:0:0:0:
320,192,33449,1,2,0:0:0:0:
192,192,33564,1,2,0:0:0:0:
64,192,33680,1,2,0:0:0:0:
320,192,33795,1,2,0:0:0:0:
448,192,33795,1,2,0:0:0:0:
192,192,33911,1,2,0:0:0:0:
64,192,34026,1,2,0:0:0:0:
320,192,34141,1,2,0:0:0:0:
448,192,34257,1,2,0:0:0:0:
192,192,34257,1,2,0:0:0:0:
64,192,34372,1,2,0:0:0:0:
320,192,34488,1,2,0:0:0:0:
448,192,34603,128,2,34718:0:0:0:0:
192,192,34718,1,2,0:0:0:0:
64,192,34718,1,2,0:0:0:0:
320,192,34834,1,2,0:0:0:0:
192,192,34949,1,2,0:0:0:0:
448,192,35064,1,2,0:0:0:0:
64,192,35180,1,2,0:0:0:0:
320,192,35180,1,2,0:0:0:0:
192,192,35295,1,2,0:0:0:0:
320,192,35411,1,2,0:0:0:0:
448,192,35526,1,2,0:0:0:0:
64,192,35641,1,2,0:0:0:0:
192,192,35641,1,2,0:0:0:0:
320,192,35757,1,2,0:0:0:0:
192,192,35872,1,2,0:0:0:0:
448,192,35988,1,2,0:0:0:0:
320,192,36103,1,2,0:0:0:0:
64,192,36103,1,2,0:0:0:0:
192,192,36218,1,2,0:0:0:0:
64,192,36334,1,2,0:0:0:0:
320,192,36449,128,2,36564:0:0:0:0:
192,192,36564,1,2,0:0:0:0:
448,192,36564,1,2,0:0:0:0:
64,192,36680,1,2,0:0:0:0:
320,192,36795,1,2,0:0:0:0:
192,192,36911,1,2,0:0:0:0:
320,192,37026,1,2,0:0:0:0:
448,192,37026,128,2,37141:0:0:0:0:
64,192,37141,1,2,0:0:0:0:
192,192,37257,1,2,0:0:0:0:
320,192,37372,1,2,0:0:0:0:
448,192,37488,1,2,0:0:0:0:
64,192,37488,128,2,37718:0:0:0:0:
320,192,37603,1,2,0:0:0:0:
192,192,37718,1,2,0:0:0:0:
448,192,37834,1,2,0:0:0:0:
320,192,37949,128,8,38180:0:0:0:0:
192,192,38180,128,8,38411:0:0:0:0:
448,192,38411,1,2,0:0:0:0:
64,192,38411,1,6,0:0:0:0:
320,192,38526,1,2,0:0:0:0:
64,192,38641,1,2,0:0:0:0:
192,192,38757,1,2,0:0:0:0:
320,192,38872,1,2,0:0:0:0:
64,192,38872,1,2,0:0:0:0:
448,192,38988,1,2,0:0:0:0:
192,192,39103,1,2,0:0:0:0:
64,192,39218,1,2,0:0:0:0:
320,192,39334,1,2,0:0:0:0:
448,192,39334,1,2,0:0:0:0:
192,192,39449,1,2,0:0:0:0:
320,192,39564,1,2,0:0:0:0:
64,192,39680,1,2,0:0:0:0:
192,192,39795,1,2,0:0:0:0:
448,192,39795,1,2,0:0:0:0:
320,192,39911,1,2,0:0:0:0:
192,192,40026,1,2,0:0:0:0:
64,192,40141,128,2,40257:0:0:0:0:
320,192,40257,1,2,0:0:0:0:
448,192,40257,1,2,0:0:0:0:
192,192,40372,1,2,0:0:0:0:
320,192,40488,1,2,0:0:0:0:
448,192,40603,1,2,0:0:0:0:
192,192,40718,1,2,0:0:0:0:
64,192,40718,1,2,0:0:0:0:
320,192,40834,1,2,0:0:0:0:
448,192,40949,1,2,0:0:0:0:
192,192,41064,1,2,0:0:0:0:
320,192,41180,1,2,0:0:0:0:
64,192,41180,1,2,0:0:0:0:
448,192,41295,1,2,0:0:0:0:
192,192,41411,1,2,0:0:0:0:
64,192,41526,1,2,0:0:0:0:
320,192,41641,128,8,42103:0:0:0:0:
192,192,41872,128,8,42103:0:0:0:0:
64,192,42103,1,2,0:0:0:0:
448,192,42103,1,2,0:0:0:0:
192,192,42218,1,2,0:0:0:0:
320,192,42334,1,2,0:0:0:0:
448,192,42449,1,2,0:0:0:0:
192,192,42564,1,2,0:0:0:0:
64,192,42564,1,2,0:0:0:0:
320,192,42680,1,2,0:0:0:0:
192,192,42795,1,2,0:0:0:0:
448,192,42911,1,2,0:0:0:0:
320,192,43026,1,2,0:0:0:0:
64,192,43026,1,2,0:0:0:0:
192,192,43141,1,2,0:0:0:0:
448,192,43257,1,2,0:0:0:0:
320,192,43372,1,2,0:0:0:0:
192,192,43488,1,2,0:0:0:0:
448,192,43488,1,2,0:0:0:0:
64,192,43603,1,2,0:0:0:0:
320,192,43718,1,2,0:0:0:0:
448,192,43834,128,2,44180:0:0:0:0:
192,192,43949,1,2,0:0:0:0:
320,192,44064,1,2,0:0:0:0:
64,192,44180,1,2,0:0:0:0:
192,192,44295,1,2,0:0:0:0:
320,192,44411,1,2,0:0:0:0:
320,192,44526,128,8,44872:0:0:0:0:
192,192,44988,128,8,45103:0:0:0:0:
320,192,45218,128,2,45334:0:0:0:0:
64,192,45334,128,2,45449:0:0:0:0:
448,192,45449,128,0,45564:0:0:0:0:
192,192,45564,128,8,45680:0:0:0:0:
320,192,45680,128,0,45795:0:0:0:0:
448,192,45795,1,6,0:0:0:0:
64,192,45795,1,2,0:0:0:0:
192,192,45911,1,2,0:0:0:0:
320,192,46026,1,2,0:0:0:0:
448,192,46141,1,2,0:0:0:0:
192,192,46257,1,2,0:0:0:0:
64,192,46257,1,2,0:0:0:0:
320,192,46372,1,2,0:0:0:0:
192,192,46488,1,2,0:0:0:0:
448,192,46603,1,2,0:0:0:0:
320,192,46718,1,2,0:0:0:0:
64,192,46718,1,2,0:0:0:0:
192,192,46834,1,2,0:0:0:0:
320,192,46949,1,2,0:0:0:0:
64,192,47064,1,2,0:0:0:0:
192,192,47180,1,2,0:0:0:0:
448,192,47180,1,2,0:0:0:0:
320,192,47295,1,2,0:0:0:0:
192,192,47411,1,2,0:0:0:0:
64,192,47526,128,2,47641:0:0:0:0:
320,192,47641,1,2,0:0:0:0:
448,192,47641,1,2,0:0:0:0:
192,192,47757,1,2,0:0:0:0:
64,192,47872,1,2,0:0:0:0:
448,192,47988,1,2,0:0:0:0:
320,192,48103,1,2,0:0:0:0:
64,192,48103,1,2,0:0:0:0:
192,192,48218,1,2,0:0:0:0:
448,192,48334,1,2,0:0:0:0:
320,192,48449,1,2,0:0:0:0:
64,192,48564,1,2,0:0:0:0:
448,192,48564,1,2,0:0:0:0:
192,192,48680,1,2,0:0:0:0:
320,192,48795,128,2,49026:0:0:0:0:
64,192,48911,1,2,0:0:0:0:
448,192,49026,1,2,0:0:0:0:
192,192,49026,1,2,0:0:0:0:
64,192,49141,1,2,0:0:0:0:
192,192,49257,128,2,49488:0:0:0:0:
448,192,49372,1,2,0:0:0:0:
320,192,49488,1,2,0:0:0:0:
64,192,49488,1,2,0:0:0:0:
192,192,49603,1,2,0:0:0:0:
64,192,49718,1,2,0:0:0:0:
320,192,49834,1,2,0:0:0:0:
448,192,49949,1,2,0:0:0:0:
192,192,49949,1,2,0:0:0:0:
64,192,50064,1,2,0:0:0:0:
320,192,50180,1,2,0:0:0:0:
192,192,50295,1,2,0:0:0:0:
64,192,50411,1,2,0:0:0:0:
448,192,50411,1,2,0:0:0:0:
320,192,50526,1,2,0:0:0:0:
192,192,50641,1,2,0:0:0:0:
320,192,50757,1,2,0:0:0:0:
192,192,50872,1,2,0:0:0:0:
64,192,50872,1,2,0:0:0:0:
448,192,50988,1,2,0:0:0:0:
192,192,51103,1,2,0:0:0:0:
320,192,51218,128,2,51334:0:0:0:0:
448,192,51334,1,2,0:0:0:0:
192,192,51334,1,2,0:0:0:0:
64,192,51449,1,2,0:0:0:0:
192,192,51564,128,2,51680:0:0:0:0:
320,192,51680,1,2,0:0:0:0:
64,192,51795,1,2,0:0:0:0:
448,192,51911,128,2,52026:0:0:0:0:
192,192,52026,1,2,0:0:0:0:
320,192,52141,1,2,0:0:0:0:
64,192,52257,128,2,52488:0:0:0:0:
320,192,52372,1,2,0:0:0:0:
448,192,52488,128,2,53180:0:0:0:0:
192,192,52834,128,0,53180:0:0:0:0:
64,192,53180,1,2,0:0:0:0:
64,192,53295,1,2,0:0:0:0:
320,192,53411,1,2,0:0:0:0:
320,192,53526,1,2,0:0:0:0:
192,192,53641,1,2,0:0:0:0:
192,192,53757,1,2,0:0:0:0:
448,192,53872,1,2,0:0:0:0:
64,192,53872,1,0,0:0:0:0:
320,192,54103,1,2,0:0:0:0:
320,192,54218,1,2,0:0:0:0:
64,192,54334,1,2,0:0:0:0:
64,192,54449,1,2,0:0:0:0:
448,192,54564,1,2,0:0:0:0:
448,192,54680,1,2,0:0:0:0:
320,192,54795,1,2,0:0:0:0:
64,192,54795,1,2,0:0:0:0:
192,192,55026,1,2,0:0:0:0:
192,192,55141,1,2,0:0:0:0:
320,192,55257,1,2,0:0:0:0:
448,192,55257,1,2,0:0:0:0:
64,192,55372,128,8,55488:0:0:0:0:
320,192,55488,1,2,0:0:0:0:
448,192,55603,128,8,55718:0:0:0:0:
192,192,55718,1,2,0:0:0:0:
320,192,55834,1,2,0:0:0:0:
64,192,55949,1,2,0:0:0:0:
192,192,55949,1,2,0:0:0:0:
448,192,56064,128,8,56180:0:0:0:0:
64,192,56180,1,2,0:0:0:0:
448,192,56295,128,8,56411:0:0:0:0:
64,192,56411,1,2,0:0:0:0:
192,192,56526,128,8,56641:0:0:0:0:
320,192,56641,1,2,0:0:0:0:
192,192,56757,128,8,56872:0:0:0:0:
320,192,56872,1,2,0:0:0:0:
320,192,57045,1,2,0:0:0:0:
448,192,57218,1,8,0:0:0:0:
320,192,57218,1,2,0:0:0:0:
192,192,57334,1,2,0:0:0:0:
64,192,57334,1,8,0:0:0:0:
192,192,57507,1,2,0:0:0:0:
64,192,57507,1,8,0:0:0:0:
320,192,57680,1,2,0:0:0:0:
448,192,57680,1,8,0:0:0:0:
192,192,57795,1,2,0:0:0:0:
64,192,57795,1,8,0:0:0:0:
320,192,57911,1,2,0:0:0:0:
448,192,57911,1,8,0:0:0:0:
192,192,58026,1,2,0:0:0:0:
64,192,58026,1,8,0:0:0:0:
320,192,58141,1,2,0:0:0:0:
448,192,58257,1,0,0:0:0:0:
192,192,58257,1,8,0:0:0:0:
64,192,58372,1,8,0:0:0:0:
320,192,58488,128,8,58718:0:0:0:0:
192,192,58718,1,2,0:0:0:0:
64,192,58718,1,2,0:0:0:0:
448,192,58834,1,2,0:0:0:0:
320,192,58834,1,2,0:0:0:0:
64,192,58949,1,2,0:0:0:0:
192,192,58949,1,2,0:0:0:0:
320,192,59064,1,2,0:0:0:0:
448,192,59064,1,2,0:0:0:0:
64,192,59180,1,2,0:0:0:0:
192,192,59238,1,2,0:0:0:0:
448,192,59295,1,2,0:0:0:0:
320,192,59353,1,2,0:0:0:0:
64,192,59411,1,2,0:0:0:0:
192,192,59468,1,2,0:0:0:0:
448,192,59526,1,2,0:0:0:0:
320,192,59584,1,2,0:0:0:0:
192,192,59641,1,2,0:0:0:0:
64,192,59641,1,2,0:0:0:0:
320,192,59872,128,0,60564:0:0:0:0:
64,192,60564,1,6,0:0:0:0:
448,192,60564,1,2,0:0:0:0:
192,192,60680,1,2,0:0:0:0:
64,192,60795,1,8,0:0:0:0:
192,192,60911,1,0,0:0:0:0:
448,192,60911,1,0,0:0:0:0:
448,192,61141,1,0,0:0:0:0:
192,192,61141,1,0,0:0:0:0:
320,192,61257,1,8,0:0:0:0:
320,192,61372,1,0,0:0:0:0:
192,192,61488,1,0,0:0:0:0:
448,192,61603,1,0,0:0:0:0:
192,192,61718,1,8,0:0:0:0:
320,192,61834,1,0,0:0:0:0:
448,192,61834,1,0,0:0:0:0:
448,192,62064,1,0,0:0:0:0:
320,192,62064,1,0,0:0:0:0:
64,192,62180,1,0,0:0:0:0:
64,192,62295,1,8,0:0:0:0:
320,192,62411,1,0,0:0:0:0:
192,192,62526,1,0,0:0:0:0:
320,192,62641,1,8,0:0:0:0:
64,192,62757,1,0,0:0:0:0:
448,192,62757,1,0,0:0:0:0:
64,192,62988,1,0,0:0:0:0:
448,192,62988,1,0,0:0:0:0:
192,192,63103,1,8,0:0:0:0:
192,192,63218,1,0,0:0:0:0:
320,192,63334,1,0,0:0:0:0:
64,192,63449,1,8,0:0:0:0:
320,192,63564,1,0,0:0:0:0:
64,192,63680,1,8,0:0:0:0:
320,192,63795,1,0,0:0:0:0:
64,192,63911,1,8,0:0:0:0:
320,192,64026,1,0,0:0:0:0:
64,192,64141,1,8,0:0:0:0:
448,192,64257,1,0,0:0:0:0:
320,192,64372,1,0,0:0:0:0:
448,192,64488,1,8,0:0:0:0:
192,192,64603,1,0,0:0:0:0:
64,192,64603,1,0,0:0:0:0:
64,192,64834,1,0,0:0:0:0:
192,192,64834,1,0,0:0:0:0:
448,192,64949,1,8,0:0:0:0:
448,192,65064,1,0,0:0:0:0:
320,192,65180,1,0,0:0:0:0:
64,192,65295,1,0,0:0:0:0:
320,192,65411,1,8,0:0:0:0:
448,192,65526,1,0,0:0:0:0:
192,192,65526,1,0,0:0:0:0:
192,192,65757,1,0,0:0:0:0:
448,192,65757,1,0,0:0:0:0:
320,192,65872,1,8,0:0:0:0:
320,192,65988,1,8,0:0:0:0:
64,192,66103,1,0,0:0:0:0:
320,192,66218,1,0,0:0:0:0:
64,192,66334,1,8,0:0:0:0:
320,192,66449,1,0,0:0:0:0:
448,192,66449,1,0,0:0:0:0:
320,192,66680,1,0,0:0:0:0:
448,192,66680,1,0,0:0:0:0:
192,192,66795,1,8,0:0:0:0:
192,192,66911,1,0,0:0:0:0:
320,192,67026,1,0,0:0:0:0:
64,192,67141,1,8,0:0:0:0:
320,192,67257,1,0,0:0:0:0:
64,192,67372,1,8,0:0:0:0:
192,192,67488,1,8,0:0:0:0:
320,192,67603,1,8,0:0:0:0:
192,192,67718,1,8,0:0:0:0:
320,192,67834,1,8,0:0:0:0:
64,192,67949,1,2,0:0:0:0:
448,192,67949,1,6,0:0:0:0:
320,192,68064,1,0,0:0:0:0:
448,192,68180,1,8,0:0:0:0:
64,192,68295,1,0,0:0:0:0:
320,192,68295,1,0,0:0:0:0:
320,192,68526,1,0,0:0:0:0:
64,192,68526,1,0,0:0:0:0:
192,192,68641,1,8,0:0:0:0:
192,192,68757,1,0,0:0:0:0:
320,192,68872,1,0,0:0:0:0:
64,192,68988,1,0,0:0:0:0:
320,192,69103,1,8,0:0:0:0:
64,192,69218,1,0,0:0:0:0:
192,192,69218,1,0,0:0:0:0:
64,192,69449,1,0,0:0:0:0:
192,192,69449,1,0,0:0:0:0:
448,192,69564,1,8,0:0:0:0:
448,192,69680,1,0,0:0:0:0:
192,192,69795,1,0,0:0:0:0:
320,192,69911,1,0,0:0:0:0:
192,192,70026,1,8,0:0:0:0:
64,192,70141,1,0,0:0:0:0:
448,192,70141,1,0,0:0:0:0:
64,192,70372,1,0,0:0:0:0:
448,192,70372,1,0,0:0:0:0:
320,192,70488,1,8,0:0:0:0:
320,192,70603,1,0,0:0:0:0:
192,192,70718,1,0,0:0:0:0:
448,192,70834,1,8,0:0:0:0:
192,192,70949,1,0,0:0:0:0:
448,192,71064,1,8,0:0:0:0:
192,192,71180,1,0,0:0:0:0:
448,192,71295,1,8,0:0:0:0:
192,192,71411,1,0,0:0:0:0:
448,192,71526,1,8,0:0:0:0:
64,192,71641,1,0,0:0:0:0:
192,192,71757,1,0,0:0:0:0:
64,192,71872,1,8,0:0:0:0:
320,192,71988,1,0,0:0:0:0:
448,192,71988,1,0,0:0:0:0:
320,192,72218,1,0,0:0:0:0:
448,192,72218,1,0,0:0:0:0:
64,192,72334,1,8,0:0:0:0:
64,192,72449,1,0,0:0:0:0:
192,192,72564,1,0,0:0:0:0:
448,192,72680,1,0,0:0:0:0:
192,192,72795,1,8,0:0:0:0:
320,192,72911,1,0,0:0:0:0:
64,192,72911,1,0,0:0:0:0:
320,192,73141,1,0,0:0:0:0:
64,192,73141,1,0,0:0:0:0:
192,192,73257,1,8,0:0:0:0:
192,192,73372,1,8,0:0:0:0:
448,192,73488,1,0,0:0:0:0:
192,192,73603,1,0,0:0:0:0:
448,192,73718,1,8,0:0:0:0:
192,192,73834,1,0,0:0:0:0:
64,192,73834,1,0,0:0:0:0:
192,192,74064,1,0,0:0:0:0:
64,192,74064,1,0,0:0:0:0:
320,192,74180,1,8,0:0:0:0:
320,192,74295,1,0,0:0:0:0:
192,192,74411,1,0,0:0:0:0:
448,192,74526,1,8,0:0:0:0:
192,192,74641,1,0,0:0:0:0:
448,192,74757,1,8,0:0:0:0:
320,192,74872,1,0,0:0:0:0:
192,192,74988,1,8,0:0:0:0:
320,192,75103,1,0,0:0:0:0:
192,192,75218,1,8,0:0:0:0:
448,192,75334,1,6,0:0:0:0:
64,192,75334,1,2,0:0:0:0:
448,192,75564,1,10,0:0:0:0:
320,192,75564,1,10,0:0:0:0:
192,192,75795,1,2,0:0:0:0:
320,192,75795,1,2,0:0:0:0:
64,192,76026,1,10,0:0:0:0:
320,192,76026,1,10,0:0:0:0:
448,192,76257,1,2,0:0:0:0:
192,192,76257,1,2,0:0:0:0:
320,192,76488,1,10,0:0:0:0:
448,192,76488,1,10,0:0:0:0:
192,192,76718,1,2,0:0:0:0:
64,192,76718,1,2,0:0:0:0:
192,192,76949,1,10,0:0:0:0:
448,192,76949,1,10,0:0:0:0:
320,192,77180,1,2,0:0:0:0:
192,192,77180,1,2,0:0:0:0:
64,192,77411,1,10,0:0:0:0:
320,192,77411,1,10,0:0:0:0:
192,192,77641,1,2,0:0:0:0:
448,192,77641,1,2,0:0:0:0:
320,192,77872,1,10,0:0:0:0:
448,192,77872,1,10,0:0:0:0:
320,192,78103,1,2,0:0:0:0:
192,192,78103,1,2,0:0:0:0:
320,192,78334,1,10,0:0:0:0:
64,192,78334,1,10,0:0:0:0:
192,192,78564,1,2,0:0:0:0:
320,192,78622,1,2,0:0:0:0:
448,192,78680,1,2,0:0:0:0:
192,192,78795,1,10,0:0:0:0:
64,192,78795,1,10,0:0:0:0:
320,192,78911,1,2,0:0:0:0:
192,192,79026,1,2,0:0:0:0:
448,192,79026,1,2,0:0:0:0:
64,192,79257,1,10,0:0:0:0:
448,192,79257,1,10,0:0:0:0:
192,192,79488,1,2,0:0:0:0:
320,192,79488,1,2,0:0:0:0:
448,192,79718,1,10,0:0:0:0:
192,192,79718,1,10,0:0:0:0:
64,192,79949,1,2,0:0:0:0:
320,192,79949,1,2,0:0:0:0:
192,192,80180,1,10,0:0:0:0:
64,192,80180,1,10,0:0:0:0:
320,192,80411,1,2,0:0:0:0:
448,192,80411,1,2,0:0:0:0:
64,192,80641,1,10,0:0:0:0:
320,192,80641,1,10,0:0:0:0:
192,192,80872,1,2,0:0:0:0:
320,192,80872,1,2,0:0:0:0:
448,192,81103,1,10,0:0:0:0:
192,192,81103,1,10,0:0:0:0:
320,192,81334,1,2,0:0:0:0:
64,192,81334,1,2,0:0:0:0:
64,192,81564,1,10,0:0:0:0:
192,192,81564,1,10,0:0:0:0:
448,192,81795,1,2,0:0:0:0:
320,192,81795,1,2,0:0:0:0:
64,192,81911,1,2,0:0:0:0:
192,192,81911,1,2,0:0:0:0:
320,192,82026,1,10,0:0:0:0:
448,192,82026,1,10,0:0:0:0:
64,192,82257,128,0,82488:0:0:0:0:
320,192,82257,1,0,0:0:0:0:
448,192,82488,1,8,0:0:0:0:
320,192,82545,1,8,0:0:0:0:
192,192,82603,1,8,0:0:0:0:
64,192,82718,1,6,0:0:0:0:
448,192,82718,1,2,0:0:0:0:
320,192,82834,1,2,0:0:0:0:
192,192,82834,1,2,0:0:0:0:
448,192,82949,1,10,0:0:0:0:
64,192,82949,1,10,0:0:0:0:
192,192,83180,1,2,0:0:0:0:
448,192,83180,1,2,0:0:0:0:
320,192,83411,1,10,0:0:0:0:
64,192,83411,1,10,0:0:0:0:
320,192,83641,1,2,0:0:0:0:
448,192,83641,1,2,0:0:0:0:
64,192,83872,1,10,0:0:0:0:
448,192,83872,1,10,0:0:0:0:
320,192,84103,1,2,0:0:0:0:
192,192,84103,1,2,0:0:0:0:
192,192,84334,1,10,0:0:0:0:
64,192,84334,1,10,0:0:0:0:
320,192,84449,1,2,0:0:0:0:
448,192,84449,1,2,0:0:0:0:
192,192,84564,1,2,0:0:0:0:
64,192,84564,1,2,0:0:0:0:
192,192,84795,1,10,0:0:0:0:
448,192,84795,1,10,0:0:0:0:
320,192,85026,1,2,0:0:0:0:
448,192,85026,1,2,0:0:0:0:
320,192,85257,1,10,0:0:0:0:
64,192,85257,1,10,0:0:0:0:
64,192,85488,1,2,0:0:0:0:
448,192,85488,1,2,0:0:0:0:
448,192,85718,1,10,0:0:0:0:
192,192,85718,1,10,0:0:0:0:
320,192,85949,1,2,0:0:0:0:
192,192,86007,1,2,0:0:0:0:
64,192,86064,1,2,0:0:0:0:
448,192,86180,1,10,0:0:0:0:
320,192,86180,1,10,0:0:0:0:
192,192,86295,1,2,0:0:0:0:
64,192,86411,1,8,0:0:0:0:
320,192,86411,1,0,0:0:0:0:
64,192,86526,1,8,0:0:0:0:
448,192,86641,1,8,0:0:0:0:
448,192,86757,1,8,0:0:0:0:
192,192,86872,1,8,0:0:0:0:
192,192,86988,1,8,0:0:0:0:
320,192,87103,1,8,0:0:0:0:
320,192,87218,1,8,0:0:0:0:
64,192,87334,1,8,0:0:0:0:
64,192,87449,1,8,0:0:0:0:
448,192,87564,1,8,0:0:0:0:
448,192,87680,1,8,0:0:0:0:
192,192,87795,1,8,0:0:0:0:
192,192,87911,1,8,0:0:0:0:
320,192,88026,1,8,0:0:0:0:
320,192,88141,1,8,0:0:0:0:
64,192,88257,128,8,89180:0:0:0:0:
320,192,89180,128,8,89872:0:0:0:0:
192,192,89641,128,0,89872:0:0:0:0:
448,192,89872,1,0,0:0:0:0:
64,192,89872,1,8,0:0:0:0:
64,192,90103,1,2,0:0:0:0:
320,192,90103,1,6,0:0:0:0:
192,192,90218,1,2,0:0:0:0:
320,192,90334,1,2,0:0:0:0:
448,192,90449,1,2,0:0:0:0:
192,192,90564,1,2,0:0:0:0:
64,192,90564,1,2,0:0:0:0:
320,192,90680,1,2,0:0:0:0:
192,192,90795,1,2,0:0:0:0:
448,192,90911,1,2,0:0:0:0:
320,192,91026,1,2,0:0:0:0:
64,192,91026,1,2,0:0:0:0:
192,192,91141,1,2,0:0:0:0:
64,192,91257,1,2,0:0:0:0:
320,192,91372,1,2,0:0:0:0:
192,192,91488,1,2,0:0:0:0:
448,192,91488,1,2,0:0:0:0:
64,192,91603,1,2,0:0:0:0:
320,192,91718,1,2,0:0:0:0:
192,192,91834,128,2,91949:0:0:0:0:
64,192,91949,1,2,0:0:0:0:
448,192,91949,1,2,0:0:0:0:
320,192,92064,1,2,0:0:0:0:
192,192,92180,1,2,0:0:0:0:
320,192,92295,1,2,0:0:0:0:
448,192,92411,1,2,0:0:0:0:
64,192,92411,1,2,0:0:0:0:
192,192,92526,1,2,0:0:0:0:
320,192,92641,1,2,0:0:0:0:
448,192,92757,1,2,0:0:0:0:
192,192,92872,1,2,0:0:0:0:
64,192,92872,1,2,0:0:0:0:
64,192,92988,1,2,0:0:0:0:
320,192,93103,1,2,0:0:0:0:
320,192,93218,1,2,0:0:0:0:
64,192,93334,1,2,0:0:0:0:
192,192,93334,1,2,0:0:0:0:
448,192,93564,128,2,93795:0:0:0:0:
320,192,93795,1,2,0:0:0:0:
192,192,93795,1,2,0:0:0:0:
64,192,93911,1,2,0:0:0:0:
192,192,94026,1,2,0:0:0:0:
320,192,94141,1,2,0:0:0:0:
448,192,94257,1,2,0:0:0:0:
64,192,94257,1,2,0:0:0:0:
192,192,94372,1,2,0:0:0:0:
448,192,94488,1,2,0:0:0:0:
320,192,94603,1,2,0:0:0:0:
192,192,94718,1,2,0:0:0:0:
64,192,94718,1,2,0:0:0:0:
320,192,94834,1,2,0:0:0:0:
448,192,94949,1,2,0:0:0:0:
64,192,95064,1,2,0:0:0:0:
192,192,95180,1,2,0:0:0:0:
448,192,95180,1,2,0:0:0:0:
320,192,95295,1,2,0:0:0:0:
192,192,95411,1,2,0:0:0:0:
64,192,95526,128,2,95641:0:0:0:0:
320,192,95641,1,2,0:0:0:0:
448,192,95641,1,2,0:0:0:0:
192,192,95757,1,2,0:0:0:0:
320,192,95872,1,2,0:0:0:0:
448,192,95988,1,2,0:0:0:0:
192,192,96103,1,2,0:0:0:0:
64,192,96103,1,2,0:0:0:0:
320,192,96218,1,2,0:0:0:0:
448,192,96334,1,2,0:0:0:0:
192,192,96449,1,2,0:0:0:0:
320,192,96564,1,2,0:0:0:0:
64,192,96564,1,2,0:0:0:0:
192,192,96795,1,2,0:0:0:0:
448,192,96795,1,2,0:0:0:0:
320,192,97026,1,2,0:0:0:0:
192,192,97026,1,2,0:0:0:0:
320,192,97257,1,2,0:0:0:0:
64,192,97257,1,2,0:0:0:0:
192,192,97372,128,2,97488:0:0:0:0:
320,192,97488,1,6,0:0:0:0:
448,192,97488,1,2,0:0:0:0:
64,192,97603,1,2,0:0:0:0:
192,192,97718,1,2,0:0:0:0:
448,192,97834,1,2,0:0:0:0:
320,192,97949,1,2,0:0:0:0:
64,192,97949,1,2,0:0:0:0:
192,192,98064,1,2,0:0:0:0:
64,192,98180,1,2,0:0:0:0:
448,192,98295,1,2,0:0:0:0:
320,192,98411,1,2,0:0:0:0:
192,192,98411,1,2,0:0:0:0:
64,192,98526,1,2,0:0:0:0:
192,192,98641,1,2,0:0:0:0:
320,192,98757,1,2,0:0:0:0:
448,192,98872,1,2,0:0:0:0:
64,192,98872,1,2,0:0:0:0:
192,192,98988,1,2,0:0:0:0:
320,192,99103,1,2,0:0:0:0:
64,192,99218,128,2,99334:0:0:0:0:
192,192,99334,1,2,0:0:0:0:
448,192,99334,1,2,0:0:0:0:
320,192,99449,1,2,0:0:0:0:
192,192,99564,1,2,0:0:0:0:
448,192,99680,1,2,0:0:0:0:
320,192,99795,1,2,0:0:0:0:
64,192,99795,1,2,0:0:0:0:
192,192,99911,1,2,0:0:0:0:
64,192,100026,1,2,0:0:0:0:
448,192,100141,1,2,0:0:0:0:
320,192,100257,1,2,0:0:0:0:
192,192,100257,1,2,0:0:0:0:
320,192,100372,1,2,0:0:0:0:
64,192,100488,1,2,0:0:0:0:
64,192,100603,1,2,0:0:0:0:
448,192,100718,1,8,0:0:0:0:
320,192,100776,1,8,0:0:0:0:
192,192,100834,1,8,0:0:0:0:
64,192,100891,1,8,0:0:0:0:
448,192,100949,1,2,0:0:0:0:
320,192,101180,1,2,0:0:0:0:
64,192,101180,1,2,0:0:0:0:
448,192,101295,1,2,0:0:0:0:
192,192,101411,1,2,0:0:0:0:
320,192,101526,1,2,0:0:0:0:
64,192,101641,1,2,0:0:0:0:
192,192,101641,1,2,0:0:0:0:
448,192,101757,1,2,0:0:0:0:
320,192,101872,1,2,0:0:0:0:
192,192,101988,1,2,0:0:0:0:
64,192,102103,1,2,0:0:0:0:
448,192,102103,1,2,0:0:0:0:
320,192,102218,1,2,0:0:0:0:
192,192,102334,1,2,0:0:0:0:
448,192,102449,1,2,0:0:0:0:
320,192,102564,1,2,0:0:0:0:
64,192,102564,1,2,0:0:0:0:
192,192,102680,1,2,0:0:0:0:
320,192,102795,1,2,0:0:0:0:
448,192,102911,1,2,0:0:0:0:
64,192,103026,1,2,0:0:0:0:
192,192,103026,1,2,0:0:0:0:
320,192,103141,1,2,0:0:0:0:
448,192,103257,1,2,0:0:0:0:
192,192,103372,1,2,0:0:0:0:
64,192,103488,1,2,0:0:0:0:
448,192,103488,128,2,103949:0:0:0:0:
320,192,103603,1,8,0:0:0:0:
192,192,103718,1,8,0:0:0:0:
64,192,103834,1,8,0:0:0:0:
192,192,103949,1,10,0:0:0:0:
320,192,103949,128,14,104180:0:0:0:0:
64,192,104180,128,8,104411:0:0:0:0:
448,192,104411,128,8,104641:0:0:0:0:
192,192,104641,128,8,104872:0:0:0:0:
320,192,104872,1,2,0:0:0:0:
64,192,104872,1,6,0:0:0:0:
448,192,104988,1,2,0:0:0:0:
192,192,105103,1,2,0:0:0:0:
64,192,105218,1,2,0:0:0:0:
320,192,105334,1,2,0:0:0:0:
448,192,105334,1,2,0:0:0:0:
192,192,105449,1,2,0:0:0:0:
64,192,105564,1,2,0:0:0:0:
320,192,105680,1,2,0:0:0:0:
192,192,105795,1,2,0:0:0:0:
448,192,105795,1,2,0:0:0:0:
64,192,105911,1,2,0:0:0:0:
320,192,106026,1,2,0:0:0:0:
448,192,106141,1,2,0:0:0:0:
192,192,106257,1,2,0:0:0:0:
64,192,106257,1,2,0:0:0:0:
320,192,106372,1,2,0:0:0:0:
192,192,106488,1,2,0:0:0:0:
448,192,106603,128,2,106718:0:0:0:0:
320,192,106718,1,2,0:0:0:0:
64,192,106718,1,2,0:0:0:0:
192,192,106834,1,2,0:0:0:0:
448,192,106949,1,2,0:0:0:0:
320,192,107064,1,2,0:0:0:0:
192,192,107180,1,2,0:0:0:0:
64,192,107180,1,2,0:0:0:0:
320,192,107295,1,2,0:0:0:0:
448,192,107411,1,2,0:0:0:0:
64,192,107526,1,2,0:0:0:0:
192,192,107641,1,10,0:0:0:0:
320,192,107641,1,10,0:0:0:0:
192,192,107872,1,10,0:0:0:0:
192,192,107988,1,10,0:0:0:0:
448,192,108103,1,10,0:0:0:0:
320,192,108103,1,10,0:0:0:0:
192,192,108334,1,10,0:0:0:0:
64,192,108334,1,10,0:0:0:0:
448,192,108564,1,2,0:0:0:0:
64,192,108564,1,2,0:0:0:0:
320,192,108680,1,2,0:0:0:0:
192,192,108795,1,2,0:0:0:0:
448,192,108911,1,2,0:0:0:0:
320,192,109026,1,2,0:0:0:0:
64,192,109026,1,2,0:0:0:0:
192,192,109141,1,2,0:0:0:0:
320,192,109257,1,2,0:0:0:0:
448,192,109372,1,2,0:0:0:0:
192,192,109488,1,2,0:0:0:0:
64,192,109488,1,2,0:0:0:0:
320,192,109603,1,2,0:0:0:0:
448,192,109718,1,2,0:0:0:0:
192,192,109834,1,2,0:0:0:0:
64,192,109949,1,2,0:0:0:0:
320,192,109949,1,2,0:0:0:0:
448,192,110064,1,2,0:0:0:0:
192,192,110180,1,2,0:0:0:0:
320,192,110295,1,2,0:0:0:0:
448,192,110411,1,2,0:0:0:0:
192,192,110411,1,2,0:0:0:0:
64,192,110526,1,2,0:0:0:0:
448,192,110641,128,2,110757:0:0:0:0:
320,192,110757,1,2,0:0:0:0:
64,192,110872,1,2,0:0:0:0:
192,192,110930,1,2,0:0:0:0:
320,192,110988,1,2,0:0:0:0:
448,192,111045,1,2,0:0:0:0:
64,192,111103,128,2,111334:0:0:0:0:
448,192,111449,1,0,0:0:0:0:
192,192,111449,1,8,0:0:0:0:
64,192,111680,1,0,0:0:0:0:
320,192,111680,1,8,0:0:0:0:
64,192,111911,1,8,0:0:0:0:
448,192,111911,1,0,0:0:0:0:
320,192,112141,1,8,0:0:0:0:
448,192,112141,1,0,0:0:0:0:
64,192,112257,1,2,0:0:0:0:
192,192,112257,1,6,0:0:0:0:
320,192,112372,1,2,0:0:0:0:
448,192,112488,1,2,0:0:0:0:
192,192,112603,1,2,0:0:0:0:
64,192,112718,1,2,0:0:0:0:
320,192,112718,1,2,0:0:0:0:
448,192,112834,1,2,0:0:0:0:
192,192,112949,1,2,0:0:0:0:
320,192,113064,1,2,0:0:0:0:
192,192,113180,1,2,0:0:0:0:
448,192,113180,1,2,0:0:0:0:
64,192,113295,1,2,0:0:0:0:
320,192,113411,1,2,0:0:0:0:
192,192,113526,1,2,0:0:0:0:
64,192,113641,1,2,0:0:0:0:
448,192,113641,1,2,0:0:0:0:
320,192,113757,1,2,0:0:0:0:
192,192,113872,1,2,0:0:0:0:
448,192,113988,128,2,114103:0:0:0:0:
320,192,114103,1,2,0:0:0:0:
64,192,114103,1,2,0:0:0:0:
192,192,114218,1,2,0:0:0:0:
320,192,114334,1,2,0:0:0:0:
64,192,114449,1,2,0:0:0:0:
192,192,114564,1,2,0:0:0:0:
448,192,114564,1,2,0:0:0:0:
320,192,114680,128,2,114795:0:0:0:0:
64,192,114795,1,2,0:0:0:0:
192,192,114911,1,2,0:0:0:0:
448,192,115026,1,2,0:0:0:0:
320,192,115026,1,2,0:0:0:0:
64,192,115141,128,2,115257:0:0:0:0:
448,192,115257,1,2,0:0:0:0:
320,192,115372,1,2,0:0:0:0:
64,192,115488,1,2,0:0:0:0:
192,192,115488,128,2,115603:0:0:0:0:
448,192,115603,128,2,115718:0:0:0:0:
320,192,115718,1,2,0:0:0:0:
64,192,115949,1,2,0:0:0:0:
448,192,115949,1,2,0:0:0:0:
320,192,116064,1,2,0:0:0:0:
192,192,116180,128,2,116411:0:0:0:0:
448,192,116295,1,2,0:0:0:0:
64,192,116411,1,2,0:0:0:0:
320,192,116526,1,2,0:0:0:0:
448,192,116641,128,2,116872:0:0:0:0:
64,192,116757,1,2,0:0:0:0:
192,192,116872,1,2,0:0:0:0:
320,192,116988,1,2,0:0:0:0:
64,192,117103,128,2,117334:0:0:0:0:
448,192,117218,1,2,0:0:0:0:
320,192,117334,1,2,0:0:0:0:
192,192,117449,1,2,0:0:0:0:
320,192,117564,128,2,117795:0:0:0:0:
448,192,117564,128,2,117795:0:0:0:0:
192,192,117795,1,2,0:0:0:0:
64,192,117795,1,2,0:0:0:0:
320,192,118026,1,8,0:0:0:0:
192,192,118141,1,2,0:0:0:0:
320,192,118372,1,8,0:0:0:0:
192,192,118488,1,2,0:0:0:0:
64,192,118488,1,2,0:0:0:0:
192,192,118718,1,2,0:0:0:0:
64,192,118718,1,2,0:0:0:0:
320,192,119064,1,2,0:0:0:0:
448,192,119064,1,2,0:0:0:0:
192,192,119180,1,2,0:0:0:0:
64,192,119180,1,2,0:0:0:0:
320,192,119295,1,2,0:0:0:0:
448,192,119295,1,2,0:0:0:0:
192,192,119411,1,2,0:0:0:0:
64,192,119411,1,2,0:0:0:0:
448,192,119468,1,2,0:0:0:0:
320,192,119526,1,2,0:0:0:0:
192,192,119584,1,2,0:0:0:0:
64,192,119641,1,6,0:0:0:0:
448,192,119641,1,2,0:0:0:0:
320,192,119757,1,2,0:0:0:0:
192,192,119872,1,2,0:0:0:0:
64,192,119988,1,2,0:0:0:0:
448,192,120103,1,2,0:0:0:0:
320,192,120218,1,2,0:0:0:0:
64,192,120334,1,2,0:0:0:0:
192,192,120449,1,2,0:0:0:0:
448,192,120564,1,2,0:0:0:0:
320,192,120680,1,2,0:0:0:0:
192,192,120795,1,2,0:0:0:0:
64,192,120911,1,2,0:0:0:0:
448,192,121026,1,2,0:0:0:0:
320,192,121141,1,2,0:0:0:0:
64,192,121257,1,2,0:0:0:0:
192,192,121372,1,2,0:0:0:0:
448,192,121488,1,2,0:0:0:0:
320,192,121603,1,2,0:0:0:0:
192,192,121718,1,2,0:0:0:0:
64,192,121834,1,2,0:0:0:0:
448,192,121949,1,2,0:0:0:0:
320,192,122064,1,2,0:0:0:0:
64,192,122180,1,2,0:0:0:0:
192,192,122295,1,2,0:0:0:0:
448,192,122411,1,2,0:0:0:0:
64,192,122641,1,2,0:0:0:0:
448,192,122872,1,2,0:0:0:0:
64,192,123103,1,2,0:0:0:0:
64,192,123334,128,0,123564:0:0:0:0:
448,192,123334,1,2,0:0:0:0:
320,192,123564,1,0,0:0:0:0:
448,192,123564,1,0,0:0:0:0:
192,192,123680,128,0,123911:0:0:0:0:
64,192,123911,1,0,0:0:0:0:
448,192,123911,1,0,0:0:0:0:
320,192,124026,128,0,124257:0:0:0:0:
192,192,124257,1,0,0:0:0:0:
448,192,124257,1,0,0:0:0:0:
64,192,124372,128,0,124603:0:0:0:0:
448,192,124603,1,0,0:0:0:0:
192,192,124718,1,0,0:0:0:0:
320,192,124718,128,0,124949:0:0:0:0:
192,192,124949,128,0,125180:0:0:0:0:
64,192,124949,1,0,0:0:0:0:
448,192,125180,128,0,125411:0:0:0:0:
64,192,125180,1,0,0:0:0:0:
64,192,125411,1,0,0:0:0:0:
192,192,125411,1,0,0:0:0:0:
320,192,125526,128,0,125757:0:0:0:0:
64,192,125757,1,0,0:0:0:0:
448,192,125757,1,0,0:0:0:0:
192,192,125872,128,0,126103:0:0:0:0:
448,192,126103,1,0,0:0:0:0:
64,192,126103,1,0,0:0:0:0:
320,192,126218,128,0,126449:0:0:0:0:
448,192,126449,1,0,0:0:0:0:
192,192,126564,1,0,0:0:0:0:
64,192,126564,128,0,126795:0:0:0:0:
448,192,126795,1,0,0:0:0:0:
320,192,126795,128,0,127026:0:0:0:0:
192,192,127026,128,0,127257:0:0:0:0:
64,192,127026,1,4,0:0:0:0:
448,192,127026,1,0,0:0:0:0:
320,192,127257,1,0,0:0:0:0:
64,192,127257,1,0,0:0:0:0:
448,192,127372,128,0,127603:0:0:0:0:
64,192,127603,1,0,0:0:0:0:
320,192,127603,1,0,0:0:0:0:
192,192,127718,128,0,127949:0:0:0:0:
448,192,127949,1,0,0:0:0:0:
64,192,127949,1,0,0:0:0:0:
320,192,128064,128,0,128295:0:0:0:0:
448,192,128295,1,0,0:0:0:0:
64,192,128411,128,0,128641:0:0:0:0:
192,192,128411,1,0,0:0:0:0:
192,192,128641,128,0,128872:0:0:0:0:
320,192,128641,1,0,0:0:0:0:
448,192,128872,128,0,129103:0:0:0:0:
320,192,129103,1,0,0:0:0:0:
64,192,129103,1,0,0:0:0:0:
192,192,129218,128,0,129449:0:0:0:0:
64,192,129449,1,0,0:0:0:0:
320,192,129449,1,0,0:0:0:0:
448,192,129564,128,0,129795:0:0:0:0:
320,192,129795,1,0,0:0:0:0:
64,192,129795,1,0,0:0:0:0:
192,192,129911,128,0,130141:0:0:0:0:
448,192,130141,1,0,0:0:0:0:
64,192,130257,128,0,130488:0:0:0:0:
320,192,130257,1,0,0:0:0:0:
320,192,130488,128,0,130718:0:0:0:0:
448,192,130488,1,0,0:0:0:0:
192,192,130718,1,0,0:0:0:0:
448,192,130718,128,0,130949:0:0:0:0:
192,192,130949,1,0,0:0:0:0:
320,192,130949,1,0,0:0:0:0:
64,192,131064,128,0,131295:0:0:0:0:
448,192,131295,1,0,0:0:0:0:
192,192,131295,1,0,0:0:0:0:
320,192,131411,128,0,131641:0:0:0:0:
448,192,131641,1,0,0:0:0:0:
64,192,131641,1,0,0:0:0:0:
192,192,131757,128,0,131988:0:0:0:0:
64,192,131988,1,0,0:0:0:0:
320,192,132103,1,0,0:0:0:0:
448,192,132103,128,0,132334:0:0:0:0:
320,192,132334,128,0,132564:0:0:0:0:
192,192,132334,1,0,0:0:0:0:
64,192,132564,128,0,132795:0:0:0:0:
192,192,132795,1,0,0:0:0:0:
448,192,132795,1,0,0:0:0:0:
320,192,132911,128,0,133141:0:0:0:0:
192,192,133141,1,0,0:0:0:0:
448,192,133141,1,0,0:0:0:0:
64,192,133257,128,0,133488:0:0:0:0:
192,192,133488,1,0,0:0:0:0:
448,192,133488,1,0,0:0:0:0:
320,192,133603,128,0,133834:0:0:0:0:
64,192,133834,1,0,0:0:0:0:
448,192,133949,128,0,134180:0:0:0:0:
192,192,133949,1,0,0:0:0:0:
192,192,134180,128,0,134411:0:0:0:0:
64,192,134180,1,0,0:0:0:0:
320,192,134411,1,4,0:0:0:0:
448,192,134411,1,0,0:0:0:0:
64,192,134526,1,8,0:0:0:0:
64,192,134641,1,8,0:0:0:0:
320,192,134872,1,0,0:0:0:0:
192,192,134988,1,8,0:0:0:0:
192,192,135103,1,8,0:0:0:0:
64,192,135334,1,0,0:0:0:0:
320,192,135449,1,8,0:0:0:0:
320,192,135564,1,8,0:0:0:0:
192,192,135795,1,0,0:0:0:0:
448,192,135911,1,8,0:0:0:0:
448,192,136026,1,8,0:0:0:0:
320,192,136257,1,0,0:0:0:0:
192,192,136372,1,8,0:0:0:0:
192,192,136488,1,8,0:0:0:0:
64,192,136718,1,0,0:0:0:0:
320,192,136834,1,8,0:0:0:0:
320,192,136949,1,8,0:0:0:0:
448,192,137180,1,0,0:0:0:0:
64,192,137295,1,8,0:0:0:0:
64,192,137411,1,8,0:0:0:0:
320,192,137641,1,0,0:0:0:0:
192,192,137757,1,8,0:0:0:0:
192,192,137872,1,8,0:0:0:0:
64,192,138103,1,0,0:0:0:0:
448,192,138218,1,8,0:0:0:0:
448,192,138334,1,8,0:0:0:0:
192,192,138564,1,0,0:0:0:0:
320,192,138680,1,8,0:0:0:0:
320,192,138795,1,8,0:0:0:0:
64,192,139026,1,0,0:0:0:0:
448,192,139141,1,8,0:0:0:0:
448,192,139257,1,8,0:0:0:0:
320,192,139488,1,0,0:0:0:0:
64,192,139603,1,8,0:0:0:0:
64,192,139718,1,8,0:0:0:0:
192,192,139949,1,0,0:0:0:0:
320,192,140064,1,8,0:0:0:0:
320,192,140180,1,8,0:0:0:0:
448,192,140411,1,0,0:0:0:0:
192,192,140526,1,8,0:0:0:0:
192,192,140641,1,8,0:0:0:0:
64,192,140872,1,0,0:0:0:0:
448,192,140988,1,8,0:0:0:0:
448,192,141103,1,8,0:0:0:0:
320,192,141334,1,0,0:0:0:0:
192,192,141449,1,8,0:0:0:0:
192,192,141564,1,8,0:0:0:0:
64,192,141795,1,4,0:0:0:0:
192,192,141795,1,0,0:0:0:0:
448,192,141911,1,8,0:0:0:0:
448,192,142026,1,8,0:0:0:0:
192,192,142257,1,0,0:0:0:0:
320,192,142372,1,8,0:0:0:0:
320,192,142488,1,8,0:0:0:0:
448,192,142718,1,0,0:0:0:0:
192,192,142834,1,8,0:0:0:0:
192,192,142949,1,8,0:0:0:0:
320,192,143180,1,0,0:0:0:0:
64,192,143295,1,8,0:0:0:0:
64,192,143411,1,8,0:0:0:0:
192,192,143641,1,4,0:0:0:0:
64,192,143641,1,0,0:0:0:0:
320,192,143757,1,8,0:0:0:0:
320,192,143872,1,8,0:0:0:0:
448,192,144103,1,0,0:0:0:0:
192,192,144218,1,8,0:0:0:0:
192,192,144334,1,8,0:0:0:0:
64,192,144564,1,0,0:0:0:0:
448,192,144680,1,8,0:0:0:0:
448,192,144795,1,8,0:0:0:0:
192,192,145026,1,0,0:0:0:0:
320,192,145141,1,8,0:0:0:0:
320,192,145257,1,8,0:0:0:0:
448,192,145488,1,4,0:0:0:0:
320,192,145488,1,0,0:0:0:0:
64,192,145603,1,8,0:0:0:0:
64,192,145718,1,8,0:0:0:0:
320,192,145949,1,0,0:0:0:0:
192,192,146064,1,8,0:0:0:0:
192,192,146180,1,8,0:0:0:0:
192,192,146411,1,0,0:0:0:0:
64,192,146411,1,4,0:0:0:0:
320,192,146526,1,8,0:0:0:0:
320,192,146641,1,8,0:0:0:0:
192,192,146872,1,0,0:0:0:0:
448,192,146988,1,8,0:0:0:0:
448,192,147103,1,8,0:0:0:0:
64,192,147334,1,12,0:0:0:0:
448,192,147334,1,8,0:0:0:0:
192,192,147449,1,0,0:0:0:0:
320,192,147564,1,0,0:0:0:0:
448,192,147680,1,0,0:0:0:0:
64,192,147795,1,0,0:0:0:0:
192,192,147911,1,0,0:0:0:0:
320,192,148026,1,0,0:0:0:0:
448,192,148141,1,0,0:0:0:0:
64,192,148257,1,0,0:0:0:0:
192,192,148372,1,0,0:0:0:0:
320,192,148488,1,0,0:0:0:0:
448,192,148603,1,0,0:0:0:0:
64,192,148718,128,0,149180:0:0:0:0:
192,192,148718,1,0,0:0:0:0:
320,192,148834,1,0,0:0:0:0:
448,192,148949,1,0,0:0:0:0:
192,192,149064,1,0,0:0:0:0:
320,192,149180,1,6,0:0:0:0:
448,192,149180,1,2,0:0:0:0:
192,192,149295,1,0,0:0:0:0:
320,192,149411,1,10,0:0:0:0:
64,192,149411,1,10,0:0:0:0:
192,192,149641,1,2,0:0:0:0:
448,192,149641,1,2,0:0:0:0:
64,192,149757,1,0,0:0:0:0:
320,192,149872,1,10,0:0:0:0:
448,192,149872,1,10,0:0:0:0:
192,192,149988,1,0,0:0:0:0:
64,192,150103,1,2,0:0:0:0:
448,192,150103,1,2,0:0:0:0:
192,192,150334,1,10,0:0:0:0:
320,192,150334,1,10,0:0:0:0:
448,192,150564,1,2,0:0:0:0:
448,192,150680,1,0,0:0:0:0:
192,192,150795,1,10,0:0:0:0:
192,192,150911,1,0,0:0:0:0:
448,192,151026,1,2,0:0:0:0:
320,192,151026,1,2,0:0:0:0:
64,192,151141,1,0,0:0:0:0:
192,192,151257,1,10,0:0:0:0:
448,192,151257,1,10,0:0:0:0:
320,192,151488,1,2,0:0:0:0:
64,192,151488,1,2,0:0:0:0:
192,192,151603,1,0,0:0:0:0:
320,192,151718,1,10,0:0:0:0:
448,192,151718,1,10,0:0:0:0:
64,192,151834,1,0,0:0:0:0:
192,192,151949,1,2,0:0:0:0:
448,192,151949,1,2,0:0:0:0:
320,192,152180,1,10,0:0:0:0:
192,192,152180,1,10,0:0:0:0:
64,192,152411,128,2,152526:0:0:0:0:
448,192,152411,128,2,152526:0:0:0:0:
320,192,152526,1,2,0:0:0:0:
192,192,152641,1,10,0:0:0:0:
320,192,152757,1,10,0:0:0:0:
448,192,152757,1,10,0:0:0:0:
192,192,152872,1,2,0:0:0:0:
64,192,152872,1,2,0:0:0:0:
320,192,152988,1,0,0:0:0:0:
448,192,153103,1,10,0:0:0:0:
64,192,153103,1,10,0:0:0:0:
192,192,153334,1,2,0:0:0:0:
320,192,153334,1,2,0:0:0:0:
64,192,153449,1,0,0:0:0:0:
192,192,153564,1,10,0:0:0:0:
448,192,153564,1,10,0:0:0:0:
320,192,153680,1,0,0:0:0:0:
64,192,153795,1,2,0:0:0:0:
448,192,153795,1,2,0:0:0:0:
320,192,154026,1,10,0:0:0:0:
448,192,154026,1,10,0:0:0:0:
192,192,154257,1,2,0:0:0:0:
192,192,154372,1,0,0:0:0:0:
448,192,154488,1,10,0:0:0:0:
448,192,154603,1,0,0:0:0:0:
64,192,154718,1,2,0:0:0:0:
192,192,154718,1,2,0:0:0:0:
320,192,154834,1,0,0:0:0:0:
448,192,154949,1,10,0:0:0:0:
192,192,154949,1,10,0:0:0:0:
64,192,155180,1,2,0:0:0:0:
320,192,155180,1,2,0:0:0:0:
448,192,155295,1,0,0:0:0:0:
64,192,155411,1,10,0:0:0:0:
192,192,155411,1,10,0:0:0:0:
320,192,155526,1,0,0:0:0:0:
448,192,155641,1,2,0:0:0:0:
192,192,155641,1,2,0:0:0:0:
192,192,155757,1,2,0:0:0:0:
64,192,155872,1,10,0:0:0:0:
320,192,155872,1,10,0:0:0:0:
448,192,156103,1,2,0:0:0:0:
192,192,156103,1,2,0:0:0:0:
320,192,156218,1,0,0:0:0:0:
448,192,156334,1,2,0:0:0:0:
64,192,156334,1,2,0:0:0:0:
192,192,156449,1,2,0:0:0:0:
64,192,156564,1,2,0:0:0:0:
320,192,156564,1,6,0:0:0:0:
448,192,156680,1,0,0:0:0:0:
192,192,156795,1,10,0:0:0:0:
64,192,156795,1,10,0:0:0:0:
192,192,157026,1,2,0:0:0:0:
448,192,157026,1,2,0:0:0:0:
320,192,157141,1,0,0:0:0:0:
64,192,157257,1,10,0:0:0:0:
192,192,157257,1,10,0:0:0:0:
448,192,157372,1,0,0:0:0:0:
320,192,157488,1,2,0:0:0:0:
64,192,157488,1,2,0:0:0:0:
192,192,157718,1,10,0:0:0:0:
320,192,157718,1,10,0:0:0:0:
448,192,157949,1,2,0:0:0:0:
448,192,158064,1,0,0:0:0:0:
64,192,158180,1,10,0:0:0:0:
64,192,158295,1,0,0:0:0:0:
448,192,158411,1,2,0:0:0:0:
320,192,158411,1,2,0:0:0:0:
192,192,158526,1,0,0:0:0:0:
448,192,158641,1,10,0:0:0:0:
64,192,158641,1,10,0:0:0:0:
320,192,158872,1,2,0:0:0:0:
192,192,158872,1,2,0:0:0:0:
448,192,158988,1,0,0:0:0:0:
64,192,159103,1,10,0:0:0:0:
320,192,159103,1,10,0:0:0:0:
192,192,159218,1,0,0:0:0:0:
64,192,159334,1,2,0:0:0:0:
448,192,159334,128,2,159564:0:0:0:0:
192,192,159564,1,10,0:0:0:0:
64,192,159564,1,10,0:0:0:0:
320,192,159795,128,2,160026:0:0:0:0:
448,192,159795,1,2,0:0:0:0:
64,192,160026,128,2,160257:0:0:0:0:
192,192,160026,1,2,0:0:0:0:
192,192,160257,1,2,0:0:0:0:
448,192,160257,1,2,0:0:0:0:
320,192,160372,1,0,0:0:0:0:
64,192,160488,1,10,0:0:0:0:
192,192,160488,1,10,0:0:0:0:
320,192,160718,1,2,0:0:0:0:
448,192,160718,1,2,0:0:0:0:
192,192,160834,1,0,0:0:0:0:
448,192,160949,1,10,0:0:0:0:
64,192,160949,1,10,0:0:0:0:
320,192,161064,1,0,0:0:0:0:
192,192,161180,1,2,0:0:0:0:
64,192,161180,1,2,0:0:0:0:
320,192,161411,1,10,0:0:0:0:
192,192,161411,1,10,0:0:0:0:
64,192,161641,1,2,0:0:0:0:
64,192,161757,1,0,0:0:0:0:
320,192,161872,1,10,0:0:0:0:
320,192,161988,1,0,0:0:0:0:
64,192,162103,1,2,0:0:0:0:
192,192,162103,1,2,0:0:0:0:
64,192,162334,1,8,0:0:0:0:
320,192,162334,1,8,0:0:0:0:
448,192,162564,128,2,162680:0:0:0:0:
64,192,162564,1,2,0:0:0:0:
192,192,162795,128,10,162911:0:0:0:0:
320,192,162795,1,10,0:0:0:0:
320,192,163141,1,0,0:0:0:0:
320,192,163372,1,0,0:0:0:0:
320,192,163603,1,0,0:0:0:0:
192,192,163718,1,2,0:0:0:0:
64,192,163718,1,2,0:0:0:0:
320,192,163834,1,2,0:0:0:0:
448,192,163834,1,2,0:0:0:0:
64,192,163949,1,2,0:0:0:0:
192,192,163949,1,6,0:0:0:0:
320,192,164064,1,0,0:0:0:0:
64,192,164180,1,10,0:0:0:0:
448,192,164180,1,10,0:0:0:0:
192,192,164411,1,2,0:0:0:0:
320,192,164411,1,2,0:0:0:0:
448,192,164526,1,0,0:0:0:0:
64,192,164641,1,10,0:0:0:0:
320,192,164641,1,10,0:0:0:0:
192,192,164757,1,0,0:0:0:0:
448,192,164872,1,2,0:0:0:0:
64,192,164872,1,2,0:0:0:0:
192,192,165103,1,10,0:0:0:0:
64,192,165103,1,10,0:0:0:0:
320,192,165334,1,2,0:0:0:0:
320,192,165449,1,0,0:0:0:0:
64,192,165564,1,10,0:0:0:0:
64,192,165680,1,0,0:0:0:0:
320,192,165795,1,2,0:0:0:0:
448,192,165795,1,2,0:0:0:0:
192,192,165911,1,0,0:0:0:0:
64,192,166026,1,10,0:0:0:0:
320,192,166026,1,10,0:0:0:0:
192,192,166257,1,2,0:0:0:0:
448,192,166257,1,2,0:0:0:0:
64,192,166372,1,0,0:0:0:0:
320,192,166488,1,10,0:0:0:0:
448,192,166488,1,10,0:0:0:0:
192,192,166603,1,0,0:0:0:0:
448,192,166718,1,2,0:0:0:0:
64,192,166718,1,2,0:0:0:0:
192,192,166949,1,10,0:0:0:0:
64,192,166949,1,10,0:0:0:0:
320,192,167064,1,2,0:0:0:0:
64,192,167180,128,2,167295:0:0:0:0:
448,192,167180,128,2,167295:0:0:0:0:
192,192,167295,1,2,0:0:0:0:
320,192,167411,1,2,0:0:0:0:
64,192,167526,1,2,0:0:0:0:
192,192,167526,1,2,0:0:0:0:
320,192,167641,1,2,0:0:0:0:
448,192,167641,1,2,0:0:0:0:
64,192,167757,1,0,0:0:0:0:
448,192,167872,1,10,0:0:0:0:
192,192,167872,1,10,0:0:0:0:
64,192,168103,1,2,0:0:0:0:
320,192,168103,1,2,0:0:0:0:
192,192,168218,1,0,0:0:0:0:
320,192,168334,1,10,0:0:0:0:
448,192,168334,1,10,0:0:0:0:
64,192,168449,1,0,0:0:0:0:
192,192,168564,1,2,0:0:0:0:
448,192,168564,1,2,0:0:0:0:
320,192,168795,1,10,0:0:0:0:
192,192,168795,1,10,0:0:0:0:
64,192,169026,1,2,0:0:0:0:
64,192,169141,1,0,0:0:0:0:
448,192,169257,1,10,0:0:0:0:
448,192,169372,1,0,0:0:0:0:
192,192,169488,1,2,0:0:0:0:
64,192,169488,1,2,0:0:0:0:
192,192,169603,1,2,0:0:0:0:
320,192,169718,1,10,0:0:0:0:
448,192,169718,1,10,0:0:0:0:
64,192,169949,1,2,0:0:0:0:
192,192,169949,1,2,0:0:0:0:
320,192,170180,1,8,0:0:0:0:
320,192,170295,1,8,0:0:0:0:
64,192,170411,128,2,170641:0:0:0:0:
192,192,170411,1,2,0:0:0:0:
448,192,170526,1,0,0:0:0:0:
448,192,170757,128,2,170988:0:0:0:0:
320,192,170757,1,2,0:0:0:0:
192,192,170872,1,0,0:0:0:0:
192,192,171103,128,2,171334:0:0:0:0:
64,192,171103,1,2,0:0:0:0:
320,192,171218,1,0,0:0:0:0:
448,192,171334,1,6,0:0:0:0:
64,192,171449,1,0,0:0:0:0:
448,192,171564,1,10,0:0:0:0:
320,192,171564,1,10,0:0:0:0:
64,192,171795,1,2,0:0:0:0:
320,192,171795,1,2,0:0:0:0:
448,192,171911,1,0,0:0:0:0:
64,192,172026,1,10,0:0:0:0:
192,192,172026,1,10,0:0:0:0:
320,192,172141,1,0,0:0:0:0:
448,192,172257,1,2,0:0:0:0:
64,192,172257,1,2,0:0:0:0:
320,192,172488,1,10,0:0:0:0:
192,192,172488,1,10,0:0:0:0:
64,192,172718,1,2,0:0:0:0:
64,192,172834,1,0,0:0:0:0:
320,192,172949,1,10,0:0:0:0:
320,192,173064,1,2,0:0:0:0:
64,192,173180,1,2,0:0:0:0:
192,192,173180,1,2,0:0:0:0:
448,192,173295,1,0,0:0:0:0:
320,192,173411,1,10,0:0:0:0:
64,192,173411,1,10,0:0:0:0:
192,192,173641,1,2,0:0:0:0:
448,192,173641,1,2,0:0:0:0:
320,192,173757,1,0,0:0:0:0:
192,192,173872,1,10,0:0:0:0:
64,192,173872,1,10,0:0:0:0:
448,192,173988,1,0,0:0:0:0:
320,192,174103,1,2,0:0:0:0:
64,192,174103,1,2,0:0:0:0:
320,192,174334,1,10,0:0:0:0:
192,192,174334,1,10,0:0:0:0:
64,192,174564,128,2,174680:0:0:0:0:
448,192,174564,128,2,174680:0:0:0:0:
192,192,174680,1,2,0:0:0:0:
320,192,174795,1,10,0:0:0:0:
64,192,174911,1,2,0:0:0:0:
192,192,174911,1,2,0:0:0:0:
320,192,175026,1,2,0:0:0:0:
448,192,175026,1,2,0:0:0:0:
320,192,175141,1,2,0:0:0:0:
448,192,175257,1,10,0:0:0:0:
64,192,175257,1,10,0:0:0:0:
320,192,175488,1,2,0:0:0:0:
192,192,175488,1,2,0:0:0:0:
448,192,175603,1,0,0:0:0:0:
320,192,175718,1,10,0:0:0:0:
64,192,175718,1,10,0:0:0:0:
192,192,175834,1,0,0:0:0:0:
448,192,175949,1,2,0:0:0:0:
64,192,175949,1,2,0:0:0:0:
192,192,176180,1,10,0:0:0:0:
64,192,176180,1,10,0:0:0:0:
320,192,176411,1,2,0:0:0:0:
320,192,176526,1,0,0:0:0:0:
64,192,176641,1,10,0:0:0:0:
64,192,176757,1,0,0:0:0:0:
320,192,176872,1,2,0:0:0:0:
448,192,176872,1,2,0:0:0:0:
192,192,176988,1,8,0:0:0:0:
64,192,176988,1,0,0:0:0:0:
320,192,177103,1,0,0:0:0:0:
448,192,177103,1,0,0:0:0:0:
64,192,177218,1,8,0:0:0:0:
192,192,177276,1,8,0:0:0:0:
320,192,177334,128,8,177795:0:0:0:0:
448,192,177334,1,8,0:0:0:0:
192,192,177795,1,2,0:0:0:0:
192,192,178026,1,8,0:0:0:0:
192,192,178141,1,8,0:0:0:0:
448,192,178257,128,0,178488:0:0:0:0:
64,192,178488,1,2,0:0:0:0:
320,192,178488,1,2,0:0:0:0:
192,192,178718,1,6,0:0:0:0:
64,192,178718,1,2,0:0:0:0:
320,192,178834,1,2,0:0:0:0:
192,192,178949,1,2,0:0:0:0:
448,192,179064,1,2,0:0:0:0:
320,192,179180,1,2,0:0:0:0:
64,192,179180,1,2,0:0:0:0:
192,192,179295,1,2,0:0:0:0:
448,192,179411,1,2,0:0:0:0:
320,192,179526,1,2,0:0:0:0:
448,192,179641,1,2,0:0:0:0:
64,192,179641,1,2,0:0:0:0:
192,192,179757,1,2,0:0:0:0:
320,192,179872,1,2,0:0:0:0:
448,192,179988,1,2,0:0:0:0:
64,192,180103,1,2,0:0:0:0:
192,192,180103,1,2,0:0:0:0:
320,192,180218,1,2,0:0:0:0:
64,192,180334,1,2,0:0:0:0:
448,192,180449,128,2,180564:0:0:0:0:
320,192,180564,1,2,0:0:0:0:
192,192,180564,1,2,0:0:0:0:
64,192,180680,1,2,0:0:0:0:
320,192,180795,1,2,0:0:0:0:
192,192,180911,1,2,0:0:0:0:
448,192,181026,1,2,0:0:0:0:
64,192,181026,1,2,0:0:0:0:
320,192,181141,1,2,0:0:0:0:
192,192,181257,1,2,0:0:0:0:
448,192,181372,1,2,0:0:0:0:
320,192,181488,1,2,0:0:0:0:
64,192,181488,1,2,0:0:0:0:
192,192,181603,1,2,0:0:0:0:
320,192,181718,1,2,0:0:0:0:
448,192,181834,1,2,0:0:0:0:
192,192,181949,1,2,0:0:0:0:
64,192,181949,1,2,0:0:0:0:
320,192,182064,1,2,0:0:0:0:
64,192,182180,128,2,182411:0:0:0:0:
192,192,182411,1,2,0:0:0:0:
448,192,182411,1,2,0:0:0:0:
320,192,182526,1,2,0:0:0:0:
192,192,182641,1,2,0:0:0:0:
64,192,182757,1,2,0:0:0:0:
448,192,182872,1,2,0:0:0:0:
320,192,182872,1,2,0:0:0:0:
192,192,182988,1,2,0:0:0:0:
448,192,183103,1,2,0:0:0:0:
64,192,183218,1,2,0:0:0:0:
320,192,183334,1,2,0:0:0:0:
192,192,183334,1,2,0:0:0:0:
448,192,183449,1,2,0:0:0:0:
192,192,183564,1,2,0:0:0:0:
320,192,183680,1,2,0:0:0:0:
64,192,183795,1,2,0:0:0:0:
448,192,183795,1,2,0:0:0:0:
192,192,183911,1,2,0:0:0:0:
320,192,184026,1,2,0:0:0:0:
64,192,184141,128,2,184257:0:0:0:0:
192,192,184257,1,2,0:0:0:0:
448,192,184257,1,2,0:0:0:0:
320,192,184372,1,2,0:0:0:0:
192,192,184488,1,2,0:0:0:0:
64,192,184603,1,2,0:0:0:0:
448,192,184718,1,2,0:0:0:0:
320,192,184718,128,2,184834:0:0:0:0:
64,192,184834,1,2,0:0:0:0:
192,192,184949,128,2,185064:0:0:0:0:
448,192,185064,1,2,0:0:0:0:
320,192,185180,128,8,185411:0:0:0:0:
64,192,185411,128,8,185641:0:0:0:0:
448,192,185641,128,8,186103:0:0:0:0:
192,192,185641,128,8,185872:0:0:0:0:
64,192,185872,1,0,0:0:0:0:
192,192,185988,1,0,0:0:0:0:
320,192,186103,1,6,0:0:0:0:
64,192,186103,1,2,0:0:0:0:
192,192,186218,1,2,0:0:0:0:
448,192,186334,1,2,0:0:0:0:
320,192,186449,1,2,0:0:0:0:
192,192,186564,1,2,0:0:0:0:
64,192,186564,1,2,0:0:0:0:
320,192,186680,1,2,0:0:0:0:
448,192,186795,1,2,0:0:0:0:
64,192,186911,1,2,0:0:0:0:
320,192,187026,1,2,0:0:0:0:
448,192,187026,1,2,0:0:0:0:
192,192,187141,1,2,0:0:0:0:
320,192,187257,1,2,0:0:0:0:
64,192,187372,1,2,0:0:0:0:
448,192,187488,1,2,0:0:0:0:
192,192,187488,1,2,0:0:0:0:
320,192,187603,1,2,0:0:0:0:
192,192,187718,1,2,0:0:0:0:
448,192,187834,128,2,187949:0:0:0:0:
320,192,187949,1,2,0:0:0:0:
64,192,187949,1,2,0:0:0:0:
192,192,188064,1,2,0:0:0:0:
448,192,188180,1,2,0:0:0:0:
320,192,188295,1,2,0:0:0:0:
192,192,188411,1,2,0:0:0:0:
64,192,188411,1,2,0:0:0:0:
448,192,188526,1,2,0:0:0:0:
320,192,188641,1,2,0:0:0:0:
192,192,188757,1,2,0:0:0:0:
64,192,188872,1,2,0:0:0:0:
448,192,188872,1,2,0:0:0:0:
320,192,188988,1,2,0:0:0:0:
192,192,189103,1,2,0:0:0:0:
448,192,189218,1,2,0:0:0:0:
320,192,189334,1,2,0:0:0:0:
64,192,189334,1,2,0:0:0:0:
192,192,189449,128,2,189564:0:0:0:0:
320,192,189564,1,2,0:0:0:0:
448,192,189680,128,0,189795:0:0:0:0:
64,192,189680,128,2,189795:0:0:0:0:
192,192,189795,1,2,0:0:0:0:
320,192,189795,1,2,0:0:0:0:
448,192,189911,1,2,0:0:0:0:
64,192,190026,1,2,0:0:0:0:
192,192,190141,1,2,0:0:0:0:
320,192,190257,1,2,0:0:0:0:
448,192,190257,1,2,0:0:0:0:
192,192,190372,1,2,0:0:0:0:
64,192,190488,1,2,0:0:0:0:
320,192,190603,1,2,0:0:0:0:
448,192,190718,1,2,0:0:0:0:
192,192,190718,1,2,0:0:0:0:
64,192,190834,1,2,0:0:0:0:
448,192,190949,1,2,0:0:0:0:
320,192,191064,1,2,0:0:0:0:
192,192,191180,1,2,0:0:0:0:
64,192,191180,1,2,0:0:0:0:
448,192,191295,1,2,0:0:0:0:
192,192,191411,1,2,0:0:0:0:
320,192,191526,128,2,191641:0:0:0:0:
448,192,191641,128,0,192564:0:0:0:0:
192,192,191641,128,0,192103:0:0:0:0:
64,192,192103,128,8,192564:0:0:0:0:
320,192,192564,1,0,0:0:0:0:
192,192,192795,1,0,0:0:0:0:
448,192,192911,1,0,0:0:0:0:
64,192,193026,1,2,0:0:0:0:
192,192,193026,1,2,0:0:0:0:
320,192,193026,1,2,0:0:0:0:
192,192,193488,1,6,0:0:0:0:
448,192,193488,1,2,0:0:0:0:
320,192,193603,1,2,0:0:0:0:
192,192,193718,1,2,0:0:0:0:
64,192,193834,1,2,0:0:0:0:
320,192,193949,1,2,0:0:0:0:
448,192,193949,1,2,0:0:0:0:
192,192,194064,1,2,0:0:0:0:
320,192,194180,1,2,0:0:0:0:
64,192,194295,1,2,0:0:0:0:
192,192,194411,1,2,0:0:0:0:
448,192,194411,1,2,0:0:0:0:
320,192,194526,1,2,0:0:0:0:
64,192,194641,1,2,0:0:0:0:
192,192,194757,1,2,0:0:0:0:
320,192,194872,1,2,0:0:0:0:
448,192,194872,1,2,0:0:0:0:
192,192,194988,1,2,0:0:0:0:
64,192,195103,1,2,0:0:0:0:
320,192,195218,128,2,195334:0:0:0:0:
192,192,195334,1,2,0:0:0:0:
64,192,195334,1,2,0:0:0:0:
448,192,195449,1,2,0:0:0:0:
192,192,195564,1,2,0:0:0:0:
320,192,195680,1,2,0:0:0:0:
64,192,195795,1,2,0:0:0:0:
448,192,195795,1,2,0:0:0:0:
192,192,195911,1,2,0:0:0:0:
320,192,196026,1,2,0:0:0:0:
64,192,196141,1,2,0:0:0:0:
192,192,196257,1,2,0:0:0:0:
448,192,196257,1,2,0:0:0:0:
320,192,196372,1,2,0:0:0:0:
448,192,196603,1,2,0:0:0:0:
64,192,196718,1,2,0:0:0:0:
320,192,196718,1,2,0:0:0:0:
192,192,196834,1,2,0:0:0:0:
448,192,196949,128,2,197180:0:0:0:0:
64,192,197180,1,2,0:0:0:0:
320,192,197180,1,2,0:0:0:0:
192,192,197295,1,2,0:0:0:0:
320,192,197411,1,2,0:0:0:0:
448,192,197526,1,2,0:0:0:0:
192,192,197641,1,2,0:0:0:0:
64,192,197641,1,2,0:0:0:0:
320,192,197757,1,2,0:0:0:0:
64,192,197872,1,2,0:0:0:0:
192,192,197988,1,2,0:0:0:0:
320,192,198103,1,2,0:0:0:0:
448,192,198103,1,2,0:0:0:0:
192,192,198218,1,2,0:0:0:0:
64,192,198334,1,2,0:0:0:0:
320,192,198449,1,2,0:0:0:0:
192,192,198564,1,2,0:0:0:0:
448,192,198564,1,2,0:0:0:0:
64,192,198680,1,2,0:0:0:0:
320,192,198795,1,2,0:0:0:0:
192,192,198911,1,2,0:0:0:0:
64,192,199026,1,6,0:0:0:0:
448,192,199026,1,2,0:0:0:0:
320,192,199257,1,6,0:0:0:0:
64,192,199257,1,2,0:0:0:0:
192,192,199488,1,6,0:0:0:0:
448,192,199488,1,2,0:0:0:0:
448,192,199718,1,6,0:0:0:0:
64,192,199718,1,2,0:0:0:0:
64,192,199949,1,8,0:0:0:0:
320,192,199949,128,8,200295:0:0:0:0:
448,192,200295,1,8,0:0:0:0:
192,192,200411,1,8,0:0:0:0:
64,192,200411,1,0,0:0:0:0:
448,192,200526,1,10,0:0:0:0:
64,192,200641,1,10,0:0:0:0:
448,192,200757,1,10,0:0:0:0:
320,192,200872,1,2,0:0:0:0:
192,192,200872,1,2,0:0:0:0:
192,192,201103,1,2,0:0:0:0:
320,192,201103,1,2,0:0:0:0:
64,192,201334,128,2,201564:0:0:0:0:
448,192,201334,1,2,0:0:0:0:
320,192,201564,1,2,0:0:0:0:
192,192,201680,128,2,201795:0:0:0:0:
320,192,201795,1,2,0:0:0:0:
448,192,201795,1,2,0:0:0:0:
320,192,202141,1,2,0:0:0:0:
448,192,202141,1,2,0:0:0:0:
320,192,202488,1,2,0:0:0:0:
448,192,202488,1,2,0:0:0:0:
192,192,202718,128,2,202949:0:0:0:0:
320,192,202949,1,2,0:0:0:0:
448,192,202949,1,2,0:0:0:0:
192,192,203064,1,2,0:0:0:0:
64,192,203064,1,2,0:0:0:0:
320,192,203295,128,2,203411:0:0:0:0:
192,192,203411,1,2,0:0:0:0:
64,192,203411,1,2,0:0:0:0:
448,192,203526,1,2,0:0:0:0:
320,192,203641,1,2,0:0:0:0:
64,192,203641,1,2,0:0:0:0:
320,192,203988,1,2,0:0:0:0:
64,192,203988,1,2,0:0:0:0:
64,192,204334,1,0,0:0:0:0:
192,192,204449,1,0,0:0:0:0:
448,192,204564,128,8,204795:0:0:0:0:
64,192,204795,1,8,0:0:0:0:
64,192,204911,1,8,0:0:0:0:
320,192,205026,1,8,0:0:0:0:
320,192,205141,1,8,0:0:0:0:
192,192,205257,128,8,205488:0:0:0:0:
448,192,205488,128,8,205718:0:0:0:0:
192,192,205718,1,8,0:0:0:0:
192,192,205834,1,8,0:0:0:0:
320,192,205949,1,8,0:0:0:0:
320,192,206064,1,8,0:0:0:0:
64,192,206180,128,8,206411:0:0:0:0:
192,192,206411,1,2,0:0:0:0:
448,192,206411,1,2,0:0:0:0:
320,192,206757,1,2,0:0:0:0:
192,192,206757,1,2,0:0:0:0:
64,192,206988,1,2,0:0:0:0:
320,192,206988,1,2,0:0:0:0:
192,192,207334,1,2,0:0:0:0:
448,192,207334,1,2,0:0:0:0:
448,192,207911,1,2,0:0:0:0:
320,192,207911,1,2,0:0:0:0:
64,192,208026,1,2,0:0:0:0:
192,192,208026,1,2,0:0:0:0:
192,192,208257,1,2,0:0:0:0:
320,192,208257,1,6,0:0:0:0:
