osu file format v14

[General]
AudioFilename: 4. DJKurara - Japanese Transformation.mp3
AudioLeadIn: 1500
PreviewTime: 89872
Countdown: 0
SampleSet: Normal
StackLeniency: 0.7
Mode: 3
LetterboxInBreaks: 0
SpecialStyle: 0
WidescreenStoryboard: 1

[Editor]
Bookmarks: 85949,149180
DistanceSpacing: 1
BeatDivisor: 4
GridSize: 16
TimelineZoom: 2.3

[Metadata]
Title:Japanese Transformation
TitleUnicode:Japanese Transformation
Artist:DJKurara
ArtistUnicode:DJKurara
Creator:XeoStyle
Version:Blocko's Easy
Source:
Tags:KyokudoCore Records KCRCD003 Tanoshi Torture J-Speedcore Happy J-Core jpt Blocko Todestrieb _underjoy Fullerene-
BeatmapID:1115520
BeatmapSetID:520438

[Difficulty]
HPDrainRate:6.5
CircleSize:4
OverallDifficulty:6.5
ApproachRate:9
SliderMultiplier:1.4
SliderTickRate:1

[Events]
//Background and Video events
0,0,"Japanese Transformation.jpg",0,0
//Break Periods
//Storyboard Layer 0 (Background)
//Storyboard Layer 1 (Fail)
//Storyboard Layer 2 (Pass)
//Storyboard Layer 3 (Foreground)
//Storyboard Sound Samples

[TimingPoints]
1488,230.769230769231,4,1,1,54,1,0
31026,-100,4,1,1,54,0,1
44872,-100,4,1,1,54,0,0
45795,-100,4,1,1,54,0,1
60564,-100,4,1,1,54,0,0
90103,-100,4,1,1,54,0,1
103949,-100,4,1,1,54,0,0
104872,-100,4,1,1,54,0,1
119641,-100,4,1,1,54,0,0
178718,-100,4,1,1,54,0,1
192564,-100,4,1,1,54,0,0
193488,-100,4,1,1,54,0,1
208257,-100,4,1,1,54,0,0

[HitObjects]
64,192,15334,128,0,16026:0:0:0:0:
320,192,16026,1,2,0:0:0:0:
64,192,16257,1,6,0:0:0:0:
448,192,16257,1,10,0:0:0:0:
192,192,16603,1,2,0:0:0:0:
320,192,16949,1,2,0:0:0:0:
448,192,17295,1,2,0:0:0:0:
64,192,17641,1,2,0:0:0:0:
448,192,17872,128,8,18103:0:0:0:0:
64,192,18103,1,0,0:0:0:0:
320,192,18334,1,8,0:0:0:0:
320,192,18680,1,8,0:0:0:0:
320,192,19026,1,8,0:0:0:0:
320,192,19372,1,8,0:0:0:0:
64,192,19488,1,2,0:0:0:0:
448,192,19603,1,2,0:0:0:0:
64,192,19718,1,2,0:0:0:0:
448,192,19834,1,2,0:0:0:0:
64,192,19949,1,2,0:0:0:0:
192,192,19949,1,2,0:0:0:0:
320,192,20295,1,2,0:0:0:0:
192,192,20641,1,2,0:0:0:0:
320,192,20988,1,2,0:0:0:0:
64,192,21334,128,2,21564:0:0:0:0:
448,192,21564,1,2,0:0:0:0:
320,192,21795,128,8,22257:0:0:0:0:
192,192,22257,128,8,22718:0:0:0:0:
64,192,22718,128,8,23180:0:0:0:0:
320,192,23180,1,8,0:0:0:0:
448,192,23411,128,2,23641:0:0:0:0:
64,192,23641,1,2,0:0:0:0:
192,192,23641,1,6,0:0:0:0:
448,192,23988,1,2,0:0:0:0:
64,192,24334,1,2,0:0:0:0:
448,192,24680,1,2,0:0:0:0:
64,192,25026,1,2,0:0:0:0:
192,192,25257,128,8,25488:0:0:0:0:
320,192,25488,1,2,0:0:0:0:
448,192,25488,1,2,0:0:0:0:
192,192,25834,1,2,0:0:0:0:
320,192,26180,1,2,0:0:0:0:
192,192,26526,1,2,0:0:0:0:
320,192,26872,1,2,0:0:0:0:
448,192,27103,1,2,0:0:0:0:
64,192,27334,1,2,0:0:0:0:
192,192,27334,1,2,0:0:0:0:
320,192,27795,1,2,0:0:0:0:
448,192,27795,1,2,0:0:0:0:
320,192,28257,1,2,0:0:0:0:
64,192,28257,1,2,0:0:0:0:
448,192,28718,1,2,0:0:0:0:
192,192,28718,1,2,0:0:0:0:
192,192,29180,1,2,0:0:0:0:
320,192,29411,1,2,0:0:0:0:
448,192,29641,128,0,30103:0:0:0:0:
192,192,30103,1,2,0:0:0:0:
64,192,30103,1,2,0:0:0:0:
320,192,30795,1,2,0:0:0:0:
64,192,31026,1,6,0:0:0:0:
448,192,31026,1,2,0:0:0:0:
192,192,31257,1,2,0:0:0:0:
320,192,31488,1,2,0:0:0:0:
64,192,31718,1,2,0:0:0:0:
448,192,31949,1,2,0:0:0:0:
320,192,32180,1,2,0:0:0:0:
64,192,32411,1,2,0:0:0:0:
192,192,32641,1,2,0:0:0:0:
448,192,32872,1,2,0:0:0:0:
320,192,33103,1,2,0:0:0:0:
192,192,33334,1,2,0:0:0:0:
448,192,33564,1,2,0:0:0:0:
64,192,33795,1,2,0:0:0:0:
192,192,34026,1,2,0:0:0:0:
448,192,34257,1,2,0:0:0:0:
320,192,34488,1,2,0:0:0:0:
64,192,34718,1,2,0:0:0:0:
192,192,34718,1,2,0:0:0:0:
448,192,34949,1,2,0:0:0:0:
64,192,35180,1,2,0:0:0:0:
192,192,35411,1,2,0:0:0:0:
448,192,35641,1,2,0:0:0:0:
320,192,35872,1,2,0:0:0:0:
192,192,36103,1,2,0:0:0:0:
448,192,36334,1,2,0:0:0:0:
64,192,36564,1,2,0:0:0:0:
320,192,36795,1,2,0:0:0:0:
448,192,37026,1,2,0:0:0:0:
192,192,37257,1,2,0:0:0:0:
64,192,37488,1,2,0:0:0:0:
448,192,37718,1,2,0:0:0:0:
192,192,37949,128,8,38180:0:0:0:0:
320,192,38180,128,8,38411:0:0:0:0:
448,192,38411,1,2,0:0:0:0:
64,192,38411,1,6,0:0:0:0:
192,192,38641,1,2,0:0:0:0:
448,192,38872,1,2,0:0:0:0:
320,192,39103,1,2,0:0:0:0:
192,192,39334,1,2,0:0:0:0:
448,192,39564,1,2,0:0:0:0:
64,192,39795,1,2,0:0:0:0:
320,192,40026,1,2,0:0:0:0:
64,192,40257,1,2,0:0:0:0:
192,192,40488,1,2,0:0:0:0:
448,192,40718,1,2,0:0:0:0:
64,192,40949,1,2,0:0:0:0:
320,192,41180,1,2,0:0:0:0:
192,192,41411,1,2,0:0:0:0:
448,192,41641,128,8,41872:0:0:0:0:
64,192,41872,128,8,42103:0:0:0:0:
320,192,42103,1,2,0:0:0:0:
448,192,42103,1,2,0:0:0:0:
192,192,42334,1,2,0:0:0:0:
448,192,42564,1,2,0:0:0:0:
64,192,42795,1,2,0:0:0:0:
192,192,43026,1,2,0:0:0:0:
320,192,43257,1,2,0:0:0:0:
64,192,43488,1,2,0:0:0:0:
448,192,43718,1,2,0:0:0:0:
192,192,43949,1,2,0:0:0:0:
320,192,44180,1,2,0:0:0:0:
448,192,44411,128,2,44872:0:0:0:0:
64,192,44988,1,8,0:0:0:0:
192,192,45218,1,2,0:0:0:0:
320,192,45334,1,2,0:0:0:0:
448,192,45564,1,8,0:0:0:0:
64,192,45795,1,2,0:0:0:0:
192,192,45795,1,6,0:0:0:0:
320,192,46026,1,2,0:0:0:0:
448,192,46257,1,2,0:0:0:0:
192,192,46488,1,2,0:0:0:0:
64,192,46718,1,2,0:0:0:0:
320,192,46949,1,2,0:0:0:0:
192,192,47180,1,2,0:0:0:0:
448,192,47411,1,2,0:0:0:0:
64,192,47641,1,2,0:0:0:0:
192,192,47872,1,2,0:0:0:0:
320,192,48103,1,2,0:0:0:0:
448,192,48334,1,2,0:0:0:0:
64,192,48564,1,2,0:0:0:0:
320,192,48795,128,2,49026:0:0:0:0:
192,192,49026,1,2,0:0:0:0:
448,192,49257,128,2,49488:0:0:0:0:
64,192,49488,1,2,0:0:0:0:
192,192,49488,1,2,0:0:0:0:
320,192,49718,1,2,0:0:0:0:
64,192,49949,1,2,0:0:0:0:
192,192,50180,1,2,0:0:0:0:
320,192,50411,1,2,0:0:0:0:
192,192,50641,1,2,0:0:0:0:
448,192,50872,1,2,0:0:0:0:
320,192,51103,1,2,0:0:0:0:
64,192,51334,1,2,0:0:0:0:
320,192,51564,1,2,0:0:0:0:
192,192,51795,1,2,0:0:0:0:
448,192,52026,1,2,0:0:0:0:
64,192,52257,1,2,0:0:0:0:
448,192,52488,128,2,53180:0:0:0:0:
64,192,53180,128,2,53872:0:0:0:0:
320,192,53872,1,2,0:0:0:0:
192,192,54103,128,2,54795:0:0:0:0:
448,192,54795,1,2,0:0:0:0:
320,192,55026,128,2,55257:0:0:0:0:
192,192,55372,1,8,0:0:0:0:
320,192,55603,1,8,0:0:0:0:
192,192,55834,1,2,0:0:0:0:
448,192,55949,1,2,0:0:0:0:
320,192,56180,1,2,0:0:0:0:
192,192,56411,1,2,0:0:0:0:
64,192,56641,1,2,0:0:0:0:
320,192,56872,1,2,0:0:0:0:
192,192,57334,1,10,0:0:0:0:
320,192,57795,1,10,0:0:0:0:
192,192,58026,1,10,0:0:0:0:
64,192,58257,128,8,58718:0:0:0:0:
192,192,58718,1,2,0:0:0:0:
320,192,58949,1,2,0:0:0:0:
448,192,59180,128,2,59641:0:0:0:0:
64,192,59641,1,2,0:0:0:0:
192,192,59872,128,0,60564:0:0:0:0:
448,192,60564,1,2,0:0:0:0:
320,192,60564,1,6,0:0:0:0:
64,192,60795,1,8,0:0:0:0:
64,192,61257,1,8,0:0:0:0:
448,192,61488,1,0,0:0:0:0:
192,192,61718,1,8,0:0:0:0:
192,192,62180,1,0,0:0:0:0:
64,192,62411,1,0,0:0:0:0:
320,192,62641,1,8,0:0:0:0:
320,192,63103,1,8,0:0:0:0:
64,192,63334,1,0,0:0:0:0:
448,192,63564,1,0,0:0:0:0:
64,192,63795,1,0,0:0:0:0:
448,192,64026,1,0,0:0:0:0:
192,192,64257,1,0,0:0:0:0:
448,192,64488,1,8,0:0:0:0:
448,192,64949,1,8,0:0:0:0:
64,192,65180,1,0,0:0:0:0:
320,192,65411,1,8,0:0:0:0:
320,192,65872,1,0,0:0:0:0:
448,192,66103,1,0,0:0:0:0:
192,192,66334,1,8,0:0:0:0:
192,192,66795,1,8,0:0:0:0:
448,192,67026,1,0,0:0:0:0:
64,192,67257,1,0,0:0:0:0:
448,192,67488,128,8,67718:0:0:0:0:
64,192,67718,128,8,67949:0:0:0:0:
448,192,67949,1,2,0:0:0:0:
320,192,67949,1,6,0:0:0:0:
64,192,68180,1,8,0:0:0:0:
64,192,68641,1,8,0:0:0:0:
192,192,68872,1,0,0:0:0:0:
448,192,69103,1,8,0:0:0:0:
448,192,69564,1,0,0:0:0:0:
320,192,69795,1,0,0:0:0:0:
64,192,70026,1,8,0:0:0:0:
64,192,70488,1,8,0:0:0:0:
192,192,70718,1,0,0:0:0:0:
320,192,70949,1,0,0:0:0:0:
192,192,71180,1,0,0:0:0:0:
320,192,71411,1,0,0:0:0:0:
64,192,71641,1,0,0:0:0:0:
448,192,71872,1,8,0:0:0:0:
448,192,72334,1,8,0:0:0:0:
320,192,72564,1,0,0:0:0:0:
64,192,72795,1,8,0:0:0:0:
64,192,73257,1,0,0:0:0:0:
192,192,73488,1,0,0:0:0:0:
448,192,73718,1,8,0:0:0:0:
448,192,74180,1,8,0:0:0:0:
320,192,74411,1,8,0:0:0:0:
192,192,74641,1,8,0:0:0:0:
320,192,74872,1,8,0:0:0:0:
192,192,75103,1,8,0:0:0:0:
64,192,75334,1,2,0:0:0:0:
448,192,75334,1,6,0:0:0:0:
320,192,75564,1,10,0:0:0:0:
192,192,75795,1,2,0:0:0:0:
64,192,76026,1,10,0:0:0:0:
320,192,76257,1,2,0:0:0:0:
192,192,76488,1,10,0:0:0:0:
448,192,76718,1,2,0:0:0:0:
320,192,76949,1,10,0:0:0:0:
64,192,77180,1,2,0:0:0:0:
192,192,77411,1,10,0:0:0:0:
320,192,77641,1,2,0:0:0:0:
448,192,77872,1,10,0:0:0:0:
64,192,78103,1,2,0:0:0:0:
320,192,78334,1,10,0:0:0:0:
64,192,78564,1,2,0:0:0:0:
320,192,78795,1,10,0:0:0:0:
448,192,79026,1,2,0:0:0:0:
64,192,79257,1,10,0:0:0:0:
192,192,79488,1,2,0:0:0:0:
320,192,79718,1,10,0:0:0:0:
448,192,79949,1,2,0:0:0:0:
192,192,80180,1,10,0:0:0:0:
64,192,80411,1,2,0:0:0:0:
320,192,80641,1,10,0:0:0:0:
64,192,80872,1,2,0:0:0:0:
448,192,81103,1,10,0:0:0:0:
320,192,81334,1,2,0:0:0:0:
192,192,81564,1,10,0:0:0:0:
64,192,81795,1,2,0:0:0:0:
320,192,82026,128,10,82257:0:0:0:0:
192,192,82257,128,0,82488:0:0:0:0:
448,192,82488,128,8,82718:0:0:0:0:
64,192,82718,1,2,0:0:0:0:
192,192,82718,1,6,0:0:0:0:
320,192,82949,1,10,0:0:0:0:
64,192,83180,1,2,0:0:0:0:
192,192,83411,1,10,0:0:0:0:
448,192,83641,1,2,0:0:0:0:
320,192,83872,1,10,0:0:0:0:
192,192,84103,1,2,0:0:0:0:
64,192,84334,1,10,0:0:0:0:
320,192,84564,1,2,0:0:0:0:
448,192,84564,1,2,0:0:0:0:
192,192,84795,1,10,0:0:0:0:
448,192,85026,1,2,0:0:0:0:
64,192,85257,1,10,0:0:0:0:
192,192,85488,1,2,0:0:0:0:
448,192,85718,1,10,0:0:0:0:
192,192,85949,1,2,0:0:0:0:
448,192,86180,1,10,0:0:0:0:
64,192,86411,1,8,0:0:0:0:
192,192,86411,128,0,87334:0:0:0:0:
320,192,87334,128,8,88257:0:0:0:0:
448,192,88257,128,8,89180:0:0:0:0:
64,192,89180,1,8,0:0:0:0:
192,192,89641,1,0,0:0:0:0:
320,192,89872,128,8,90103:0:0:0:0:
64,192,90103,1,2,0:0:0:0:
448,192,90103,1,6,0:0:0:0:
192,192,90334,1,2,0:0:0:0:
448,192,90564,1,2,0:0:0:0:
320,192,90795,1,2,0:0:0:0:
192,192,91026,1,2,0:0:0:0:
64,192,91257,1,2,0:0:0:0:
320,192,91488,1,2,0:0:0:0:
448,192,91718,1,2,0:0:0:0:
192,192,91949,1,2,0:0:0:0:
64,192,92180,1,2,0:0:0:0:
448,192,92411,1,2,0:0:0:0:
320,192,92641,1,2,0:0:0:0:
64,192,92872,1,2,0:0:0:0:
192,192,93103,1,2,0:0:0:0:
320,192,93334,1,2,0:0:0:0:
448,192,93564,1,2,0:0:0:0:
64,192,93795,1,2,0:0:0:0:
192,192,93795,1,2,0:0:0:0:
448,192,94026,1,2,0:0:0:0:
320,192,94257,1,2,0:0:0:0:
64,192,94488,1,2,0:0:0:0:
192,192,94718,1,2,0:0:0:0:
320,192,94949,1,2,0:0:0:0:
64,192,95180,1,2,0:0:0:0:
448,192,95411,1,2,0:0:0:0:
192,192,95641,1,2,0:0:0:0:
320,192,95872,1,2,0:0:0:0:
64,192,96103,1,2,0:0:0:0:
192,192,96334,1,2,0:0:0:0:
448,192,96564,1,2,0:0:0:0:
448,192,96795,1,2,0:0:0:0:
64,192,97026,1,2,0:0:0:0:
64,192,97257,1,2,0:0:0:0:
448,192,97488,1,2,0:0:0:0:
320,192,97488,1,6,0:0:0:0:
192,192,97718,1,2,0:0:0:0:
64,192,97949,1,2,0:0:0:0:
320,192,98180,1,2,0:0:0:0:
448,192,98411,1,2,0:0:0:0:
192,192,98641,1,2,0:0:0:0:
320,192,98872,1,2,0:0:0:0:
448,192,99103,1,2,0:0:0:0:
192,192,99334,1,2,0:0:0:0:
64,192,99564,1,2,0:0:0:0:
320,192,99795,1,2,0:0:0:0:
192,192,100026,1,2,0:0:0:0:
64,192,100257,1,2,0:0:0:0:
320,192,100488,1,2,0:0:0:0:
192,192,100718,128,8,100949:0:0:0:0:
448,192,100949,1,2,0:0:0:0:
64,192,101180,1,2,0:0:0:0:
192,192,101180,1,2,0:0:0:0:
320,192,101411,1,2,0:0:0:0:
64,192,101641,1,2,0:0:0:0:
448,192,101872,1,2,0:0:0:0:
320,192,102103,1,2,0:0:0:0:
192,192,102334,1,2,0:0:0:0:
448,192,102564,1,2,0:0:0:0:
64,192,102795,1,2,0:0:0:0:
320,192,103026,1,2,0:0:0:0:
192,192,103257,1,2,0:0:0:0:
448,192,103488,128,2,103949:0:0:0:0:
64,192,103949,1,10,0:0:0:0:
192,192,103949,1,14,0:0:0:0:
448,192,104872,1,6,0:0:0:0:
64,192,104872,1,2,0:0:0:0:
320,192,105103,1,2,0:0:0:0:
64,192,105334,1,2,0:0:0:0:
192,192,105564,1,2,0:0:0:0:
320,192,105795,1,2,0:0:0:0:
64,192,106026,1,2,0:0:0:0:
192,192,106257,1,2,0:0:0:0:
448,192,106488,1,2,0:0:0:0:
320,192,106718,1,2,0:0:0:0:
192,192,106949,1,2,0:0:0:0:
448,192,107180,1,2,0:0:0:0:
320,192,107411,1,2,0:0:0:0:
64,192,107641,1,10,0:0:0:0:
64,192,107872,1,10,0:0:0:0:
448,192,108103,1,10,0:0:0:0:
448,192,108334,1,10,0:0:0:0:
64,192,108564,1,2,0:0:0:0:
192,192,108564,1,2,0:0:0:0:
320,192,108795,1,2,0:0:0:0:
448,192,109026,1,2,0:0:0:0:
192,192,109257,1,2,0:0:0:0:
64,192,109488,1,2,0:0:0:0:
320,192,109718,1,2,0:0:0:0:
192,192,109949,1,2,0:0:0:0:
448,192,110180,1,2,0:0:0:0:
64,192,110411,1,2,0:0:0:0:
192,192,110411,1,0,0:0:0:0:
320,192,110641,1,2,0:0:0:0:
64,192,110872,1,2,0:0:0:0:
448,192,111103,128,2,111334:0:0:0:0:
192,192,111449,1,8,0:0:0:0:
320,192,111680,1,8,0:0:0:0:
192,192,111911,1,8,0:0:0:0:
320,192,112141,1,8,0:0:0:0:
64,192,112257,1,2,0:0:0:0:
192,192,112257,1,6,0:0:0:0:
448,192,112488,1,2,0:0:0:0:
320,192,112718,1,2,0:0:0:0:
64,192,112949,1,2,0:0:0:0:
320,192,113180,1,2,0:0:0:0:
448,192,113411,1,2,0:0:0:0:
192,192,113641,1,2,0:0:0:0:
64,192,113872,1,2,0:0:0:0:
320,192,114103,1,2,0:0:0:0:
448,192,114103,1,2,0:0:0:0:
192,192,114334,1,2,0:0:0:0:
448,192,114564,1,2,0:0:0:0:
320,192,114795,1,2,0:0:0:0:
64,192,115026,128,2,115257:0:0:0:0:
192,192,115257,1,2,0:0:0:0:
448,192,115488,128,2,115718:0:0:0:0:
320,192,115718,1,2,0:0:0:0:
192,192,115949,1,2,0:0:0:0:
64,192,116180,128,2,116411:0:0:0:0:
320,192,116411,1,2,0:0:0:0:
448,192,116641,128,2,116872:0:0:0:0:
192,192,116872,1,2,0:0:0:0:
64,192,117103,128,2,117334:0:0:0:0:
320,192,117334,1,2,0:0:0:0:
448,192,117564,128,2,117795:0:0:0:0:
64,192,117795,1,2,0:0:0:0:
192,192,117795,1,2,0:0:0:0:
320,192,118141,1,2,0:0:0:0:
192,192,118488,1,2,0:0:0:0:
320,192,118718,1,2,0:0:0:0:
448,192,118718,1,2,0:0:0:0:
320,192,119180,1,2,0:0:0:0:
192,192,119411,128,2,119641:0:0:0:0:
448,192,119641,1,6,0:0:0:0:
64,192,119641,1,2,0:0:0:0:
320,192,119988,1,0,0:0:0:0:
192,192,120334,1,0,0:0:0:0:
64,192,120680,1,0,0:0:0:0:
448,192,121026,1,0,0:0:0:0:
320,192,121257,1,0,0:0:0:0:
64,192,121488,1,0,0:0:0:0:
192,192,121834,1,0,0:0:0:0:
320,192,122180,1,0,0:0:0:0:
448,192,122526,1,0,0:0:0:0:
64,192,122872,1,0,0:0:0:0:
192,192,123103,1,0,0:0:0:0:
448,192,123334,1,0,0:0:0:0:
320,192,123680,1,0,0:0:0:0:
192,192,124026,1,0,0:0:0:0:
64,192,124372,1,0,0:0:0:0:
448,192,124718,1,0,0:0:0:0:
320,192,124949,1,0,0:0:0:0:
64,192,125180,1,0,0:0:0:0:
192,192,125526,1,0,0:0:0:0:
320,192,125872,1,0,0:0:0:0:
448,192,126218,1,0,0:0:0:0:
64,192,126564,1,0,0:0:0:0:
192,192,126795,1,0,0:0:0:0:
320,192,127026,1,4,0:0:0:0:
448,192,127026,1,0,0:0:0:0:
64,192,127372,1,0,0:0:0:0:
320,192,127718,1,0,0:0:0:0:
192,192,128064,1,0,0:0:0:0:
448,192,128411,1,0,0:0:0:0:
320,192,128641,1,0,0:0:0:0:
192,192,128872,1,0,0:0:0:0:
448,192,129218,1,0,0:0:0:0:
192,192,129564,1,0,0:0:0:0:
320,192,129911,1,0,0:0:0:0:
64,192,130257,1,0,0:0:0:0:
192,192,130488,1,0,0:0:0:0:
448,192,130718,1,0,0:0:0:0:
64,192,131064,1,0,0:0:0:0:
320,192,131411,1,0,0:0:0:0:
192,192,131757,1,0,0:0:0:0:
448,192,132103,1,0,0:0:0:0:
320,192,132334,1,0,0:0:0:0:
64,192,132564,1,0,0:0:0:0:
448,192,132911,1,0,0:0:0:0:
192,192,133257,1,0,0:0:0:0:
320,192,133603,1,0,0:0:0:0:
64,192,133949,1,0,0:0:0:0:
192,192,134180,1,0,0:0:0:0:
320,192,134411,1,4,0:0:0:0:
448,192,134411,1,0,0:0:0:0:
64,192,134641,1,8,0:0:0:0:
64,192,135103,1,8,0:0:0:0:
192,192,135564,1,8,0:0:0:0:
192,192,136026,1,8,0:0:0:0:
320,192,136488,1,8,0:0:0:0:
320,192,136949,1,8,0:0:0:0:
448,192,137411,1,8,0:0:0:0:
448,192,137872,1,8,0:0:0:0:
192,192,138334,1,8,0:0:0:0:
192,192,138795,1,8,0:0:0:0:
320,192,139257,1,8,0:0:0:0:
320,192,139718,1,8,0:0:0:0:
64,192,140180,1,8,0:0:0:0:
64,192,140641,1,8,0:0:0:0:
448,192,141103,1,8,0:0:0:0:
448,192,141564,1,8,0:0:0:0:
64,192,141795,1,0,0:0:0:0:
192,192,141795,1,4,0:0:0:0:
320,192,142026,1,8,0:0:0:0:
320,192,142488,1,8,0:0:0:0:
192,192,142949,1,8,0:0:0:0:
192,192,143411,1,8,0:0:0:0:
320,192,143641,1,4,0:0:0:0:
448,192,143641,1,0,0:0:0:0:
64,192,143872,1,8,0:0:0:0:
64,192,144334,1,8,0:0:0:0:
448,192,144795,1,8,0:0:0:0:
448,192,145257,1,8,0:0:0:0:
64,192,145488,1,0,0:0:0:0:
192,192,145488,1,4,0:0:0:0:
320,192,145718,1,8,0:0:0:0:
320,192,146180,1,8,0:0:0:0:
64,192,146411,1,4,0:0:0:0:
448,192,146411,1,0,0:0:0:0:
192,192,146641,1,8,0:0:0:0:
192,192,147103,1,8,0:0:0:0:
320,192,147334,1,4,0:0:0:0:
448,192,147334,128,0,149180:0:0:0:0:
320,192,148257,128,0,149180:0:0:0:0:
64,192,149180,1,2,0:0:0:0:
192,192,149180,1,6,0:0:0:0:
320,192,149411,1,10,0:0:0:0:
448,192,149641,1,2,0:0:0:0:
192,192,149872,1,10,0:0:0:0:
64,192,150103,1,2,0:0:0:0:
320,192,150334,1,10,0:0:0:0:
448,192,150564,1,2,0:0:0:0:
192,192,150795,1,10,0:0:0:0:
64,192,151026,1,2,0:0:0:0:
320,192,151257,1,10,0:0:0:0:
192,192,151488,1,2,0:0:0:0:
448,192,151718,1,10,0:0:0:0:
64,192,151949,1,2,0:0:0:0:
320,192,152180,1,10,0:0:0:0:
448,192,152411,1,2,0:0:0:0:
192,192,152641,1,10,0:0:0:0:
64,192,152872,1,2,0:0:0:0:
320,192,153103,1,10,0:0:0:0:
448,192,153334,1,2,0:0:0:0:
192,192,153564,1,10,0:0:0:0:
320,192,153795,1,2,0:0:0:0:
64,192,154026,1,10,0:0:0:0:
192,192,154257,1,2,0:0:0:0:
448,192,154488,1,10,0:0:0:0:
64,192,154718,1,2,0:0:0:0:
320,192,154949,1,10,0:0:0:0:
192,192,155180,1,2,0:0:0:0:
64,192,155411,1,10,0:0:0:0:
448,192,155641,1,2,0:0:0:0:
320,192,155872,1,10,0:0:0:0:
192,192,156103,1,2,0:0:0:0:
192,192,156334,1,2,0:0:0:0:
448,192,156564,1,6,0:0:0:0:
64,192,156564,1,2,0:0:0:0:
320,192,156795,1,10,0:0:0:0:
64,192,157026,1,2,0:0:0:0:
192,192,157257,1,10,0:0:0:0:
320,192,157488,1,2,0:0:0:0:
64,192,157718,1,10,0:0:0:0:
448,192,157949,1,2,0:0:0:0:
320,192,158180,1,10,0:0:0:0:
192,192,158411,1,2,0:0:0:0:
448,192,158641,1,10,0:0:0:0:
64,192,158872,1,2,0:0:0:0:
320,192,159103,1,10,0:0:0:0:
64,192,159334,1,2,0:0:0:0:
192,192,159564,1,10,0:0:0:0:
448,192,159795,1,2,0:0:0:0:
320,192,160026,1,2,0:0:0:0:
64,192,160257,1,2,0:0:0:0:
448,192,160488,1,10,0:0:0:0:
192,192,160718,1,2,0:0:0:0:
320,192,160949,1,10,0:0:0:0:
64,192,161180,1,2,0:0:0:0:
448,192,161411,1,10,0:0:0:0:
192,192,161641,1,2,0:0:0:0:
320,192,161872,1,10,0:0:0:0:
64,192,162103,1,2,0:0:0:0:
448,192,162103,1,2,0:0:0:0:
192,192,162334,1,8,0:0:0:0:
448,192,162564,1,2,0:0:0:0:
320,192,162795,1,10,0:0:0:0:
192,192,163141,1,0,0:0:0:0:
192,192,163372,1,0,0:0:0:0:
192,192,163603,1,0,0:0:0:0:
320,192,163718,1,2,0:0:0:0:
64,192,163949,1,6,0:0:0:0:
448,192,163949,1,2,0:0:0:0:
192,192,164180,1,10,0:0:0:0:
320,192,164411,1,2,0:0:0:0:
64,192,164641,1,10,0:0:0:0:
192,192,164872,1,2,0:0:0:0:
448,192,165103,1,10,0:0:0:0:
320,192,165334,1,2,0:0:0:0:
192,192,165564,1,10,0:0:0:0:
448,192,165795,1,2,0:0:0:0:
64,192,166026,1,10,0:0:0:0:
320,192,166257,1,2,0:0:0:0:
192,192,166488,1,10,0:0:0:0:
64,192,166718,1,2,0:0:0:0:
448,192,166949,1,10,0:0:0:0:
192,192,167180,1,2,0:0:0:0:
320,192,167411,1,2,0:0:0:0:
64,192,167641,1,2,0:0:0:0:
320,192,167872,1,10,0:0:0:0:
192,192,168103,1,2,0:0:0:0:
448,192,168334,1,10,0:0:0:0:
64,192,168564,1,2,0:0:0:0:
320,192,168795,1,10,0:0:0:0:
448,192,169026,1,2,0:0:0:0:
192,192,169257,1,10,0:0:0:0:
64,192,169488,1,2,0:0:0:0:
448,192,169718,1,10,0:0:0:0:
320,192,169949,1,2,0:0:0:0:
192,192,170180,1,8,0:0:0:0:
64,192,170411,128,2,170641:0:0:0:0:
448,192,170757,128,2,170988:0:0:0:0:
64,192,171103,128,2,171334:0:0:0:0:
448,192,171334,1,2,0:0:0:0:
320,192,171334,1,6,0:0:0:0:
192,192,171564,1,10,0:0:0:0:
448,192,171795,1,2,0:0:0:0:
64,192,172026,1,10,0:0:0:0:
320,192,172257,1,2,0:0:0:0:
192,192,172488,1,10,0:0:0:0:
448,192,172718,1,2,0:0:0:0:
320,192,172949,1,10,0:0:0:0:
192,192,173180,1,2,0:0:0:0:
64,192,173180,1,2,0:0:0:0:
448,192,173411,1,10,0:0:0:0:
64,192,173641,1,2,0:0:0:0:
320,192,173872,1,10,0:0:0:0:
192,192,174103,1,2,0:0:0:0:
448,192,174334,1,10,0:0:0:0:
64,192,174564,1,2,0:0:0:0:
192,192,174795,1,10,0:0:0:0:
320,192,175026,1,2,0:0:0:0:
448,192,175026,1,2,0:0:0:0:
64,192,175257,1,10,0:0:0:0:
320,192,175488,1,2,0:0:0:0:
192,192,175718,1,10,0:0:0:0:
448,192,175949,1,2,0:0:0:0:
64,192,176180,1,10,0:0:0:0:
320,192,176411,1,2,0:0:0:0:
192,192,176641,1,10,0:0:0:0:
64,192,176872,1,2,0:0:0:0:
320,192,177103,1,2,0:0:0:0:
448,192,177334,128,8,177795:0:0:0:0:
64,192,177795,1,2,0:0:0:0:
192,192,177795,1,2,0:0:0:0:
320,192,178488,128,2,178718:0:0:0:0:
64,192,178718,1,2,0:0:0:0:
448,192,178718,1,6,0:0:0:0:
192,192,178949,1,2,0:0:0:0:
320,192,179180,1,2,0:0:0:0:
64,192,179411,1,2,0:0:0:0:
448,192,179641,1,2,0:0:0:0:
192,192,179872,1,2,0:0:0:0:
320,192,180103,1,2,0:0:0:0:
448,192,180334,1,2,0:0:0:0:
192,192,180564,1,2,0:0:0:0:
64,192,180795,1,2,0:0:0:0:
320,192,181026,1,2,0:0:0:0:
192,192,181257,1,2,0:0:0:0:
448,192,181488,1,2,0:0:0:0:
320,192,181718,1,2,0:0:0:0:
64,192,181949,1,2,0:0:0:0:
192,192,182180,1,2,0:0:0:0:
448,192,182411,1,2,0:0:0:0:
320,192,182411,1,2,0:0:0:0:
64,192,182641,1,2,0:0:0:0:
320,192,182872,1,2,0:0:0:0:
192,192,183103,1,2,0:0:0:0:
448,192,183334,1,2,0:0:0:0:
320,192,183564,1,2,0:0:0:0:
64,192,183795,1,2,0:0:0:0:
320,192,184026,1,2,0:0:0:0:
192,192,184257,1,2,0:0:0:0:
448,192,184488,1,2,0:0:0:0:
192,192,184718,1,2,0:0:0:0:
320,192,184949,1,2,0:0:0:0:
64,192,185180,128,8,185411:0:0:0:0:
192,192,185411,128,8,185641:0:0:0:0:
320,192,185641,128,8,185872:0:0:0:0:
448,192,185872,128,0,186103:0:0:0:0:
64,192,186103,1,6,0:0:0:0:
192,192,186103,1,0,0:0:0:0:
320,192,186334,1,2,0:0:0:0:
448,192,186564,1,2,0:0:0:0:
64,192,186795,1,2,0:0:0:0:
192,192,187026,1,2,0:0:0:0:
448,192,187257,1,2,0:0:0:0:
320,192,187488,1,2,0:0:0:0:
64,192,187718,1,2,0:0:0:0:
448,192,187949,1,2,0:0:0:0:
192,192,188180,1,2,0:0:0:0:
320,192,188411,1,2,0:0:0:0:
64,192,188641,1,2,0:0:0:0:
192,192,188872,1,2,0:0:0:0:
448,192,189103,1,2,0:0:0:0:
192,192,189334,1,2,0:0:0:0:
320,192,189564,1,2,0:0:0:0:
64,192,189795,1,2,0:0:0:0:
448,192,189795,1,0,0:0:0:0:
192,192,190026,1,2,0:0:0:0:
448,192,190257,1,2,0:0:0:0:
320,192,190488,1,2,0:0:0:0:
192,192,190718,1,2,0:0:0:0:
448,192,190949,1,2,0:0:0:0:
64,192,191180,1,2,0:0:0:0:
320,192,191411,1,2,0:0:0:0:
192,192,191641,128,0,191872:0:0:0:0:
320,192,191872,128,0,192103:0:0:0:0:
448,192,192103,128,8,192564:0:0:0:0:
64,192,192564,1,0,0:0:0:0:
320,192,193026,128,2,193257:0:0:0:0:
192,192,193257,128,0,193488:0:0:0:0:
64,192,193488,1,6,0:0:0:0:
448,192,193488,1,2,0:0:0:0:
320,192,193718,1,2,0:0:0:0:
192,192,193949,1,2,0:0:0:0:
448,192,194180,1,2,0:0:0:0:
64,192,194411,1,2,0:0:0:0:
320,192,194641,1,2,0:0:0:0:
192,192,194872,1,2,0:0:0:0:
64,192,195103,1,2,0:0:0:0:
320,192,195334,1,2,0:0:0:0:
192,192,195564,1,2,0:0:0:0:
448,192,195795,1,2,0:0:0:0:
64,192,196026,1,2,0:0:0:0:
192,192,196257,1,2,0:0:0:0:
448,192,196488,1,2,0:0:0:0:
320,192,196718,1,2,0:0:0:0:
192,192,196949,1,2,0:0:0:0:
64,192,197180,1,2,0:0:0:0:
448,192,197180,1,2,0:0:0:0:
320,192,197411,1,2,0:0:0:0:
64,192,197641,1,2,0:0:0:0:
448,192,197872,1,2,0:0:0:0:
192,192,198103,1,2,0:0:0:0:
320,192,198334,1,2,0:0:0:0:
64,192,198564,1,2,0:0:0:0:
192,192,198795,1,2,0:0:0:0:
448,192,199026,1,6,0:0:0:0:
448,192,199257,1,6,0:0:0:0:
64,192,199488,1,6,0:0:0:0:
64,192,199718,1,6,0:0:0:0:
320,192,199949,1,8,0:0:0:0:
192,192,200180,1,8,0:0:0:0:
320,192,200411,1,8,0:0:0:0:
192,192,200641,1,8,0:0:0:0:
64,192,200872,1,2,0:0:0:0:
448,192,200872,1,2,0:0:0:0:
320,192,201103,1,2,0:0:0:0:
192,192,201334,128,2,201564:0:0:0:0:
320,192,201564,128,2,201795:0:0:0:0:
64,192,201795,1,2,0:0:0:0:
448,192,201795,1,2,0:0:0:0:
64,192,202141,1,2,0:0:0:0:
320,192,202488,1,2,0:0:0:0:
448,192,202718,1,2,0:0:0:0:
64,192,202718,128,2,202949:0:0:0:0:
320,192,203064,1,2,0:0:0:0:
192,192,203411,1,2,0:0:0:0:
448,192,203641,1,2,0:0:0:0:
64,192,203641,1,2,0:0:0:0:
448,192,203988,1,2,0:0:0:0:
192,192,204334,1,0,0:0:0:0:
320,192,204564,128,8,205488:0:0:0:0:
192,192,205488,128,8,206411:0:0:0:0:
64,192,206411,1,2,0:0:0:0:
448,192,206411,1,2,0:0:0:0:
320,192,206757,1,2,0:0:0:0:
192,192,206988,1,2,0:0:0:0:
64,192,207334,1,2,0:0:0:0:
448,192,207334,1,2,0:0:0:0:
192,192,207911,1,2,0:0:0:0:
320,192,208026,1,2,0:0:0:0:
64,192,208257,1,6,0:0:0:0:
448,192,208257,1,2,0:0:0:0:
