osu file format v14

[General]
AudioFilename: 4. DJKurara - Japanese Transformation.mp3
AudioLeadIn: 1500
PreviewTime: 89872
Countdown: 0
SampleSet: Normal
StackLeniency: 0.7
Mode: 3
LetterboxInBreaks: 0
SpecialStyle: 0
WidescreenStoryboard: 1

[Editor]
Bookmarks: 85949,149180
DistanceSpacing: 1
BeatDivisor: 4
GridSize: 16
TimelineZoom: 0.6999996

[Metadata]
Title:Japanese Transformation
TitleUnicode:Japanese Transformation
Artist:DJKurara
ArtistUnicode:DJKurara
Creator:XeoStyle
Version:Blocko's Beginner
Source:
Tags:KyokudoCore Records KCRCD003 Tanoshi Torture J-Speedcore Happy J-Core jpt Blocko Todestrieb _underjoy Fullerene-
BeatmapID:1115519
BeatmapSetID:520438

[Difficulty]
HPDrainRate:6
CircleSize:4
OverallDifficulty:6
ApproachRate:9
SliderMultiplier:1.4
SliderTickRate:1

[Events]
//Background and Video events
0,0,"Japanese Transformation.jpg",0,0
//Break Periods
//Storyboard Layer 0 (Background)
//Storyboard Layer 1 (Fail)
//Storyboard Layer 2 (Pass)
//Storyboard Layer 3 (Foreground)
//Storyboard Sound Samples

[TimingPoints]
1488,230.769230769231,4,1,1,54,1,0
31026,-100,4,1,1,54,0,1
44872,-100,4,1,1,54,0,0
45795,-100,4,1,1,54,0,1
60564,-100,4,1,1,54,0,0
90103,-100,4,1,1,54,0,1
103949,-100,4,1,1,54,0,0
104872,-100,4,1,1,54,0,1
119641,-100,4,1,1,54,0,0
178718,-100,4,1,1,54,0,1
192564,-100,4,1,1,54,0,0
193488,-100,4,1,1,54,0,1
208257,-100,4,1,1,54,0,0

[HitObjects]
448,192,16257,5,14,0:0:0:0:
320,192,16603,1,2,0:0:0:0:
192,192,16949,1,2,0:0:0:0:
64,192,17295,1,2,0:0:0:0:
448,192,17641,1,2,0:0:0:0:
192,192,18334,1,8,0:0:0:0:
320,192,18680,1,8,0:0:0:0:
192,192,19026,1,8,0:0:0:0:
320,192,19372,1,8,0:0:0:0:
64,192,19949,1,2,0:0:0:0:
192,192,20295,1,2,0:0:0:0:
320,192,20641,1,2,0:0:0:0:
448,192,20988,1,2,0:0:0:0:
192,192,21564,1,2,0:0:0:0:
448,192,21795,128,8,22257:0:0:0:0:
64,192,22257,128,8,22718:0:0:0:0:
320,192,22718,1,8,0:0:0:0:
192,192,23180,1,8,0:0:0:0:
448,192,23641,1,6,0:0:0:0:
320,192,23988,1,2,0:0:0:0:
192,192,24334,1,2,0:0:0:0:
64,192,24680,1,2,0:0:0:0:
320,192,25026,1,2,0:0:0:0:
64,192,25488,1,2,0:0:0:0:
192,192,25834,1,2,0:0:0:0:
320,192,26180,1,2,0:0:0:0:
448,192,26526,1,2,0:0:0:0:
192,192,26872,1,2,0:0:0:0:
64,192,27334,1,2,0:0:0:0:
320,192,27795,1,2,0:0:0:0:
192,192,28257,1,2,0:0:0:0:
448,192,28718,1,2,0:0:0:0:
64,192,29180,128,2,30103:0:0:0:0:
448,192,30103,1,2,0:0:0:0:
320,192,30795,1,2,0:0:0:0:
64,192,31026,1,2,0:0:0:0:
192,192,31026,1,6,0:0:0:0:
320,192,31488,1,2,0:0:0:0:
448,192,31949,1,2,0:0:0:0:
192,192,32411,1,2,0:0:0:0:
64,192,32872,1,2,0:0:0:0:
320,192,33334,1,2,0:0:0:0:
192,192,33795,1,2,0:0:0:0:
448,192,34257,1,2,0:0:0:0:
64,192,34718,1,2,0:0:0:0:
320,192,35180,1,2,0:0:0:0:
448,192,35641,1,2,0:0:0:0:
192,192,36103,1,2,0:0:0:0:
64,192,36564,1,2,0:0:0:0:
320,192,37026,1,2,0:0:0:0:
192,192,37488,1,2,0:0:0:0:
448,192,37949,128,8,38411:0:0:0:0:
64,192,38411,1,6,0:0:0:0:
320,192,38872,1,2,0:0:0:0:
192,192,39334,1,2,0:0:0:0:
448,192,39795,1,2,0:0:0:0:
320,192,40257,1,2,0:0:0:0:
192,192,40718,1,2,0:0:0:0:
448,192,41180,1,2,0:0:0:0:
64,192,41641,128,8,42103:0:0:0:0:
448,192,42103,1,2,0:0:0:0:
192,192,42564,1,2,0:0:0:0:
320,192,43026,1,2,0:0:0:0:
64,192,43488,1,2,0:0:0:0:
192,192,43949,1,2,0:0:0:0:
448,192,44411,128,2,44872:0:0:0:0:
192,192,45334,1,2,0:0:0:0:
320,192,45795,1,6,0:0:0:0:
448,192,45795,1,2,0:0:0:0:
64,192,46257,1,2,0:0:0:0:
192,192,46718,1,2,0:0:0:0:
448,192,47180,1,2,0:0:0:0:
192,192,47641,1,2,0:0:0:0:
64,192,48103,1,2,0:0:0:0:
320,192,48564,1,2,0:0:0:0:
448,192,49026,1,2,0:0:0:0:
192,192,49488,1,2,0:0:0:0:
64,192,49949,1,2,0:0:0:0:
320,192,50411,1,2,0:0:0:0:
192,192,50872,1,2,0:0:0:0:
448,192,51334,1,2,0:0:0:0:
320,192,51795,1,2,0:0:0:0:
64,192,52257,1,2,0:0:0:0:
192,192,52718,128,2,53180:0:0:0:0:
448,192,53180,128,2,53872:0:0:0:0:
64,192,54103,128,2,54795:0:0:0:0:
320,192,55026,128,2,55257:0:0:0:0:
192,192,55488,1,2,0:0:0:0:
320,192,55718,1,2,0:0:0:0:
64,192,55949,1,2,0:0:0:0:
192,192,56180,1,2,0:0:0:0:
320,192,56411,1,2,0:0:0:0:
448,192,56641,1,2,0:0:0:0:
64,192,56872,1,2,0:0:0:0:
320,192,57334,1,10,0:0:0:0:
192,192,57795,1,10,0:0:0:0:
448,192,58257,128,8,58718:0:0:0:0:
192,192,58718,1,2,0:0:0:0:
320,192,58949,1,2,0:0:0:0:
64,192,59180,128,2,59641:0:0:0:0:
448,192,59641,1,2,0:0:0:0:
64,192,60564,1,2,0:0:0:0:
448,192,60564,1,6,0:0:0:0:
192,192,61488,1,0,0:0:0:0:
320,192,62411,1,0,0:0:0:0:
448,192,63334,128,0,64257:0:0:0:0:
192,192,64257,1,0,0:0:0:0:
320,192,65180,1,0,0:0:0:0:
448,192,66103,1,0,0:0:0:0:
64,192,67026,128,0,67488:0:0:0:0:
448,192,67488,128,8,67949:0:0:0:0:
64,192,67949,1,6,0:0:0:0:
320,192,68872,1,0,0:0:0:0:
192,192,69795,1,0,0:0:0:0:
64,192,70718,128,0,71641:0:0:0:0:
448,192,71641,1,0,0:0:0:0:
192,192,72564,1,0,0:0:0:0:
320,192,73488,1,0,0:0:0:0:
64,192,74411,128,0,74872:0:0:0:0:
448,192,74872,128,0,75334:0:0:0:0:
64,192,75334,1,6,0:0:0:0:
320,192,75795,1,2,0:0:0:0:
64,192,76257,1,2,0:0:0:0:
320,192,76718,1,2,0:0:0:0:
448,192,77180,1,2,0:0:0:0:
192,192,77641,1,2,0:0:0:0:
448,192,78103,1,2,0:0:0:0:
192,192,78564,1,2,0:0:0:0:
64,192,79026,1,2,0:0:0:0:
448,192,79488,1,2,0:0:0:0:
64,192,79949,1,2,0:0:0:0:
448,192,80411,1,2,0:0:0:0:
192,192,80872,1,2,0:0:0:0:
320,192,81334,1,2,0:0:0:0:
192,192,81795,1,2,0:0:0:0:
320,192,82257,128,0,82488:0:0:0:0:
64,192,82718,1,6,0:0:0:0:
448,192,83180,1,2,0:0:0:0:
64,192,83641,1,2,0:0:0:0:
320,192,84103,1,2,0:0:0:0:
448,192,84564,1,2,0:0:0:0:
64,192,85026,1,2,0:0:0:0:
448,192,85488,1,2,0:0:0:0:
192,192,85949,1,2,0:0:0:0:
64,192,86411,128,8,87334:0:0:0:0:
192,192,87334,128,8,88257:0:0:0:0:
448,192,88257,128,8,89180:0:0:0:0:
320,192,89180,128,8,89641:0:0:0:0:
192,192,89641,1,0,0:0:0:0:
64,192,90103,1,2,0:0:0:0:
448,192,90103,1,6,0:0:0:0:
192,192,90449,1,2,0:0:0:0:
320,192,90795,1,2,0:0:0:0:
448,192,91141,1,2,0:0:0:0:
192,192,91488,1,2,0:0:0:0:
320,192,91718,1,2,0:0:0:0:
64,192,91949,1,2,0:0:0:0:
192,192,92295,1,2,0:0:0:0:
320,192,92641,1,2,0:0:0:0:
448,192,92988,1,2,0:0:0:0:
192,192,93334,1,2,0:0:0:0:
320,192,93564,1,2,0:0:0:0:
448,192,93795,1,2,0:0:0:0:
320,192,94141,1,2,0:0:0:0:
192,192,94488,1,2,0:0:0:0:
64,192,94834,1,2,0:0:0:0:
320,192,95180,1,2,0:0:0:0:
192,192,95411,1,2,0:0:0:0:
448,192,95641,1,2,0:0:0:0:
320,192,95988,1,2,0:0:0:0:
192,192,96334,1,2,0:0:0:0:
64,192,96564,1,2,0:0:0:0:
192,192,97026,1,2,0:0:0:0:
320,192,97257,1,2,0:0:0:0:
448,192,97488,1,6,0:0:0:0:
192,192,97834,1,2,0:0:0:0:
320,192,98180,1,2,0:0:0:0:
64,192,98526,1,2,0:0:0:0:
320,192,98872,1,2,0:0:0:0:
192,192,99103,1,2,0:0:0:0:
448,192,99334,1,2,0:0:0:0:
192,192,99680,1,2,0:0:0:0:
320,192,100026,1,2,0:0:0:0:
64,192,100372,1,2,0:0:0:0:
192,192,100718,1,2,0:0:0:0:
320,192,100949,1,2,0:0:0:0:
64,192,101180,1,2,0:0:0:0:
320,192,101526,1,2,0:0:0:0:
192,192,101872,1,2,0:0:0:0:
448,192,102218,1,2,0:0:0:0:
192,192,102564,1,2,0:0:0:0:
320,192,102795,1,2,0:0:0:0:
64,192,103026,1,2,0:0:0:0:
448,192,103488,128,2,103949:0:0:0:0:
64,192,103949,1,14,0:0:0:0:
64,192,104872,1,2,0:0:0:0:
448,192,104872,1,6,0:0:0:0:
320,192,105218,1,2,0:0:0:0:
64,192,105564,1,2,0:0:0:0:
192,192,105911,1,2,0:0:0:0:
320,192,106257,1,2,0:0:0:0:
192,192,106488,1,2,0:0:0:0:
448,192,106718,1,2,0:0:0:0:
320,192,107064,1,2,0:0:0:0:
192,192,107411,1,2,0:0:0:0:
64,192,107641,1,10,0:0:0:0:
448,192,108103,1,10,0:0:0:0:
64,192,108564,1,2,0:0:0:0:
192,192,108911,1,2,0:0:0:0:
448,192,109257,1,2,0:0:0:0:
320,192,109603,1,2,0:0:0:0:
192,192,109949,1,2,0:0:0:0:
320,192,110180,1,2,0:0:0:0:
448,192,110411,1,2,0:0:0:0:
64,192,110872,128,2,111334:0:0:0:0:
448,192,112257,1,6,0:0:0:0:
192,192,112603,1,2,0:0:0:0:
320,192,112949,1,2,0:0:0:0:
64,192,113295,1,2,0:0:0:0:
192,192,113641,1,2,0:0:0:0:
320,192,113872,1,2,0:0:0:0:
64,192,114103,1,2,0:0:0:0:
320,192,114449,1,2,0:0:0:0:
192,192,114795,1,2,0:0:0:0:
448,192,115026,128,2,115257:0:0:0:0:
64,192,115488,128,2,115718:0:0:0:0:
192,192,115949,1,2,0:0:0:0:
320,192,116180,128,2,116411:0:0:0:0:
192,192,116641,128,2,116872:0:0:0:0:
448,192,117103,128,2,117334:0:0:0:0:
64,192,117564,128,2,117795:0:0:0:0:
448,192,117795,1,2,0:0:0:0:
320,192,118488,1,2,0:0:0:0:
192,192,118718,1,2,0:0:0:0:
320,192,119180,128,2,119641:0:0:0:0:
64,192,119641,1,6,0:0:0:0:
448,192,119641,1,2,0:0:0:0:
192,192,120564,1,2,0:0:0:0:
64,192,121026,1,2,0:0:0:0:
192,192,121488,1,2,0:0:0:0:
192,192,122411,1,2,0:0:0:0:
320,192,122872,1,2,0:0:0:0:
192,192,123334,1,0,0:0:0:0:
192,192,124257,1,0,0:0:0:0:
64,192,124718,1,0,0:0:0:0:
192,192,125180,1,0,0:0:0:0:
192,192,126103,1,0,0:0:0:0:
448,192,126564,1,0,0:0:0:0:
320,192,127026,1,4,0:0:0:0:
320,192,127949,1,0,0:0:0:0:
192,192,128411,1,0,0:0:0:0:
320,192,128872,1,0,0:0:0:0:
320,192,129795,1,0,0:0:0:0:
448,192,130257,1,0,0:0:0:0:
320,192,130718,1,0,0:0:0:0:
320,192,131641,1,0,0:0:0:0:
192,192,132103,1,0,0:0:0:0:
320,192,132564,1,0,0:0:0:0:
320,192,133488,1,0,0:0:0:0:
448,192,133949,1,0,0:0:0:0:
64,192,134411,1,4,0:0:0:0:
320,192,135334,1,0,0:0:0:0:
192,192,135795,1,0,0:0:0:0:
448,192,136257,1,0,0:0:0:0:
192,192,137180,1,0,0:0:0:0:
320,192,137641,1,0,0:0:0:0:
64,192,138103,1,0,0:0:0:0:
320,192,139026,1,0,0:0:0:0:
192,192,139488,1,0,0:0:0:0:
448,192,139949,1,0,0:0:0:0:
192,192,140872,1,0,0:0:0:0:
320,192,141334,1,0,0:0:0:0:
64,192,141795,1,4,0:0:0:0:
320,192,142718,1,0,0:0:0:0:
64,192,143180,1,0,0:0:0:0:
320,192,143641,1,4,0:0:0:0:
192,192,144564,1,0,0:0:0:0:
448,192,145026,1,0,0:0:0:0:
192,192,145488,1,4,0:0:0:0:
448,192,146411,1,4,0:0:0:0:
64,192,146872,1,0,0:0:0:0:
448,192,147334,128,4,149180:0:0:0:0:
64,192,149180,1,6,0:0:0:0:
320,192,149641,1,2,0:0:0:0:
64,192,150103,1,2,0:0:0:0:
448,192,150564,1,2,0:0:0:0:
192,192,151026,1,2,0:0:0:0:
320,192,151488,1,2,0:0:0:0:
64,192,151949,1,2,0:0:0:0:
448,192,152411,1,2,0:0:0:0:
320,192,152872,1,2,0:0:0:0:
192,192,153334,1,2,0:0:0:0:
320,192,153795,1,2,0:0:0:0:
64,192,154257,1,2,0:0:0:0:
448,192,154718,1,2,0:0:0:0:
192,192,155180,1,2,0:0:0:0:
320,192,155641,1,2,0:0:0:0:
64,192,156103,1,2,0:0:0:0:
448,192,156564,1,6,0:0:0:0:
192,192,157026,1,2,0:0:0:0:
320,192,157488,1,2,0:0:0:0:
64,192,157949,1,2,0:0:0:0:
320,192,158411,1,2,0:0:0:0:
192,192,158872,1,2,0:0:0:0:
448,192,159334,128,2,159795:0:0:0:0:
64,192,159795,128,2,160257:0:0:0:0:
320,192,160257,1,2,0:0:0:0:
192,192,160718,1,2,0:0:0:0:
448,192,161180,1,2,0:0:0:0:
320,192,161641,1,2,0:0:0:0:
64,192,162103,1,2,0:0:0:0:
192,192,162564,1,2,0:0:0:0:
448,192,163026,128,0,163718:0:0:0:0:
192,192,163718,1,0,0:0:0:0:
64,192,163949,1,6,0:0:0:0:
320,192,164411,1,2,0:0:0:0:
448,192,164872,1,2,0:0:0:0:
192,192,165334,1,2,0:0:0:0:
320,192,165795,1,2,0:0:0:0:
64,192,166257,1,2,0:0:0:0:
320,192,166718,1,2,0:0:0:0:
448,192,167180,1,2,0:0:0:0:
192,192,167641,1,2,0:0:0:0:
320,192,168103,1,2,0:0:0:0:
64,192,168564,1,2,0:0:0:0:
448,192,169026,1,2,0:0:0:0:
192,192,169488,1,2,0:0:0:0:
320,192,169949,1,2,0:0:0:0:
64,192,170411,128,2,170757:0:0:0:0:
320,192,170757,128,2,171103:0:0:0:0:
192,192,171103,128,2,171334:0:0:0:0:
448,192,171334,1,6,0:0:0:0:
320,192,171795,1,2,0:0:0:0:
64,192,172257,1,2,0:0:0:0:
192,192,172718,1,2,0:0:0:0:
320,192,173180,1,2,0:0:0:0:
448,192,173641,1,2,0:0:0:0:
192,192,174103,1,2,0:0:0:0:
64,192,174564,1,2,0:0:0:0:
320,192,175026,1,2,0:0:0:0:
192,192,175488,1,2,0:0:0:0:
448,192,175949,1,2,0:0:0:0:
320,192,176411,1,2,0:0:0:0:
64,192,176872,128,2,177334:0:0:0:0:
448,192,177334,128,8,177795:0:0:0:0:
64,192,177795,1,2,0:0:0:0:
192,192,178488,1,2,0:0:0:0:
448,192,178718,1,2,0:0:0:0:
320,192,178718,1,6,0:0:0:0:
64,192,179180,1,2,0:0:0:0:
192,192,179641,1,2,0:0:0:0:
448,192,180103,1,2,0:0:0:0:
192,192,180564,1,2,0:0:0:0:
64,192,181026,1,2,0:0:0:0:
320,192,181488,1,2,0:0:0:0:
448,192,181949,1,2,0:0:0:0:
192,192,182411,1,2,0:0:0:0:
320,192,182872,1,2,0:0:0:0:
448,192,183334,1,2,0:0:0:0:
192,192,183795,1,2,0:0:0:0:
64,192,184257,1,2,0:0:0:0:
320,192,184718,1,2,0:0:0:0:
64,192,185180,128,8,185641:0:0:0:0:
448,192,185641,128,8,186103:0:0:0:0:
192,192,186103,1,6,0:0:0:0:
320,192,186564,1,2,0:0:0:0:
448,192,187026,1,2,0:0:0:0:
192,192,187488,1,2,0:0:0:0:
64,192,187949,1,2,0:0:0:0:
320,192,188411,1,2,0:0:0:0:
192,192,188872,1,2,0:0:0:0:
448,192,189334,1,2,0:0:0:0:
320,192,189795,1,2,0:0:0:0:
64,192,190257,1,2,0:0:0:0:
192,192,190718,1,2,0:0:0:0:
320,192,191180,1,2,0:0:0:0:
448,192,191641,128,0,192103:0:0:0:0:
64,192,192103,128,8,192564:0:0:0:0:
448,192,192564,1,0,0:0:0:0:
320,192,193026,1,2,0:0:0:0:
64,192,193488,1,2,0:0:0:0:
192,192,193488,1,6,0:0:0:0:
448,192,193949,1,2,0:0:0:0:
192,192,194411,1,2,0:0:0:0:
320,192,194872,1,2,0:0:0:0:
64,192,195334,1,2,0:0:0:0:
320,192,195795,1,2,0:0:0:0:
192,192,196257,1,2,0:0:0:0:
448,192,196718,1,2,0:0:0:0:
64,192,197180,1,2,0:0:0:0:
192,192,197641,1,2,0:0:0:0:
448,192,198103,1,2,0:0:0:0:
320,192,198564,1,2,0:0:0:0:
192,192,199026,128,6,199488:0:0:0:0:
320,192,199488,128,6,199949:0:0:0:0:
64,192,199949,1,8,0:0:0:0:
192,192,200411,1,8,0:0:0:0:
448,192,200872,1,2,0:0:0:0:
192,192,201103,1,2,0:0:0:0:
320,192,201334,1,2,0:0:0:0:
64,192,201795,1,2,0:0:0:0:
192,192,202141,1,2,0:0:0:0:
448,192,202488,1,2,0:0:0:0:
64,192,202718,1,2,0:0:0:0:
320,192,202949,1,2,0:0:0:0:
192,192,203411,1,2,0:0:0:0:
448,192,203641,1,2,0:0:0:0:
320,192,203988,1,2,0:0:0:0:
64,192,204564,128,8,205488:0:0:0:0:
448,192,205488,128,8,206411:0:0:0:0:
64,192,206411,1,2,0:0:0:0:
192,192,206757,1,2,0:0:0:0:
320,192,206988,1,2,0:0:0:0:
448,192,207334,1,2,0:0:0:0:
192,192,208026,1,2,0:0:0:0:
64,192,208257,1,6,0:0:0:0:
448,192,208257,1,2,0:0:0:0:
