osu file format v14

[General]
AudioFilename: 04-djkurara_-_japanese_transformation-zzzz.mp3
AudioLeadIn: 0
PreviewTime: 88665
Countdown: 0
SampleSet: Normal
StackLeniency: 0.7
Mode: 1
LetterboxInBreaks: 0
WidescreenStoryboard: 0

[Editor]
DistanceSpacing: 1
BeatDivisor: 4
GridSize: 16
TimelineZoom: 1.900005

[Metadata]
Title:Japanese Transformation
TitleUnicode:Japanese Transformation
Artist:DJKurara
ArtistUnicode:DJKurara
Creator:Rhytoly
Version:Oni
Source:
Tags:Tanoshi Torture KyokudoCore Records KCRCD003 J-Speedcore Happy Speedcore J-Core Electronic Instrumental
BeatmapID:2226991
BeatmapSetID:1063324

[Difficulty]
HPDrainRate:5
CircleSize:5
OverallDifficulty:6
ApproachRate:10
SliderMultiplier:1.4
SliderTickRate:1

[Events]
//Background and Video events
0,0,"1498922073669.jpg",0,0
//Break Periods
//Storyboard Layer 0 (Background)
//Storyboard Layer 1 (Fail)
//Storyboard Layer 2 (Pass)
//Storyboard Layer 3 (Foreground)
//Storyboard Layer 4 (Overlay)
//Storyboard Sound Samples

[TimingPoints]
50,230.769230769231,4,1,0,60,1,0
50,-111.111111111111,4,1,0,60,0,0
13896,-111.111111111111,4,1,0,80,0,0
14819,-100,4,1,0,80,0,0
16665,-111.111111111111,4,1,0,80,0,0
18511,-100,4,1,0,80,0,0
20357,-111.111111111111,4,1,0,80,0,0
22203,-100,4,1,0,80,0,0
23819,-111.111111111111,4,1,0,80,0,0
24050,-100,4,1,0,80,0,0
25665,-111.111111111111,4,1,0,80,0,0
25780,-105.263157894737,4,1,0,80,0,0
25896,-100,4,1,0,80,0,0
28665,-111.111111111111,4,1,0,80,0,0
29357,-100,4,1,0,80,0,0
29588,-105.263157894737,4,1,0,100,0,1
43434,-105.263157894737,4,1,0,100,0,0
43550,-100,4,1,0,100,0,0
44357,-102.564102564103,4,1,0,100,0,1
51742,-100,4,1,0,100,0,1
59126,-100,4,1,0,100,0,0
59357,-105.263157894737,4,1,0,100,0,0
59473,-108.108108108108,4,1,0,100,0,0
59703,-111.111111111111,4,1,0,100,0,0
73896,-105.263157894737,4,1,0,100,0,0
88203,-117.647058823529,4,1,0,100,0,0
88665,-100,4,1,0,100,0,1
95126,-90.9090909090909,4,1,0,100,0,1
95819,-100,4,1,0,100,0,1
102511,-100,4,1,0,100,0,0
102742,-105.263157894737,4,1,0,100,0,0
103434,-100,4,1,0,100,0,1
106203,-90.9090909090909,4,1,0,100,0,1
107126,-100,4,1,0,100,0,1
109780,-102.564102564103,4,1,0,100,0,1
109896,-105.263157894737,4,1,0,100,0,0
110819,-97.5609756097561,4,1,0,100,0,1
114511,-95.2380952380952,4,1,0,100,0,1
118203,-95.2380952380952,4,1,0,90,0,0
118550,-105.263157894737,4,1,0,90,0,0
119819,-108.108108108108,4,1,0,90,0,0
119992,-111.111111111111,4,1,0,80,0,0
121665,-114.285714285714,4,1,0,80,0,0
121896,-117.647058823529,4,1,0,70,0,0
123511,-121.212121212121,4,1,0,70,0,0
123742,-125,4,1,0,60,0,0
125357,-129.032258064516,4,1,0,60,0,0
125588,-133.333333333333,4,1,0,60,0,0
132973,-125,4,1,0,60,0,0
147742,-117.647058823529,4,1,0,100,0,0
162511,-111.111111111111,4,1,0,100,0,0
170357,-125,4,1,0,100,0,0
173357,-121.212121212121,4,1,0,100,0,0
173588,-117.647058823529,4,1,0,100,0,0
177280,-100,4,1,0,100,0,1
191126,-105.263157894737,4,1,0,100,0,0
191819,-104.166666666667,4,1,0,100,0,0
191934,-102.564102564103,4,1,0,100,0,0
192050,-100,4,1,0,100,0,1
198857,-90.9090909090909,4,1,0,100,0,1
199203,-100,4,1,0,100,0,1
205896,-100,4,1,0,100,0,0
206126,-111.111111111111,4,1,0,100,0,0
206357,-108.695652173913,4,1,0,100,0,0
206473,-105.263157894737,4,1,0,100,0,0
206588,-102.040816326531,4,1,0,100,0,0
206703,-98.0392156862745,4,1,0,100,0,0
206819,-97.5609756097561,4,1,0,100,0,1
220665,-97.5609756097561,4,1,0,100,0,0
221126,-90.9090909090909,4,1,0,100,0,0
221588,-95.2380952380952,4,1,0,100,0,1
227126,-90.9090909090909,4,1,0,100,0,1
228280,-95.2380952380952,4,1,0,100,0,1
228973,-93.0232558139535,4,1,0,100,0,1
231742,-90.9090909090909,4,1,0,100,0,0
232665,-90.9090909090909,4,1,0,100,0,1
236357,-90.9090909090909,4,1,0,100,0,0
236588,-105.263157894737,4,1,0,100,0,0
243626,-108.108108108108,4,1,0,100,0,0
243742,-111.111111111111,4,1,0,80,0,0
251126,-111.111111111111,4,1,0,60,0,0
252973,-111.111111111111,4,1,0,55,0,0
254819,-111.111111111111,4,1,0,50,0,0
256665,-111.111111111111,4,1,0,45,0,0
258511,-105.263157894737,4,1,0,60,0,0
262203,-102.564102564103,4,1,0,70,0,0
264050,-100,4,1,0,80,0,0
264973,-100,4,1,0,80,0,0
265896,-90.9090909090909,4,1,0,100,0,0

[HitObjects]
242,172,50,5,4,0:0:0:0:
243,162,280,1,8,0:0:0:0:
243,162,511,1,8,0:0:0:0:
243,162,626,1,0,0:0:0:0:
243,162,742,1,0,0:0:0:0:
243,162,857,1,8,0:0:0:0:
297,193,1088,1,0,0:0:0:0:
336,205,1203,1,8,0:0:0:0:
261,196,1434,1,8,0:0:0:0:
261,196,1550,1,0,0:0:0:0:
261,196,1665,1,0,0:0:0:0:
261,196,1780,1,8,0:0:0:0:
261,196,1896,1,0,0:0:0:0:
285,188,2126,1,8,0:0:0:0:
269,172,2357,1,8,0:0:0:0:
269,172,2473,1,0,0:0:0:0:
269,172,2588,1,0,0:0:0:0:
269,172,2703,1,8,0:0:0:0:
301,186,2934,1,0,0:0:0:0:
301,186,3050,1,8,0:0:0:0:
366,258,3280,1,8,0:0:0:0:
246,173,3396,1,0,0:0:0:0:
246,173,3511,1,8,0:0:0:0:
246,173,3742,1,0,0:0:0:0:
174,134,3973,1,8,0:0:0:0:
170,117,4203,1,0,0:0:0:0:
170,117,4319,1,0,0:0:0:0:
170,117,4434,1,0,0:0:0:0:
170,117,4550,1,8,0:0:0:0:
325,205,4780,1,0,0:0:0:0:
325,205,4896,1,8,0:0:0:0:
237,214,5126,1,0,0:0:0:0:
237,214,5242,1,0,0:0:0:0:
237,214,5357,1,0,0:0:0:0:
237,214,5473,1,8,0:0:0:0:
237,214,5588,1,0,0:0:0:0:
256,197,5819,1,8,0:0:0:0:
227,188,6050,1,0,0:0:0:0:
227,188,6165,1,0,0:0:0:0:
227,188,6280,1,0,0:0:0:0:
227,188,6396,1,8,0:0:0:0:
227,188,6626,1,0,0:0:0:0:
227,188,6742,1,8,0:0:0:0:
250,210,6973,1,0,0:0:0:0:
250,210,7088,1,8,0:0:0:0:
250,210,7203,1,0,0:0:0:0:
250,210,7319,1,8,0:0:0:0:
250,210,7434,1,4,0:0:0:0:
243,162,7665,1,8,0:0:0:0:
243,162,7896,1,8,0:0:0:0:
243,162,8011,1,0,0:0:0:0:
243,162,8126,1,0,0:0:0:0:
243,162,8242,1,8,0:0:0:0:
297,193,8473,1,0,0:0:0:0:
336,205,8588,1,8,0:0:0:0:
261,196,8819,1,8,0:0:0:0:
261,196,8934,1,0,0:0:0:0:
261,196,9050,1,0,0:0:0:0:
261,196,9165,1,8,0:0:0:0:
261,196,9280,1,0,0:0:0:0:
285,188,9511,1,8,0:0:0:0:
269,172,9742,1,8,0:0:0:0:
269,172,9857,1,0,0:0:0:0:
269,172,9973,1,0,0:0:0:0:
269,172,10088,1,8,0:0:0:0:
301,186,10319,1,0,0:0:0:0:
301,186,10434,1,8,0:0:0:0:
366,258,10665,1,0,0:0:0:0:
246,173,10780,1,0,0:0:0:0:
246,173,10896,1,8,0:0:0:0:
246,173,11126,1,0,0:0:0:0:
174,134,11357,1,8,0:0:0:0:
170,117,11588,1,8,0:0:0:0:
170,117,11703,1,0,0:0:0:0:
170,117,11819,1,0,0:0:0:0:
170,117,11934,1,8,0:0:0:0:
325,205,12165,1,0,0:0:0:0:
325,205,12280,1,8,0:0:0:0:
237,214,12511,1,8,0:0:0:0:
237,214,12626,1,0,0:0:0:0:
237,214,12742,1,8,0:0:0:0:
237,214,12857,1,8,0:0:0:0:
237,214,12973,1,0,0:0:0:0:
256,197,13203,1,8,0:0:0:0:
227,188,13434,1,8,0:0:0:0:
227,188,13550,1,0,0:0:0:0:
227,188,13665,1,0,0:0:0:0:
227,188,13780,1,8,0:0:0:0:
319,176,13896,1,0,0:0:0:0:
227,188,14126,1,8,0:0:0:0:
315,162,14242,1,0,0:0:0:0:
314,161,14300,1,0,0:0:0:0:
250,210,14357,1,0,0:0:0:0:
250,210,14473,1,8,0:0:0:0:
250,210,14588,1,4,0:0:0:0:
250,210,14819,1,4,0:0:0:0:
233,132,15165,1,4,0:0:0:0:
308,170,15511,1,4,0:0:0:0:
227,126,15857,1,4,0:0:0:0:
231,134,16203,1,4,0:0:0:0:
266,194,16434,1,8,0:0:0:0:
266,194,16665,1,0,0:0:0:0:
193,162,16780,1,0,0:0:0:0:
193,162,16896,1,8,0:0:0:0:
193,162,17011,1,0,0:0:0:0:
193,162,17069,1,0,0:0:0:0:
193,162,17126,1,0,0:0:0:0:
274,189,17242,1,8,0:0:0:0:
274,189,17473,1,0,0:0:0:0:
366,215,17588,1,8,0:0:0:0:
255,172,17703,1,0,0:0:0:0:
255,172,17761,1,8,0:0:0:0:
255,172,17819,1,0,0:0:0:0:
255,172,17934,1,8,0:0:0:0:
255,172,18050,1,4,0:0:0:0:
175,152,18165,1,4,0:0:0:0:
175,152,18280,1,4,0:0:0:0:
175,152,18511,1,4,0:0:0:0:
208,157,18857,1,4,0:0:0:0:
208,157,19203,1,4,0:0:0:0:
208,157,19550,1,4,0:0:0:0:
235,173,19896,1,12,0:0:0:0:
230,173,20126,1,4,0:0:0:0:
215,167,20357,1,8,0:0:0:0:
215,167,20473,1,0,0:0:0:0:
215,167,20530,1,0,0:0:0:0:
215,167,20588,1,0,0:0:0:0:
215,167,20703,1,8,0:0:0:0:
215,167,20819,1,0,0:0:0:0:
215,167,20876,1,0,0:0:0:0:
215,167,20934,1,0,0:0:0:0:
215,167,21050,1,8,0:0:0:0:
215,167,21165,1,0,0:0:0:0:
196,160,21223,1,0,0:0:0:0:
196,160,21280,1,8,0:0:0:0:
257,176,21396,1,8,0:0:0:0:
257,176,21511,1,0,0:0:0:0:
257,176,21742,1,0,0:0:0:0:
364,146,21857,1,0,0:0:0:0:
364,146,21973,1,8,0:0:0:0:
364,146,22030,1,8,0:0:0:0:
364,146,22088,1,8,0:0:0:0:
309,191,22203,1,4,0:0:0:0:
270,204,22550,1,4,0:0:0:0:
270,204,22896,1,4,0:0:0:0:
270,204,23242,1,4,0:0:0:0:
270,204,23588,1,4,0:0:0:0:
213,199,23819,1,0,0:0:0:0:
213,199,24050,1,4,0:0:0:0:
233,177,24396,1,4,0:0:0:0:
190,177,24742,1,4,0:0:0:0:
190,177,25088,1,4,0:0:0:0:
233,202,25434,1,4,0:0:0:0:
233,202,25665,1,4,0:0:0:0:
229,212,25780,1,4,0:0:0:0:
229,212,25896,1,4,0:0:0:0:
249,204,26069,1,4,0:0:0:0:
249,204,26242,1,4,0:0:0:0:
249,204,26357,1,4,0:0:0:0:
249,204,26530,1,4,0:0:0:0:
249,204,26703,1,4,0:0:0:0:
249,204,26819,1,12,0:0:0:0:
248,179,26992,1,12,0:0:0:0:
248,179,27165,1,12,0:0:0:0:
248,179,27280,1,12,0:0:0:0:
248,179,27453,1,12,0:0:0:0:
248,179,27626,1,12,0:0:0:0:
248,179,27742,1,12,0:0:0:0:
256,192,27857,12,0,28550,0:0:0:0:
160,224,28665,5,4,0:0:0:0:
251,154,28896,5,8,0:0:0:0:
251,154,29126,1,8,0:0:0:0:
251,154,29357,1,12,0:0:0:0:
250,154,29588,1,4,0:0:0:0:
291,218,29819,1,8,0:0:0:0:
291,218,29934,1,0,0:0:0:0:
291,218,30050,1,8,0:0:0:0:
291,218,30107,1,0,0:0:0:0:
291,218,30165,1,8,0:0:0:0:
75,150,30280,1,0,0:0:0:0:
86,144,30396,1,8,0:0:0:0:
311,190,30511,1,0,0:0:0:0:
286,166,30626,1,0,0:0:0:0:
286,166,30742,1,8,0:0:0:0:
291,169,30857,1,0,0:0:0:0:
291,169,30915,1,0,0:0:0:0:
291,169,30973,1,8,0:0:0:0:
291,169,31088,1,8,0:0:0:0:
306,209,31203,1,0,0:0:0:0:
316,194,31319,1,8,0:0:0:0:
316,194,31376,1,8,0:0:0:0:
316,194,31434,1,0,0:0:0:0:
216,199,31665,1,8,0:0:0:0:
196,200,31780,1,0,0:0:0:0:
218,187,31896,1,8,0:0:0:0:
252,157,31953,1,8,0:0:0:0:
218,187,32011,1,0,0:0:0:0:
218,187,32126,1,0,0:0:0:0:
218,187,32242,1,8,0:0:0:0:
239,165,32357,1,0,0:0:0:0:
225,175,32473,1,0,0:0:0:0:
176,171,32530,1,0,0:0:0:0:
225,175,32588,1,8,0:0:0:0:
225,175,32703,1,0,0:0:0:0:
225,175,32819,1,8,0:0:0:0:
225,175,32934,1,8,0:0:0:0:
225,175,33050,1,8,0:0:0:0:
240,160,33107,1,0,0:0:0:0:
225,175,33165,1,8,0:0:0:0:
240,160,33223,1,8,0:0:0:0:
297,155,33280,5,0,0:0:0:0:
297,155,33511,1,8,0:0:0:0:
297,155,33626,1,0,0:0:0:0:
301,138,33684,1,0,0:0:0:0:
301,138,33742,1,8,0:0:0:0:
301,138,33857,1,0,0:0:0:0:
301,150,33973,1,0,0:0:0:0:
251,100,34088,1,8,0:0:0:0:
255,144,34146,1,8,0:0:0:0:
255,144,34203,1,0,0:0:0:0:
251,100,34319,1,0,0:0:0:0:
175,159,34434,1,8,0:0:0:0:
224,144,34492,1,8,0:0:0:0:
175,159,34550,1,8,0:0:0:0:
280,139,34665,1,0,0:0:0:0:
305,156,34780,1,8,0:0:0:0:
217,51,34896,1,8,0:0:0:0:
305,156,35011,1,0,0:0:0:0:
305,156,35069,1,8,0:0:0:0:
305,156,35126,1,0,0:0:0:0:
356,183,35357,1,8,0:0:0:0:
356,183,35473,1,8,0:0:0:0:
322,217,35588,1,8,0:0:0:0:
309,183,35646,1,8,0:0:0:0:
309,183,35703,1,0,0:0:0:0:
309,183,35819,1,0,0:0:0:0:
246,203,35934,1,8,0:0:0:0:
246,203,36050,1,0,0:0:0:0:
246,203,36107,1,0,0:0:0:0:
246,203,36165,1,0,0:0:0:0:
246,203,36223,1,0,0:0:0:0:
246,203,36280,1,8,0:0:0:0:
289,227,36396,1,8,0:0:0:0:
289,227,36511,1,0,0:0:0:0:
289,227,36973,1,4,0:0:0:0:
225,93,37203,1,8,0:0:0:0:
225,93,37319,1,0,0:0:0:0:
225,93,37434,1,8,0:0:0:0:
225,93,37492,1,8,0:0:0:0:
225,93,37550,1,8,0:0:0:0:
225,93,37665,1,0,0:0:0:0:
300,195,37780,1,8,0:0:0:0:
295,185,37838,1,8,0:0:0:0:
295,185,37896,1,0,0:0:0:0:
334,200,38011,1,0,0:0:0:0:
263,133,38126,1,8,0:0:0:0:
171,136,38242,1,0,0:0:0:0:
171,136,38300,1,0,0:0:0:0:
171,136,38357,1,8,0:0:0:0:
330,164,38473,1,0,0:0:0:0:
330,164,38588,1,8,0:0:0:0:
330,164,38703,1,8,0:0:0:0:
330,164,38761,1,8,0:0:0:0:
330,164,38819,1,0,0:0:0:0:
331,226,39050,1,8,0:0:0:0:
331,226,39165,1,0,0:0:0:0:
331,226,39223,1,0,0:0:0:0:
331,226,39280,1,8,0:0:0:0:
331,226,39396,1,0,0:0:0:0:
261,110,39511,1,0,0:0:0:0:
187,147,39626,1,8,0:0:0:0:
233,166,39684,1,8,0:0:0:0:
239,150,39742,1,0,0:0:0:0:
239,150,39857,1,8,0:0:0:0:
187,147,39973,1,8,0:0:0:0:
213,157,40088,1,0,0:0:0:0:
171,179,40203,1,8,0:0:0:0:
171,179,40261,1,8,0:0:0:0:
171,179,40319,1,0,0:0:0:0:
408,254,40434,1,8,0:0:0:0:
307,183,40492,1,8,0:0:0:0:
307,183,40550,1,8,0:0:0:0:
307,183,40607,1,8,0:0:0:0:
307,183,40665,1,0,0:0:0:0:
346,241,40896,1,8,0:0:0:0:
346,241,41011,1,0,0:0:0:0:
300,211,41069,1,0,0:0:0:0:
391,271,41126,1,8,0:0:0:0:
364,216,41242,1,8,0:0:0:0:
364,216,41357,1,0,0:0:0:0:
364,216,41473,1,8,0:0:0:0:
235,126,41530,1,8,0:0:0:0:
364,216,41588,1,8,0:0:0:0:
364,194,41703,1,0,0:0:0:0:
364,194,41819,1,8,0:0:0:0:
364,194,41876,1,0,0:0:0:0:
364,194,41934,1,8,0:0:0:0:
274,152,42050,1,8,0:0:0:0:
306,162,42165,1,0,0:0:0:0:
324,189,42223,1,8,0:0:0:0:
306,162,42280,1,0,0:0:0:0:
317,171,42396,1,8,0:0:0:0:
317,171,42511,1,0,0:0:0:0:
306,162,42569,1,0,0:0:0:0:
306,162,42626,1,0,0:0:0:0:
306,162,42684,1,0,0:0:0:0:
306,162,42742,1,8,0:0:0:0:
252,70,42857,1,8,0:0:0:0:
161,96,42973,1,0,0:0:0:0:
161,96,43088,1,0,0:0:0:0:
161,96,43203,1,8,0:0:0:0:
161,96,43319,1,8,0:0:0:0:
311,213,43550,5,12,0:0:0:0:
311,213,43780,1,12,0:0:0:0:
311,213,43896,1,4,0:0:0:0:
213,150,44126,1,12,0:0:0:0:
150,162,44357,1,4,0:0:0:0:
291,164,44588,1,8,0:0:0:0:
304,149,44703,1,0,0:0:0:0:
304,149,44819,1,8,0:0:0:0:
304,149,44876,1,0,0:0:0:0:
304,149,44934,1,8,0:0:0:0:
304,149,45050,1,0,0:0:0:0:
304,149,45165,1,8,0:0:0:0:
336,189,45223,1,8,0:0:0:0:
336,189,45280,1,0,0:0:0:0:
336,189,45396,1,0,0:0:0:0:
336,189,45511,1,8,0:0:0:0:
336,189,45626,1,0,0:0:0:0:
336,189,45684,1,0,0:0:0:0:
336,189,45742,1,8,0:0:0:0:
336,189,45857,1,0,0:0:0:0:
336,189,45973,1,8,0:0:0:0:
242,181,46088,1,0,0:0:0:0:
213,192,46146,1,0,0:0:0:0:
314,174,46203,1,0,0:0:0:0:
254,156,46434,1,8,0:0:0:0:
254,156,46550,1,8,0:0:0:0:
222,136,46665,1,0,0:0:0:0:
222,136,46723,1,8,0:0:0:0:
222,136,46780,1,0,0:0:0:0:
222,136,46896,1,0,0:0:0:0:
222,136,47011,1,8,0:0:0:0:
222,136,47126,1,0,0:0:0:0:
243,175,47242,1,0,0:0:0:0:
242,175,47357,1,8,0:0:0:0:
242,175,47415,1,8,0:0:0:0:
242,175,47473,1,8,0:0:0:0:
242,175,47530,1,8,0:0:0:0:
242,175,47588,1,0,0:0:0:0:
287,190,47703,1,0,0:0:0:0:
287,190,47819,1,8,0:0:0:0:
287,190,47876,1,8,0:0:0:0:
287,190,47934,1,8,0:0:0:0:
287,190,47992,1,8,0:0:0:0:
287,190,48050,1,0,0:0:0:0:
321,171,48280,1,0,0:0:0:0:
204,153,48396,1,8,0:0:0:0:
216,153,48511,1,8,0:0:0:0:
292,135,48569,1,8,0:0:0:0:
292,135,48626,1,0,0:0:0:0:
292,135,48742,1,0,0:0:0:0:
292,135,48857,1,8,0:0:0:0:
244,162,48915,1,0,0:0:0:0:
259,186,48973,1,8,0:0:0:0:
244,162,49088,1,0,0:0:0:0:
244,162,49203,1,8,0:0:0:0:
244,162,49319,1,0,0:0:0:0:
210,77,49376,1,0,0:0:0:0:
252,161,49434,1,8,0:0:0:0:
252,161,49550,1,0,0:0:0:0:
252,161,49665,1,8,0:0:0:0:
252,161,49780,1,8,0:0:0:0:
221,172,49838,1,8,0:0:0:0:
252,161,49896,1,0,0:0:0:0:
179,162,50126,1,8,0:0:0:0:
179,162,50184,1,8,0:0:0:0:
179,162,50242,1,8,0:0:0:0:
179,162,50357,1,0,0:0:0:0:
179,162,50473,1,8,0:0:0:0:
201,168,50530,1,8,0:0:0:0:
179,162,50588,1,0,0:0:0:0:
179,162,50703,1,8,0:0:0:0:
212,197,50819,1,0,0:0:0:0:
212,197,50876,1,0,0:0:0:0:
212,197,50934,1,0,0:0:0:0:
212,197,50992,1,0,0:0:0:0:
212,197,51050,1,8,0:0:0:0:
212,197,51165,1,8,0:0:0:0:
212,58,51280,1,0,0:0:0:0:
157,164,51742,1,8,0:0:0:0:
323,259,51800,1,8,0:0:0:0:
323,259,51857,1,0,0:0:0:0:
323,259,51915,1,0,0:0:0:0:
323,259,51973,1,8,0:0:0:0:
323,259,52088,1,0,0:0:0:0:
323,259,52146,1,0,0:0:0:0:
323,259,52203,1,0,0:0:0:0:
323,259,52319,1,8,0:0:0:0:
323,259,52434,1,0,0:0:0:0:
323,259,52550,1,8,0:0:0:0:
355,138,52607,1,8,0:0:0:0:
252,195,52665,1,0,0:0:0:0:
252,195,52780,1,8,0:0:0:0:
252,195,52896,1,0,0:0:0:0:
252,195,52953,1,8,0:0:0:0:
252,195,53011,1,0,0:0:0:0:
252,195,53069,1,0,0:0:0:0:
252,195,53126,1,8,0:0:0:0:
252,195,53242,1,8,0:0:0:0:
252,195,53357,1,0,0:0:0:0:
301,146,53588,1,8,0:0:0:0:
301,146,53646,1,0,0:0:0:0:
301,146,53703,1,8,0:0:0:0:
135,136,53819,1,0,0:0:0:0:
309,124,53934,1,8,0:0:0:0:
256,225,53992,1,8,0:0:0:0:
256,225,54050,1,8,0:0:0:0:
256,225,54165,1,8,0:0:0:0:
256,225,54223,1,8,0:0:0:0:
256,225,54280,1,0,0:0:0:0:
268,177,54396,1,8,0:0:0:0:
268,177,54511,1,0,0:0:0:0:
321,188,54626,1,8,0:0:0:0:
321,188,54684,1,8,0:0:0:0:
321,188,54742,1,0,0:0:0:0:
332,244,54857,1,8,0:0:0:0:
332,244,54915,1,8,0:0:0:0:
332,244,54973,1,0,0:0:0:0:
188,151,55088,1,8,0:0:0:0:
178,151,55146,1,8,0:0:0:0:
340,243,55203,1,0,0:0:0:0:
298,195,55319,1,8,0:0:0:0:
298,195,55376,1,8,0:0:0:0:
298,195,55434,1,8,0:0:0:0:
255,146,55607,1,8,0:0:0:0:
255,146,55780,1,8,0:0:0:0:
300,177,55896,1,12,0:0:0:0:
300,177,56069,1,12,0:0:0:0:
300,177,56242,1,12,0:0:0:0:
200,180,56357,1,4,0:0:0:0:
275,152,56588,1,8,0:0:0:0:
276,184,56703,1,0,0:0:0:0:
276,184,56819,1,8,0:0:0:0:
326,205,56876,1,8,0:0:0:0:
326,205,56934,1,0,0:0:0:0:
326,205,56992,1,0,0:0:0:0:
326,205,57050,1,8,0:0:0:0:
240,146,57280,1,0,0:0:0:0:
240,146,57338,1,0,0:0:0:0:
240,146,57396,1,0,0:0:0:0:
240,146,57453,1,0,0:0:0:0:
240,146,57511,1,8,0:0:0:0:
240,146,57626,1,0,0:0:0:0:
239,183,57742,1,8,0:0:0:0:
239,183,57800,1,8,0:0:0:0:
239,183,57857,1,0,0:0:0:0:
291,183,57915,1,0,0:0:0:0:
426,338,57973,1,8,0:0:0:0:
379,246,58030,1,8,0:0:0:0:
379,246,58088,1,8,0:0:0:0:
291,183,58146,1,8,0:0:0:0:
291,183,58203,1,0,0:0:0:0:
346,197,58434,1,8,0:0:0:0:
346,197,58550,1,0,0:0:0:0:
346,197,58607,1,8,0:0:0:0:
346,197,58665,1,0,0:0:0:0:
346,197,58780,1,0,0:0:0:0:
281,188,58896,1,8,0:0:0:0:
156,162,59126,1,4,0:0:0:0:
257,191,59357,1,0,0:0:0:0:
257,191,59473,1,8,0:0:0:0:
257,191,59703,1,8,0:0:0:0:
257,191,59819,1,0,0:0:0:0:
257,191,60050,1,0,0:0:0:0:
257,191,60280,1,0,0:0:0:0:
257,191,60396,1,8,0:0:0:0:
257,191,60626,1,8,0:0:0:0:
257,191,60742,1,0,0:0:0:0:
257,191,60973,1,0,0:0:0:0:
257,191,61203,1,0,0:0:0:0:
257,191,61319,1,8,0:0:0:0:
257,191,61550,1,8,0:0:0:0:
257,191,61665,1,0,0:0:0:0:
257,191,61896,1,0,0:0:0:0:
257,191,62011,1,8,0:0:0:0:
257,191,62126,1,0,0:0:0:0:
257,191,62242,1,8,0:0:0:0:
161,118,62357,1,0,0:0:0:0:
257,191,62473,1,8,0:0:0:0:
257,191,62588,1,0,0:0:0:0:
257,191,62703,1,8,0:0:0:0:
257,191,62819,1,0,0:0:0:0:
257,191,63050,1,0,0:0:0:0:
257,191,63165,1,8,0:0:0:0:
257,191,63396,1,8,0:0:0:0:
257,191,63511,1,0,0:0:0:0:
257,191,63742,1,0,0:0:0:0:
257,191,63973,1,0,0:0:0:0:
257,191,64088,1,8,0:0:0:0:
257,191,64319,1,8,0:0:0:0:
257,191,64434,1,0,0:0:0:0:
257,191,64665,1,0,0:0:0:0:
257,191,64896,1,0,0:0:0:0:
257,191,65011,1,8,0:0:0:0:
257,191,65242,1,8,0:0:0:0:
257,191,65357,1,0,0:0:0:0:
257,191,65588,1,0,0:0:0:0:
252,187,65703,1,8,0:0:0:0:
252,187,65819,1,0,0:0:0:0:
252,187,65934,1,8,0:0:0:0:
300,179,66050,1,0,0:0:0:0:
300,179,66165,1,0,0:0:0:0:
300,179,66280,1,8,0:0:0:0:
85,149,66396,1,8,0:0:0:0:
222,182,66511,1,4,0:0:0:0:
272,180,66742,1,0,0:0:0:0:
272,180,66857,5,8,0:0:0:0:
257,191,67088,1,8,0:0:0:0:
257,191,67203,1,0,0:0:0:0:
257,191,67434,1,0,0:0:0:0:
257,191,67665,1,0,0:0:0:0:
257,191,67780,1,8,0:0:0:0:
257,191,68011,1,8,0:0:0:0:
257,191,68126,1,0,0:0:0:0:
257,191,68357,1,0,0:0:0:0:
257,191,68588,1,0,0:0:0:0:
257,191,68703,1,8,0:0:0:0:
257,191,68934,1,8,0:0:0:0:
257,191,69050,1,0,0:0:0:0:
257,191,69280,1,0,0:0:0:0:
257,191,69396,1,8,0:0:0:0:
257,191,69511,1,0,0:0:0:0:
257,191,69626,1,8,0:0:0:0:
118,115,69742,1,0,0:0:0:0:
257,191,69857,1,8,0:0:0:0:
257,191,69973,1,0,0:0:0:0:
257,191,70088,1,8,0:0:0:0:
257,191,70203,1,0,0:0:0:0:
257,191,70434,1,0,0:0:0:0:
257,191,70550,1,8,0:0:0:0:
257,191,70780,1,8,0:0:0:0:
257,191,70896,1,0,0:0:0:0:
257,191,71126,1,0,0:0:0:0:
257,191,71357,1,0,0:0:0:0:
257,191,71473,1,8,0:0:0:0:
257,191,71703,1,8,0:0:0:0:
257,191,71819,1,0,0:0:0:0:
257,191,72050,1,0,0:0:0:0:
257,191,72280,1,0,0:0:0:0:
257,191,72396,1,8,0:0:0:0:
257,191,72626,1,8,0:0:0:0:
257,191,72742,1,0,0:0:0:0:
257,191,72973,1,0,0:0:0:0:
252,187,73088,1,8,0:0:0:0:
252,187,73203,1,0,0:0:0:0:
252,187,73319,1,0,0:0:0:0:
300,179,73434,1,8,0:0:0:0:
300,179,73550,1,8,0:0:0:0:
300,179,73665,1,8,0:0:0:0:
85,149,73780,1,8,0:0:0:0:
222,182,73896,1,4,0:0:0:0:
272,180,74126,1,0,0:0:0:0:
272,180,74242,5,8,0:0:0:0:
384,334,74357,1,0,0:0:0:0:
266,251,74473,1,8,0:0:0:0:
199,79,74530,1,0,0:0:0:0:
266,251,74588,1,8,0:0:0:0:
266,251,74703,1,8,0:0:0:0:
266,251,74819,1,0,0:0:0:0:
266,251,75050,1,0,0:0:0:0:
266,251,75165,1,8,0:0:0:0:
247,198,75280,1,0,0:0:0:0:
247,198,75396,1,8,0:0:0:0:
177,64,75453,1,8,0:0:0:0:
247,198,75511,1,0,0:0:0:0:
189,159,75626,1,8,0:0:0:0:
189,159,75742,1,0,0:0:0:0:
222,166,75973,1,8,0:0:0:0:
222,166,76088,1,8,0:0:0:0:
222,166,76203,1,0,0:0:0:0:
222,166,76319,1,8,0:0:0:0:
222,166,76434,1,0,0:0:0:0:
222,166,76492,1,8,0:0:0:0:
222,166,76550,1,0,0:0:0:0:
222,166,76665,1,0,0:0:0:0:
91,202,76780,1,8,0:0:0:0:
99,197,76896,1,0,0:0:0:0:
99,197,77011,1,8,0:0:0:0:
99,197,77126,1,8,0:0:0:0:
99,197,77184,1,8,0:0:0:0:
99,197,77242,1,8,0:0:0:0:
99,197,77357,1,0,0:0:0:0:
99,197,77473,1,8,0:0:0:0:
99,197,77588,1,0,0:0:0:0:
210,155,77819,1,0,0:0:0:0:
210,155,77934,1,8,0:0:0:0:
210,155,78050,1,0,0:0:0:0:
37,166,78165,1,8,0:0:0:0:
37,166,78223,1,0,0:0:0:0:
37,166,78280,1,8,0:0:0:0:
41,166,78396,1,8,0:0:0:0:
161,171,78511,1,0,0:0:0:0:
161,171,78742,1,0,0:0:0:0:
244,166,78857,1,8,0:0:0:0:
224,163,78973,1,0,0:0:0:0:
224,163,79030,1,0,0:0:0:0:
224,163,79088,1,8,0:0:0:0:
224,163,79203,1,8,0:0:0:0:
224,163,79319,1,8,0:0:0:0:
224,163,79434,1,0,0:0:0:0:
206,147,79665,1,0,0:0:0:0:
206,147,79780,1,8,0:0:0:0:
206,147,79896,1,0,0:0:0:0:
171,150,80011,1,8,0:0:0:0:
171,150,80069,1,0,0:0:0:0:
171,150,80126,1,8,0:0:0:0:
171,150,80242,1,8,0:0:0:0:
256,238,80357,1,4,0:0:0:0:
252,253,80473,1,12,0:0:0:0:
252,253,80588,1,4,0:0:0:0:
182,188,80819,1,0,0:0:0:0:
182,188,81050,1,8,0:0:0:0:
182,188,81280,1,4,0:0:0:0:
179,177,81396,1,4,0:0:0:0:
179,177,81511,1,12,0:0:0:0:
221,142,81742,1,8,0:0:0:0:
221,142,81857,1,0,0:0:0:0:
221,142,81973,1,8,0:0:0:0:
221,142,82088,1,0,0:0:0:0:
221,142,82146,1,0,0:0:0:0:
221,142,82203,1,8,0:0:0:0:
221,142,82434,1,0,0:0:0:0:
221,142,82550,1,8,0:0:0:0:
221,142,82665,1,0,0:0:0:0:
221,142,82780,1,8,0:0:0:0:
196,142,82838,1,8,0:0:0:0:
196,142,82896,1,0,0:0:0:0:
230,119,83011,1,0,0:0:0:0:
141,94,83126,1,12,0:0:0:0:
207,144,83357,1,0,0:0:0:0:
207,144,83473,1,8,0:0:0:0:
214,153,83588,1,0,0:0:0:0:
214,153,83703,1,8,0:0:0:0:
214,153,83761,1,8,0:0:0:0:
214,153,83819,1,0,0:0:0:0:
214,153,83934,1,8,0:0:0:0:
200,220,84050,1,0,0:0:0:0:
188,26,84165,1,8,0:0:0:0:
188,152,84280,1,0,0:0:0:0:
188,152,84396,1,8,0:0:0:0:
188,152,84511,1,8,0:0:0:0:
188,152,84569,1,8,0:0:0:0:
188,152,84626,1,8,0:0:0:0:
188,152,84742,1,0,0:0:0:0:
182,153,84857,1,8,0:0:0:0:
213,152,84973,1,4,0:0:0:0:
201,210,85203,1,0,0:0:0:0:
203,209,85319,1,8,0:0:0:0:
204,209,85434,1,0,0:0:0:0:
204,209,85550,1,0,0:0:0:0:
204,209,85665,1,8,0:0:0:0:
204,209,85780,1,8,0:0:0:0:
201,210,85896,1,4,0:0:0:0:
204,209,86126,1,0,0:0:0:0:
204,209,86242,1,8,0:0:0:0:
204,209,86357,1,0,0:0:0:0:
204,209,86473,1,8,0:0:0:0:
201,210,86588,1,8,0:0:0:0:
203,209,86703,1,8,0:0:0:0:
204,209,86819,1,4,0:0:0:0:
204,209,87050,1,8,0:0:0:0:
204,209,87165,1,8,0:0:0:0:
201,210,87280,1,0,0:0:0:0:
203,209,87396,1,8,0:0:0:0:
204,209,87511,1,8,0:0:0:0:
204,209,87626,1,8,0:0:0:0:
204,209,87742,1,4,0:0:0:0:
255,155,88203,1,8,0:0:0:0:
308,120,88665,5,4,0:0:0:0:
272,176,88780,1,0,0:0:0:0:
308,120,88896,1,8,0:0:0:0:
308,120,89011,1,0,0:0:0:0:
269,121,89069,1,0,0:0:0:0:
271,129,89126,1,8,0:0:0:0:
271,129,89242,1,8,0:0:0:0:
308,120,89357,1,0,0:0:0:0:
257,118,89473,1,8,0:0:0:0:
205,128,89530,1,0,0:0:0:0:
301,217,89588,1,0,0:0:0:0:
225,110,89703,1,8,0:0:0:0:
181,146,89819,1,0,0:0:0:0:
181,146,89876,1,0,0:0:0:0:
181,146,89934,1,8,0:0:0:0:
206,103,90050,1,0,0:0:0:0:
246,93,90165,1,8,0:0:0:0:
355,134,90280,1,0,0:0:0:0:
355,134,90338,1,0,0:0:0:0:
326,132,90396,1,8,0:0:0:0:
237,89,90453,1,8,0:0:0:0:
337,186,90511,1,8,0:0:0:0:
268,186,90626,1,0,0:0:0:0:
332,182,90742,1,8,0:0:0:0:
332,182,90800,1,8,0:0:0:0:
332,182,90857,1,0,0:0:0:0:
333,150,90973,1,8,0:0:0:0:
333,150,91088,1,0,0:0:0:0:
333,150,91146,1,0,0:0:0:0:
333,150,91203,1,8,0:0:0:0:
256,191,91261,1,0,0:0:0:0:
140,153,91319,1,8,0:0:0:0:
333,150,91434,1,0,0:0:0:0:
338,152,91550,1,0,0:0:0:0:
369,235,91607,1,0,0:0:0:0:
338,152,91665,1,0,0:0:0:0:
338,152,91780,1,0,0:0:0:0:
338,152,91896,1,8,0:0:0:0:
256,143,92126,1,8,0:0:0:0:
256,143,92184,1,8,0:0:0:0:
256,143,92242,1,8,0:0:0:0:
256,143,92300,1,8,0:0:0:0:
256,143,92357,1,0,0:0:0:0:
256,143,92473,1,8,0:0:0:0:
248,132,92588,1,8,0:0:0:0:
178,191,92703,1,0,0:0:0:0:
190,187,92761,1,8,0:0:0:0:
190,187,92819,1,0,0:0:0:0:
190,187,92934,1,8,0:0:0:0:
190,187,93050,1,0,0:0:0:0:
224,167,93165,1,8,0:0:0:0:
224,167,93223,1,8,0:0:0:0:
224,167,93280,1,0,0:0:0:0:
240,176,93396,1,0,0:0:0:0:
201,147,93511,1,8,0:0:0:0:
215,147,93569,1,0,0:0:0:0:
215,147,93626,1,8,0:0:0:0:
224,167,93742,1,8,0:0:0:0:
215,147,93857,1,0,0:0:0:0:
215,147,93973,1,8,0:0:0:0:
215,147,94088,1,0,0:0:0:0:
215,147,94146,1,0,0:0:0:0:
215,147,94203,1,0,0:0:0:0:
156,159,94319,1,8,0:0:0:0:
82,160,94434,1,8,0:0:0:0:
136,137,94550,1,0,0:0:0:0:
229,142,94607,1,0,0:0:0:0:
136,137,94665,1,8,0:0:0:0:
136,137,94723,1,8,0:0:0:0:
136,137,94780,1,8,0:0:0:0:
136,137,94896,1,8,0:0:0:0:
211,134,95011,1,0,0:0:0:0:
211,134,95126,1,4,0:0:0:0:
299,167,95357,1,4,0:0:0:0:
299,167,95588,1,4,0:0:0:0:
334,164,95819,1,8,0:0:0:0:
334,164,95934,1,8,0:0:0:0:
334,164,95992,1,8,0:0:0:0:
198,150,96050,1,0,0:0:0:0:
256,176,96165,1,0,0:0:0:0:
251,189,96280,1,8,0:0:0:0:
251,189,96396,1,0,0:0:0:0:
251,189,96453,1,8,0:0:0:0:
251,189,96511,1,0,0:0:0:0:
251,189,96626,1,8,0:0:0:0:
256,176,96742,1,0,0:0:0:0:
261,164,96857,1,8,0:0:0:0:
261,164,96915,1,8,0:0:0:0:
261,164,96973,1,0,0:0:0:0:
261,164,97088,1,8,0:0:0:0:
261,164,97203,1,0,0:0:0:0:
261,164,97261,1,0,0:0:0:0:
261,164,97319,1,8,0:0:0:0:
261,164,97434,1,8,0:0:0:0:
261,164,97550,1,0,0:0:0:0:
269,172,97665,1,8,0:0:0:0:
269,172,97780,1,8,0:0:0:0:
269,172,97838,1,8,0:0:0:0:
269,172,97896,1,0,0:0:0:0:
240,176,98011,1,8,0:0:0:0:
240,176,98126,1,0,0:0:0:0:
240,176,98242,1,8,0:0:0:0:
224,176,98357,1,8,0:0:0:0:
224,176,98415,1,8,0:0:0:0:
224,176,98473,1,8,0:0:0:0:
224,176,98588,1,0,0:0:0:0:
224,176,98703,1,8,0:0:0:0:
224,176,98819,1,0,0:0:0:0:
256,192,98934,1,0,0:0:0:0:
256,192,99050,1,0,0:0:0:0:
256,192,99165,1,0,0:0:0:0:
256,192,99280,1,0,0:0:0:0:
256,192,99511,1,8,0:0:0:0:
240,192,99742,1,0,0:0:0:0:
256,144,99857,1,0,0:0:0:0:
256,192,99973,1,8,0:0:0:0:
240,192,100088,1,0,0:0:0:0:
240,192,100203,1,8,0:0:0:0:
240,192,100261,1,0,0:0:0:0:
240,192,100319,1,0,0:0:0:0:
240,192,100434,1,8,0:0:0:0:
240,192,100550,1,8,0:0:0:0:
240,192,100665,1,0,0:0:0:0:
240,192,100723,1,8,0:0:0:0:
240,192,100780,1,8,0:0:0:0:
256,208,100896,1,0,0:0:0:0:
256,208,101011,1,8,0:0:0:0:
256,208,101126,1,8,0:0:0:0:
256,208,101184,1,0,0:0:0:0:
256,208,101242,1,8,0:0:0:0:
256,208,101357,1,8,0:0:0:0:
256,208,101473,1,0,0:0:0:0:
256,208,101530,1,0,0:0:0:0:
256,208,101588,1,8,0:0:0:0:
208,160,101703,1,0,0:0:0:0:
208,160,101761,1,0,0:0:0:0:
256,208,101819,1,0,0:0:0:0:
256,208,101934,1,8,0:0:0:0:
256,208,102050,1,0,0:0:0:0:
256,208,102107,1,0,0:0:0:0:
256,208,102165,1,0,0:0:0:0:
256,208,102223,1,0,0:0:0:0:
256,208,102280,1,8,0:0:0:0:
256,208,102338,1,8,0:0:0:0:
256,208,102396,1,8,0:0:0:0:
256,208,102453,1,8,0:0:0:0:
256,208,102511,1,0,0:0:0:0:
256,192,102742,1,8,0:0:0:0:
256,192,102973,1,0,0:0:0:0:
256,192,103203,1,8,0:0:0:0:
256,192,103434,1,4,0:0:0:0:
224,176,103550,1,0,0:0:0:0:
224,176,103607,1,0,0:0:0:0:
240,192,103665,1,8,0:0:0:0:
224,160,103780,1,0,0:0:0:0:
224,176,103896,1,8,0:0:0:0:
224,176,104011,1,8,0:0:0:0:
224,176,104069,1,0,0:0:0:0:
224,176,104126,1,8,0:0:0:0:
256,192,104242,1,0,0:0:0:0:
256,192,104357,1,8,0:0:0:0:
256,192,104415,1,8,0:0:0:0:
256,192,104473,1,0,0:0:0:0:
256,192,104588,1,8,0:0:0:0:
256,192,104703,1,8,0:0:0:0:
256,192,104819,1,0,0:0:0:0:
256,192,104876,1,0,0:0:0:0:
256,192,104934,1,8,0:0:0:0:
256,192,105050,1,0,0:0:0:0:
256,192,105165,1,8,0:0:0:0:
256,208,105223,1,8,0:0:0:0:
256,192,105280,1,8,0:0:0:0:
272,192,105396,1,0,0:0:0:0:
256,192,105511,1,8,0:0:0:0:
256,192,105569,1,8,0:0:0:0:
256,192,105626,1,0,0:0:0:0:
256,192,105684,1,0,0:0:0:0:
256,192,105742,1,8,0:0:0:0:
256,192,105857,1,0,0:0:0:0:
272,192,105915,1,0,0:0:0:0:
272,192,105973,1,8,0:0:0:0:
272,192,106088,1,8,0:0:0:0:
256,192,106203,1,4,0:0:0:0:
256,176,106434,1,4,0:0:0:0:
256,176,106550,1,4,0:0:0:0:
256,176,106665,1,4,0:0:0:0:
256,176,106896,1,4,0:0:0:0:
256,176,107126,1,0,0:0:0:0:
256,160,107242,1,0,0:0:0:0:
256,160,107300,1,0,0:0:0:0:
256,160,107357,1,8,0:0:0:0:
256,144,107473,1,0,0:0:0:0:
256,144,107588,1,8,0:0:0:0:
256,144,107646,1,0,0:0:0:0:
256,144,107703,1,8,0:0:0:0:
256,144,107819,1,8,0:0:0:0:
256,144,107934,1,0,0:0:0:0:
256,144,108050,1,8,0:0:0:0:
256,144,108107,1,0,0:0:0:0:
256,144,108165,1,0,0:0:0:0:
256,144,108280,1,8,0:0:0:0:
240,176,108396,1,0,0:0:0:0:
240,176,108453,1,0,0:0:0:0:
256,176,108511,1,8,0:0:0:0:
256,176,108626,1,0,0:0:0:0:
256,176,108742,1,8,0:0:0:0:
208,64,108857,1,8,0:0:0:0:
192,32,108915,1,8,0:0:0:0:
256,176,108973,1,8,0:0:0:0:
256,176,109088,1,0,0:0:0:0:
256,192,109203,1,8,0:0:0:0:
256,192,109261,1,8,0:0:0:0:
256,192,109319,1,0,0:0:0:0:
256,192,109434,1,8,0:0:0:0:
256,192,109492,1,8,0:0:0:0:
256,192,109550,1,8,0:0:0:0:
256,192,109607,1,8,0:0:0:0:
256,192,109665,1,0,0:0:0:0:
137,78,109780,1,8,0:0:0:0:
256,192,109896,1,0,0:0:0:0:
256,192,110011,1,8,0:0:0:0:
256,192,110242,1,8,0:0:0:0:
256,192,110473,1,8,0:0:0:0:
256,192,110703,1,8,0:0:0:0:
256,192,110819,1,4,0:0:0:0:
240,192,110934,1,8,0:0:0:0:
240,192,110992,1,8,0:0:0:0:
240,192,111050,1,0,0:0:0:0:
240,192,111165,1,0,0:0:0:0:
240,192,111280,1,8,0:0:0:0:
240,192,111396,1,0,0:0:0:0:
240,192,111453,1,0,0:0:0:0:
240,192,111511,1,8,0:0:0:0:
240,192,111626,1,8,0:0:0:0:
224,176,111742,5,0,0:0:0:0:
224,176,111800,1,0,0:0:0:0:
224,176,111857,1,0,0:0:0:0:
256,192,111973,1,8,0:0:0:0:
256,192,112088,1,8,0:0:0:0:
256,192,112203,1,0,0:0:0:0:
224,160,112261,1,8,0:0:0:0:
240,144,112319,1,0,0:0:0:0:
256,192,112434,1,0,0:0:0:0:
256,192,112550,1,8,0:0:0:0:
256,192,112607,1,8,0:0:0:0:
256,192,112665,1,0,0:0:0:0:
256,208,112780,1,8,0:0:0:0:
256,208,112896,1,0,0:0:0:0:
256,208,112953,1,8,0:0:0:0:
256,208,113011,1,8,0:0:0:0:
256,208,113126,1,0,0:0:0:0:
166,116,113184,1,0,0:0:0:0:
256,208,113242,1,8,0:0:0:0:
256,208,113300,1,8,0:0:0:0:
256,208,113357,1,0,0:0:0:0:
256,208,113473,1,0,0:0:0:0:
256,208,113588,1,8,0:0:0:0:
272,192,113703,1,8,0:0:0:0:
272,192,113761,1,8,0:0:0:0:
272,192,113819,1,0,0:0:0:0:
240,192,113934,1,0,0:0:0:0:
240,192,114050,1,8,0:0:0:0:
240,192,114107,1,8,0:0:0:0:
272,192,114165,1,0,0:0:0:0:
272,192,114223,1,0,0:0:0:0:
272,192,114280,1,8,0:0:0:0:
240,176,114511,1,0,0:0:0:0:
256,176,114626,1,0,0:0:0:0:
256,176,114742,1,8,0:0:0:0:
256,176,114800,1,8,0:0:0:0:
256,176,114857,1,8,0:0:0:0:
256,176,114973,1,0,0:0:0:0:
256,176,115088,1,0,0:0:0:0:
256,176,115203,1,8,0:0:0:0:
256,176,115261,1,8,0:0:0:0:
256,176,115319,1,8,0:0:0:0:
256,176,115376,1,8,0:0:0:0:
256,176,115434,1,0,0:0:0:0:
256,160,115550,1,0,0:0:0:0:
256,160,115665,1,8,0:0:0:0:
256,160,115723,1,0,0:0:0:0:
256,160,115780,1,8,0:0:0:0:
256,160,115838,1,8,0:0:0:0:
256,160,115896,1,0,0:0:0:0:
256,160,116011,1,0,0:0:0:0:
87,82,116069,1,0,0:0:0:0:
256,160,116126,1,8,0:0:0:0:
256,176,116184,1,8,0:0:0:0:
256,176,116242,1,8,0:0:0:0:
256,176,116300,1,8,0:0:0:0:
256,176,116357,1,0,0:0:0:0:
256,192,116588,1,8,0:0:0:0:
256,192,116703,1,0,0:0:0:0:
256,192,116934,1,8,0:0:0:0:
256,192,117050,1,0,0:0:0:0:
256,192,117280,1,4,0:0:0:0:
256,192,117626,1,0,0:0:0:0:
256,192,117742,1,8,0:0:0:0:
256,192,117857,1,8,0:0:0:0:
256,192,117973,1,8,0:0:0:0:
256,192,118088,1,8,0:0:0:0:
256,192,118203,1,4,0:0:0:0:
256,208,118550,1,8,0:0:0:0:
256,208,118896,1,8,0:0:0:0:
256,208,119242,1,0,0:0:0:0:
256,208,119588,1,8,0:0:0:0:
256,208,119819,1,8,0:0:0:0:
256,208,120050,1,0,0:0:0:0:
256,208,120396,1,8,0:0:0:0:
256,208,120742,1,0,0:0:0:0:
256,208,121088,1,0,0:0:0:0:
256,208,121434,1,8,0:0:0:0:
256,208,121665,1,8,0:0:0:0:
256,208,121896,1,0,0:0:0:0:
256,208,122242,1,8,0:0:0:0:
256,208,122588,1,8,0:0:0:0:
256,208,122934,1,0,0:0:0:0:
256,208,123280,1,8,0:0:0:0:
256,208,123511,1,8,0:0:0:0:
256,208,123742,1,0,0:0:0:0:
256,208,124088,1,8,0:0:0:0:
256,208,124434,1,0,0:0:0:0:
256,224,124780,1,8,0:0:0:0:
240,224,125126,1,8,0:0:0:0:
240,208,125357,1,8,0:0:0:0:
240,208,125588,1,4,0:0:0:0:
240,208,126973,1,0,0:0:0:0:
240,208,127434,1,8,0:0:0:0:
240,208,128819,1,8,0:0:0:0:
240,208,129280,1,8,0:0:0:0:
240,208,130665,1,0,0:0:0:0:
240,208,131126,1,8,0:0:0:0:
240,208,132511,1,8,0:0:0:0:
240,208,132973,1,4,0:0:0:0:
240,208,134357,1,0,0:0:0:0:
240,208,134819,1,8,0:0:0:0:
256,208,136203,1,8,0:0:0:0:
256,208,136665,1,8,0:0:0:0:
256,208,138050,1,0,0:0:0:0:
256,208,138511,1,8,0:0:0:0:
256,208,139896,1,8,0:0:0:0:
256,208,140357,1,4,0:0:0:0:
240,208,141742,1,0,0:0:0:0:
240,208,142203,1,4,0:0:0:0:
256,208,143588,1,8,0:0:0:0:
256,208,144050,1,4,0:0:0:0:
256,208,144973,1,4,0:0:0:0:
256,208,145896,1,4,0:0:0:0:
256,208,147742,1,4,0:0:0:0:
256,192,148203,1,8,0:0:0:0:
256,192,148665,1,0,0:0:0:0:
256,192,149126,1,8,0:0:0:0:
256,192,149588,1,0,0:0:0:0:
256,192,150050,1,8,0:0:0:0:
256,192,150511,1,0,0:0:0:0:
256,192,150973,1,8,0:0:0:0:
256,192,151203,1,0,0:0:0:0:
256,192,151434,1,0,0:0:0:0:
256,176,151896,1,8,0:0:0:0:
256,176,152357,1,0,0:0:0:0:
256,176,152819,1,8,0:0:0:0:
256,176,153280,1,0,0:0:0:0:
256,176,153742,1,8,0:0:0:0:
256,176,154203,1,0,0:0:0:0:
240,160,154434,1,0,0:0:0:0:
256,176,154665,1,8,0:0:0:0:
240,176,154780,1,8,0:0:0:0:
256,176,154896,1,8,0:0:0:0:
256,176,155011,1,8,0:0:0:0:
224,176,155126,1,4,0:0:0:0:
256,192,155588,1,8,0:0:0:0:
256,192,156050,1,0,0:0:0:0:
256,192,156511,1,8,0:0:0:0:
256,192,156973,1,0,0:0:0:0:
256,192,157434,1,8,0:0:0:0:
256,192,157896,1,0,0:0:0:0:
256,192,158357,1,8,0:0:0:0:
256,192,158588,1,0,0:0:0:0:
256,192,158819,1,0,0:0:0:0:
256,192,159280,1,8,0:0:0:0:
256,192,159742,1,0,0:0:0:0:
256,192,160203,1,8,0:0:0:0:
256,192,160665,1,12,0:0:0:0:
256,192,161126,1,0,0:0:0:0:
272,192,161357,1,0,0:0:0:0:
256,208,161588,1,8,0:0:0:0:
256,208,161703,1,8,0:0:0:0:
256,208,161819,1,0,0:0:0:0:
256,208,161934,1,0,0:0:0:0:
256,208,162050,1,8,0:0:0:0:
256,208,162280,1,8,0:0:0:0:
256,208,162511,1,4,0:0:0:0:
256,208,162973,1,8,0:0:0:0:
256,208,163434,1,0,0:0:0:0:
256,208,163896,1,8,0:0:0:0:
256,208,164357,1,0,0:0:0:0:
256,208,164819,1,8,0:0:0:0:
256,208,165280,1,0,0:0:0:0:
256,208,165742,1,8,0:0:0:0:
256,208,165973,1,0,0:0:0:0:
256,208,166203,1,0,0:0:0:0:
256,208,166665,1,8,0:0:0:0:
256,208,167126,1,0,0:0:0:0:
256,208,167588,1,8,0:0:0:0:
256,208,168050,1,0,0:0:0:0:
256,208,168511,1,8,0:0:0:0:
256,208,168973,1,0,0:0:0:0:
256,208,169203,1,0,0:0:0:0:
256,208,169434,1,8,0:0:0:0:
256,176,169550,1,8,0:0:0:0:
256,208,169665,1,8,0:0:0:0:
240,176,169780,1,8,0:0:0:0:
256,208,169896,1,4,0:0:0:0:
256,208,170357,1,8,0:0:0:0:
256,208,170819,1,0,0:0:0:0:
256,208,171280,1,8,0:0:0:0:
256,208,171742,1,0,0:0:0:0:
256,208,172203,1,8,0:0:0:0:
256,208,172665,1,0,0:0:0:0:
256,208,173126,1,8,0:0:0:0:
256,208,173357,1,0,0:0:0:0:
256,208,173588,1,4,0:0:0:0:
256,208,174050,1,8,0:0:0:0:
256,208,174511,1,0,0:0:0:0:
256,208,174973,1,8,0:0:0:0:
256,192,175434,12,0,177050,0:0:0:0:
256,208,177280,5,4,0:0:0:0:
256,240,177511,1,8,0:0:0:0:
256,240,177626,1,0,0:0:0:0:
256,240,177742,1,8,0:0:0:0:
256,240,177800,1,8,0:0:0:0:
256,240,177857,1,0,0:0:0:0:
240,192,177973,1,8,0:0:0:0:
240,192,178088,1,0,0:0:0:0:
240,192,178146,1,8,0:0:0:0:
240,192,178203,1,0,0:0:0:0:
240,176,178319,1,0,0:0:0:0:
288,176,178434,1,8,0:0:0:0:
288,176,178550,1,0,0:0:0:0:
272,160,178665,1,8,0:0:0:0:
272,160,178723,1,8,0:0:0:0:
272,160,178780,1,0,0:0:0:0:
272,160,178838,1,0,0:0:0:0:
272,160,178896,1,8,0:0:0:0:
272,160,179011,1,8,0:0:0:0:
272,160,179126,1,0,0:0:0:0:
279,198,179357,1,8,0:0:0:0:
352,208,179473,1,0,0:0:0:0:
288,192,179588,1,8,0:0:0:0:
80,128,179646,1,8,0:0:0:0:
288,192,179703,1,0,0:0:0:0:
80,128,179819,1,8,0:0:0:0:
80,128,179934,1,8,0:0:0:0:
80,128,180050,1,0,0:0:0:0:
272,160,180107,1,0,0:0:0:0:
256,160,180165,1,0,0:0:0:0:
272,160,180280,1,8,0:0:0:0:
272,160,180396,1,8,0:0:0:0:
272,160,180511,1,0,0:0:0:0:
186,150,180569,1,0,0:0:0:0:
272,160,180626,1,8,0:0:0:0:
272,160,180742,1,8,0:0:0:0:
272,160,180800,1,0,0:0:0:0:
272,160,180857,1,8,0:0:0:0:
272,160,180915,1,8,0:0:0:0:
272,160,180973,1,0,0:0:0:0:
320,176,181203,1,8,0:0:0:0:
320,176,181319,1,0,0:0:0:0:
192,208,181376,1,0,0:0:0:0:
320,176,181434,1,8,0:0:0:0:
192,208,181550,1,0,0:0:0:0:
192,208,181665,1,8,0:0:0:0:
192,192,181780,1,0,0:0:0:0:
192,192,181838,1,8,0:0:0:0:
192,192,181896,1,0,0:0:0:0:
176,176,182011,1,0,0:0:0:0:
320,224,182126,1,8,0:0:0:0:
320,224,182184,1,8,0:0:0:0:
320,224,182242,1,0,0:0:0:0:
384,208,182357,1,8,0:0:0:0:
384,208,182473,1,0,0:0:0:0:
384,208,182530,1,0,0:0:0:0:
384,208,182588,1,8,0:0:0:0:
384,208,182646,1,0,0:0:0:0:
384,208,182703,1,8,0:0:0:0:
384,208,182819,1,0,0:0:0:0:
352,192,183050,1,8,0:0:0:0:
352,208,183165,1,0,0:0:0:0:
304,144,183280,1,8,0:0:0:0:
304,144,183338,1,8,0:0:0:0:
304,144,183396,1,0,0:0:0:0:
416,288,183511,1,8,0:0:0:0:
144,144,183626,1,0,0:0:0:0:
144,144,183684,1,0,0:0:0:0:
416,288,183742,1,8,0:0:0:0:
240,192,183857,1,0,0:0:0:0:
336,176,184088,1,0,0:0:0:0:
256,192,184203,1,12,0:0:0:0:
256,192,184434,1,8,0:0:0:0:
256,192,184550,1,8,0:0:0:0:
256,192,184665,1,4,0:0:0:0:
240,144,184896,1,8,0:0:0:0:
240,144,185011,1,0,0:0:0:0:
240,144,185069,1,0,0:0:0:0:
240,144,185126,1,8,0:0:0:0:
240,144,185242,1,0,0:0:0:0:
240,144,185357,1,8,0:0:0:0:
240,144,185415,1,0,0:0:0:0:
240,144,185473,1,8,0:0:0:0:
240,144,185588,1,0,0:0:0:0:
240,144,185703,1,0,0:0:0:0:
240,144,185819,1,8,0:0:0:0:
240,144,185876,1,8,0:0:0:0:
240,144,185934,1,8,0:0:0:0:
240,144,186050,1,8,0:0:0:0:
240,144,186165,1,0,0:0:0:0:
240,144,186280,1,8,0:0:0:0:
240,144,186338,1,0,0:0:0:0:
240,144,186396,1,8,0:0:0:0:
240,144,186453,1,8,0:0:0:0:
240,144,186511,1,0,0:0:0:0:
240,160,186742,1,8,0:0:0:0:
240,160,186857,1,0,0:0:0:0:
240,160,186915,1,0,0:0:0:0:
240,160,186973,1,8,0:0:0:0:
240,160,187088,1,0,0:0:0:0:
240,160,187203,1,8,0:0:0:0:
240,160,187319,1,8,0:0:0:0:
240,160,187434,1,0,0:0:0:0:
12,98,187492,1,0,0:0:0:0:
208,160,187550,1,0,0:0:0:0:
224,176,187665,1,0,0:0:0:0:
224,208,187780,1,8,0:0:0:0:
224,208,187896,1,0,0:0:0:0:
224,208,187953,1,0,0:0:0:0:
224,208,188011,1,8,0:0:0:0:
224,208,188126,1,8,0:0:0:0:
224,208,188184,1,8,0:0:0:0:
224,208,188242,1,8,0:0:0:0:
224,208,188300,1,8,0:0:0:0:
224,208,188357,1,0,0:0:0:0:
240,224,188588,1,8,0:0:0:0:
240,224,188703,1,0,0:0:0:0:
224,240,188761,1,0,0:0:0:0:
240,256,188819,1,8,0:0:0:0:
240,256,188934,1,0,0:0:0:0:
240,256,189050,1,8,0:0:0:0:
240,256,189107,1,8,0:0:0:0:
240,256,189165,1,0,0:0:0:0:
240,256,189280,1,0,0:0:0:0:
256,240,189396,1,8,0:0:0:0:
256,240,189511,1,0,0:0:0:0:
256,240,189569,1,0,0:0:0:0:
256,240,189626,1,0,0:0:0:0:
256,240,189742,1,8,0:0:0:0:
256,240,189857,1,0,0:0:0:0:
256,240,189915,1,0,0:0:0:0:
256,240,189973,1,8,0:0:0:0:
256,240,190030,1,0,0:0:0:0:
256,240,190088,1,8,0:0:0:0:
240,240,190203,1,0,0:0:0:0:
72,85,190319,1,0,0:0:0:0:
256,176,190434,1,8,0:0:0:0:
256,176,190550,1,8,0:0:0:0:
256,176,190665,1,0,0:0:0:0:
131,106,190723,1,0,0:0:0:0:
256,176,190780,1,0,0:0:0:0:
256,176,190896,1,8,0:0:0:0:
256,176,191011,1,0,0:0:0:0:
256,192,191242,1,8,0:0:0:0:
256,192,191473,1,8,0:0:0:0:
256,192,191703,1,8,0:0:0:0:
256,160,191819,1,0,0:0:0:0:
256,192,191934,1,8,0:0:0:0:
256,192,192050,1,4,0:0:0:0:
256,192,192280,1,8,0:0:0:0:
256,192,192396,1,0,0:0:0:0:
256,192,192511,1,8,0:0:0:0:
256,192,192569,1,8,0:0:0:0:
256,192,192626,1,8,0:0:0:0:
256,192,192742,1,8,0:0:0:0:
240,192,192857,1,8,0:0:0:0:
224,208,192973,1,0,0:0:0:0:
224,208,193088,1,0,0:0:0:0:
224,208,193146,1,0,0:0:0:0:
224,208,193203,1,8,0:0:0:0:
240,224,193319,1,0,0:0:0:0:
240,208,193434,1,8,0:0:0:0:
240,208,193492,1,0,0:0:0:0:
240,208,193550,1,8,0:0:0:0:
240,208,193665,1,8,0:0:0:0:
240,208,193780,1,0,0:0:0:0:
240,208,193838,1,8,0:0:0:0:
240,208,193896,1,0,0:0:0:0:
256,224,194126,1,8,0:0:0:0:
256,224,194242,1,0,0:0:0:0:
224,208,194357,1,8,0:0:0:0:
224,208,194415,1,8,0:0:0:0:
224,208,194473,1,0,0:0:0:0:
224,208,194530,1,0,0:0:0:0:
224,208,194588,1,8,0:0:0:0:
224,208,194703,1,8,0:0:0:0:
224,208,194819,1,0,0:0:0:0:
224,208,194876,1,0,0:0:0:0:
224,208,194934,1,0,0:0:0:0:
224,224,195050,1,8,0:0:0:0:
224,224,195165,1,0,0:0:0:0:
224,224,195280,1,8,0:0:0:0:
206,49,195338,1,8,0:0:0:0:
241,137,195396,1,8,0:0:0:0:
224,224,195511,1,0,0:0:0:0:
224,224,195569,1,0,0:0:0:0:
224,224,195626,1,8,0:0:0:0:
224,224,195684,1,8,0:0:0:0:
224,224,195742,1,0,0:0:0:0:
240,208,195973,1,8,0:0:0:0:
240,208,196088,1,0,0:0:0:0:
240,208,196203,1,8,0:0:0:0:
240,208,196261,1,8,0:0:0:0:
240,208,196319,1,8,0:0:0:0:
240,208,196434,1,0,0:0:0:0:
240,208,196550,1,8,0:0:0:0:
240,208,196607,1,8,0:0:0:0:
240,208,196665,1,0,0:0:0:0:
256,224,196780,1,0,0:0:0:0:
256,224,196896,1,8,0:0:0:0:
256,224,197011,1,0,0:0:0:0:
240,192,197126,1,8,0:0:0:0:
240,192,197184,1,0,0:0:0:0:
240,192,197242,1,8,0:0:0:0:
240,192,197300,1,0,0:0:0:0:
240,192,197357,1,8,0:0:0:0:
240,192,197473,1,8,0:0:0:0:
224,208,197588,1,0,0:0:0:0:
240,192,197703,1,0,0:0:0:0:
224,80,197761,1,0,0:0:0:0:
240,192,197819,1,8,0:0:0:0:
272,176,197934,1,0,0:0:0:0:
240,208,198050,1,0,0:0:0:0:
240,208,198107,1,0,0:0:0:0:
240,208,198165,1,0,0:0:0:0:
240,208,198223,1,0,0:0:0:0:
224,208,198280,1,8,0:0:0:0:
224,176,198396,1,8,0:0:0:0:
224,176,198511,1,0,0:0:0:0:
240,160,198857,1,4,0:0:0:0:
224,192,199203,1,8,0:0:0:0:
224,192,199319,1,8,0:0:0:0:
240,224,199434,1,4,0:0:0:0:
272,192,199665,1,8,0:0:0:0:
272,192,199780,1,0,0:0:0:0:
272,192,199896,1,8,0:0:0:0:
272,192,199953,1,0,0:0:0:0:
272,192,200011,1,8,0:0:0:0:
272,192,200126,1,8,0:0:0:0:
272,192,200242,1,0,0:0:0:0:
272,192,200357,1,8,0:0:0:0:
256,192,200473,1,0,0:0:0:0:
256,192,200530,1,0,0:0:0:0:
256,192,200588,1,8,0:0:0:0:
243,172,200703,1,0,0:0:0:0:
243,172,200819,1,8,0:0:0:0:
243,172,200876,1,8,0:0:0:0:
243,172,200934,1,0,0:0:0:0:
243,172,200992,1,0,0:0:0:0:
243,172,201050,1,8,0:0:0:0:
243,172,201165,1,8,0:0:0:0:
243,172,201280,1,4,0:0:0:0:
231,189,201511,1,8,0:0:0:0:
231,189,201626,1,0,0:0:0:0:
231,189,201742,1,8,0:0:0:0:
231,189,201857,1,0,0:0:0:0:
252,200,201915,1,0,0:0:0:0:
253,199,201973,1,8,0:0:0:0:
253,199,202088,1,8,0:0:0:0:
253,199,202203,1,0,0:0:0:0:
253,199,202261,1,0,0:0:0:0:
253,199,202319,1,0,0:0:0:0:
253,199,202434,1,8,0:0:0:0:
253,199,202550,1,0,0:0:0:0:
240,176,202607,1,0,0:0:0:0:
253,199,202665,1,8,0:0:0:0:
252,200,202723,1,8,0:0:0:0:
253,199,202780,1,0,0:0:0:0:
253,199,202896,1,8,0:0:0:0:
253,199,203011,1,8,0:0:0:0:
253,199,203126,1,4,0:0:0:0:
242,184,203242,1,0,0:0:0:0:
96,96,203300,1,0,0:0:0:0:
242,184,203357,1,8,0:0:0:0:
160,112,203473,1,0,0:0:0:0:
224,187,203588,1,8,0:0:0:0:
224,187,203703,1,0,0:0:0:0:
224,187,203761,1,8,0:0:0:0:
224,187,203819,1,0,0:0:0:0:
224,187,203934,1,8,0:0:0:0:
218,162,204050,1,0,0:0:0:0:
220,163,204107,1,0,0:0:0:0:
220,163,204165,1,0,0:0:0:0:
221,124,204280,1,8,0:0:0:0:
221,181,204396,1,0,0:0:0:0:
221,181,204511,1,8,0:0:0:0:
224,174,204569,1,0,0:0:0:0:
224,174,204626,1,8,0:0:0:0:
224,174,204684,1,8,0:0:0:0:
224,174,204742,1,0,0:0:0:0:
224,174,204857,1,8,0:0:0:0:
256,192,204973,12,0,205780,0:0:0:0:
256,48,205896,5,0,0:0:0:0:
257,213,206126,5,8,0:0:0:0:
253,169,206357,1,0,0:0:0:0:
253,169,206473,1,0,0:0:0:0:
252,169,206588,1,8,0:0:0:0:
245,157,206703,1,0,0:0:0:0:
253,188,206819,1,12,0:0:0:0:
251,191,207050,1,8,0:0:0:0:
251,191,207165,1,0,0:0:0:0:
251,191,207223,1,0,0:0:0:0:
251,191,207280,1,8,0:0:0:0:
251,191,207396,1,8,0:0:0:0:
246,195,207511,1,0,0:0:0:0:
246,194,207626,1,0,0:0:0:0:
246,194,207684,1,0,0:0:0:0:
246,194,207742,1,8,0:0:0:0:
246,194,207800,1,8,0:0:0:0:
246,194,207857,1,0,0:0:0:0:
246,194,207973,1,8,0:0:0:0:
277,207,208030,1,8,0:0:0:0:
277,207,208088,1,8,0:0:0:0:
251,191,208203,1,0,0:0:0:0:
227,177,208319,1,8,0:0:0:0:
228,177,208434,1,0,0:0:0:0:
228,177,208550,1,8,0:0:0:0:
228,177,208607,1,8,0:0:0:0:
228,177,208665,1,0,0:0:0:0:
240,80,208780,1,0,0:0:0:0:
240,176,208896,1,8,0:0:0:0:
240,176,209011,1,0,0:0:0:0:
192,64,209069,1,0,0:0:0:0:
256,208,209126,1,8,0:0:0:0:
256,208,209184,1,0,0:0:0:0:
256,208,209242,1,8,0:0:0:0:
256,208,209357,1,8,0:0:0:0:
256,208,209473,1,0,0:0:0:0:
256,208,209588,1,8,0:0:0:0:
272,160,209646,1,8,0:0:0:0:
272,160,209703,1,0,0:0:0:0:
272,208,209819,1,8,0:0:0:0:
272,208,209934,1,8,0:0:0:0:
272,208,210050,1,0,0:0:0:0:
272,208,210107,1,0,0:0:0:0:
272,208,210165,1,8,0:0:0:0:
272,208,210280,1,0,0:0:0:0:
272,208,210338,1,8,0:0:0:0:
272,208,210396,1,8,0:0:0:0:
272,208,210453,1,8,0:0:0:0:
272,208,210511,1,0,0:0:0:0:
240,176,210742,1,8,0:0:0:0:
256,192,210857,1,0,0:0:0:0:
320,256,210973,1,0,0:0:0:0:
256,224,211030,1,8,0:0:0:0:
256,224,211088,1,0,0:0:0:0:
256,224,211146,1,0,0:0:0:0:
256,224,211203,1,8,0:0:0:0:
256,224,211319,1,8,0:0:0:0:
256,224,211434,1,0,0:0:0:0:
256,224,211492,1,8,0:0:0:0:
256,224,211550,1,0,0:0:0:0:
256,224,211665,1,8,0:0:0:0:
256,224,211780,1,0,0:0:0:0:
256,224,211896,1,8,0:0:0:0:
256,224,211953,1,8,0:0:0:0:
256,224,212011,1,0,0:0:0:0:
256,224,212069,1,0,0:0:0:0:
256,224,212126,1,8,0:0:0:0:
208,64,212242,1,0,0:0:0:0:
192,64,212300,1,0,0:0:0:0:
176,80,212357,1,0,0:0:0:0:
192,80,212473,1,0,0:0:0:0:
256,224,212588,1,8,0:0:0:0:
256,224,212703,1,0,0:0:0:0:
256,224,212819,1,8,0:0:0:0:
256,224,212876,1,8,0:0:0:0:
256,224,212934,1,8,0:0:0:0:
256,224,213050,1,0,0:0:0:0:
256,224,213107,1,0,0:0:0:0:
256,224,213165,1,8,0:0:0:0:
240,224,213280,1,0,0:0:0:0:
256,224,213338,1,0,0:0:0:0:
256,224,213396,1,0,0:0:0:0:
256,224,213453,1,0,0:0:0:0:
256,224,213511,1,8,0:0:0:0:
256,224,213626,1,8,0:0:0:0:
256,224,213742,1,0,0:0:0:0:
256,224,213973,1,8,0:0:0:0:
208,208,214088,1,8,0:0:0:0:
272,224,214203,1,4,0:0:0:0:
288,208,214434,1,8,0:0:0:0:
288,208,214550,1,0,0:0:0:0:
272,208,214665,1,8,0:0:0:0:
272,208,214780,1,8,0:0:0:0:
272,208,214838,1,8,0:0:0:0:
272,208,214896,1,0,0:0:0:0:
272,208,215011,1,8,0:0:0:0:
272,208,215126,1,0,0:0:0:0:
256,192,215242,1,0,0:0:0:0:
272,192,215300,1,0,0:0:0:0:
256,192,215357,1,8,0:0:0:0:
272,192,215473,1,8,0:0:0:0:
256,176,215588,1,0,0:0:0:0:
256,176,215646,1,0,0:0:0:0:
256,176,215703,1,8,0:0:0:0:
256,176,215761,1,0,0:0:0:0:
256,176,215819,1,8,0:0:0:0:
256,176,215934,1,0,0:0:0:0:
192,144,215992,1,8,0:0:0:0:
256,176,216050,1,0,0:0:0:0:
160,64,216165,1,0,0:0:0:0:
240,192,216280,1,8,0:0:0:0:
224,160,216396,1,0,0:0:0:0:
256,176,216511,1,8,0:0:0:0:
256,176,216569,1,8,0:0:0:0:
256,176,216626,1,0,0:0:0:0:
256,176,216684,1,0,0:0:0:0:
256,176,216742,1,8,0:0:0:0:
224,160,216857,1,0,0:0:0:0:
224,160,216973,1,8,0:0:0:0:
224,160,217030,1,8,0:0:0:0:
224,160,217088,1,0,0:0:0:0:
224,160,217203,1,8,0:0:0:0:
224,160,217319,1,0,0:0:0:0:
224,160,217434,1,8,0:0:0:0:
224,160,217550,1,0,0:0:0:0:
160,80,217607,1,0,0:0:0:0:
224,160,217665,1,0,0:0:0:0:
224,160,217780,1,8,0:0:0:0:
288,240,217838,1,8,0:0:0:0:
224,160,217896,1,0,0:0:0:0:
256,208,218126,1,0,0:0:0:0:
240,176,218242,1,8,0:0:0:0:
240,192,218357,1,0,0:0:0:0:
240,192,218415,1,0,0:0:0:0:
240,192,218473,1,8,0:0:0:0:
240,192,218530,1,8,0:0:0:0:
240,192,218588,1,0,0:0:0:0:
240,192,218703,1,8,0:0:0:0:
256,192,218819,1,0,0:0:0:0:
272,176,218876,1,0,0:0:0:0:
272,176,218934,1,0,0:0:0:0:
288,176,219050,1,8,0:0:0:0:
272,176,219165,1,0,0:0:0:0:
256,192,219280,1,8,0:0:0:0:
272,176,219338,1,0,0:0:0:0:
256,192,219396,1,8,0:0:0:0:
256,192,219511,1,8,0:0:0:0:
256,192,219626,1,0,0:0:0:0:
256,192,219684,1,0,0:0:0:0:
256,192,219742,1,8,0:0:0:0:
240,192,219857,1,0,0:0:0:0:
240,192,219973,1,8,0:0:0:0:
240,192,220088,1,0,0:0:0:0:
96,80,220146,1,0,0:0:0:0:
240,192,220203,1,8,0:0:0:0:
240,192,220319,1,0,0:0:0:0:
224,176,220434,1,8,0:0:0:0:
224,176,220492,1,8,0:0:0:0:
224,176,220550,1,8,0:0:0:0:
240,192,220607,1,8,0:0:0:0:
224,176,220665,1,0,0:0:0:0:
256,192,220896,1,8,0:0:0:0:
256,192,221011,1,8,0:0:0:0:
256,192,221126,1,4,0:0:0:0:
256,192,221588,1,12,0:0:0:0:
256,208,221819,1,8,0:0:0:0:
272,208,221934,1,0,0:0:0:0:
240,224,222050,1,8,0:0:0:0:
240,224,222107,1,0,0:0:0:0:
240,224,222165,1,8,0:0:0:0:
240,224,222280,1,8,0:0:0:0:
240,224,222396,1,0,0:0:0:0:
240,208,222511,1,8,0:0:0:0:
240,208,222569,1,0,0:0:0:0:
240,208,222626,1,0,0:0:0:0:
240,208,222742,1,8,0:0:0:0:
240,208,222857,1,0,0:0:0:0:
240,208,222915,1,0,0:0:0:0:
272,192,222973,1,8,0:0:0:0:
240,192,223088,1,0,0:0:0:0:
240,208,223203,1,8,0:0:0:0:
240,192,223261,1,0,0:0:0:0:
240,192,223319,1,8,0:0:0:0:
224,192,223376,1,8,0:0:0:0:
240,192,223434,1,0,0:0:0:0:
256,160,223550,1,0,0:0:0:0:
256,192,223665,1,8,0:0:0:0:
256,192,223723,1,8,0:0:0:0:
224,192,223780,1,0,0:0:0:0:
240,192,223896,1,8,0:0:0:0:
240,192,224011,1,0,0:0:0:0:
240,192,224069,1,0,0:0:0:0:
240,192,224126,1,8,0:0:0:0:
240,192,224184,1,0,0:0:0:0:
240,192,224242,1,8,0:0:0:0:
64,144,224357,1,8,0:0:0:0:
240,192,224473,1,0,0:0:0:0:
240,192,224588,1,8,0:0:0:0:
240,192,224646,1,0,0:0:0:0:
240,192,224703,1,0,0:0:0:0:
256,192,224819,1,8,0:0:0:0:
256,192,224934,1,0,0:0:0:0:
256,192,225050,1,8,0:0:0:0:
256,192,225107,1,8,0:0:0:0:
256,192,225165,1,8,0:0:0:0:
256,192,225223,1,8,0:0:0:0:
256,192,225280,1,0,0:0:0:0:
256,192,225511,1,8,0:0:0:0:
256,192,225626,1,0,0:0:0:0:
288,192,225684,1,0,0:0:0:0:
288,208,225742,1,8,0:0:0:0:
288,208,225857,1,0,0:0:0:0:
288,208,225973,1,8,0:0:0:0:
288,208,226030,1,0,0:0:0:0:
288,208,226088,1,8,0:0:0:0:
288,208,226203,1,0,0:0:0:0:
256,192,226319,1,0,0:0:0:0:
256,192,226434,1,8,0:0:0:0:
176,80,226492,1,8,0:0:0:0:
256,192,226550,1,8,0:0:0:0:
256,192,226665,1,0,0:0:0:0:
256,192,226780,1,8,0:0:0:0:
256,192,226838,1,0,0:0:0:0:
256,192,226896,1,8,0:0:0:0:
256,192,226953,1,8,0:0:0:0:
256,192,227011,1,0,0:0:0:0:
256,192,227126,1,12,0:0:0:0:
256,192,227357,1,12,0:0:0:0:
256,192,227588,1,12,0:0:0:0:
256,192,227819,1,12,0:0:0:0:
256,192,228050,1,12,0:0:0:0:
256,192,228280,1,4,0:0:0:0:
256,192,228396,1,4,0:0:0:0:
256,192,228511,1,12,0:0:0:0:
256,192,228626,1,4,0:0:0:0:
256,192,228742,1,4,0:0:0:0:
256,192,228857,1,4,0:0:0:0:
272,208,228973,1,8,0:0:0:0:
272,192,229203,1,8,0:0:0:0:
272,176,229434,1,8,0:0:0:0:
272,176,229492,1,8,0:0:0:0:
272,176,229550,1,8,0:0:0:0:
272,176,229607,1,8,0:0:0:0:
256,192,229665,1,0,0:0:0:0:
288,192,229780,1,8,0:0:0:0:
288,192,229838,1,8,0:0:0:0:
288,192,229896,1,0,0:0:0:0:
256,192,230126,1,0,0:0:0:0:
256,192,230242,1,8,0:0:0:0:
256,192,230473,1,8,0:0:0:0:
256,192,230588,1,0,0:0:0:0:
288,192,230819,1,8,0:0:0:0:
288,192,230876,1,8,0:0:0:0:
288,192,230934,1,8,0:0:0:0:
288,192,230992,1,8,0:0:0:0:
288,192,231050,1,8,0:0:0:0:
240,176,231165,1,8,0:0:0:0:
240,176,231280,1,0,0:0:0:0:
272,208,231396,1,8,0:0:0:0:
272,208,231453,1,8,0:0:0:0:
272,208,231511,1,0,0:0:0:0:
272,208,231626,1,8,0:0:0:0:
272,208,231742,1,4,0:0:0:0:
336,240,232088,1,4,0:0:0:0:
247,185,232665,5,8,0:0:0:0:
247,185,232723,5,8,0:0:0:0:
144,192,232780,1,8,0:0:0:0:
247,185,232896,5,0,0:0:0:0:
261,216,233011,1,8,0:0:0:0:
261,216,233069,1,0,0:0:0:0:
261,216,233126,1,8,0:0:0:0:
281,220,233242,1,0,0:0:0:0:
270,210,233357,1,8,0:0:0:0:
342,152,233415,1,8,0:0:0:0:
270,210,233473,1,0,0:0:0:0:
270,210,233588,1,8,0:0:0:0:
231,134,233646,1,8,0:0:0:0:
231,134,233703,1,8,0:0:0:0:
231,134,233819,1,0,0:0:0:0:
246,155,233934,1,8,0:0:0:0:
246,155,233992,1,0,0:0:0:0:
246,155,234050,1,8,0:0:0:0:
246,155,234165,1,0,0:0:0:0:
256,144,234280,1,8,0:0:0:0:
208,64,234338,1,8,0:0:0:0:
237,186,234396,1,8,0:0:0:0:
237,186,234511,1,0,0:0:0:0:
260,177,234626,1,8,0:0:0:0:
260,177,234684,1,0,0:0:0:0:
260,177,234742,1,8,0:0:0:0:
270,172,234857,1,0,0:0:0:0:
209,177,234973,1,8,0:0:0:0:
209,177,235030,1,0,0:0:0:0:
209,177,235088,1,8,0:0:0:0:
209,177,235203,1,0,0:0:0:0:
209,177,235319,1,8,0:0:0:0:
209,177,235376,1,8,0:0:0:0:
209,177,235434,1,0,0:0:0:0:
272,208,236011,1,8,0:0:0:0:
272,208,236126,1,0,0:0:0:0:
272,208,236242,1,8,0:0:0:0:
256,192,236300,1,8,0:0:0:0:
272,208,236357,1,0,0:0:0:0:
272,192,236588,1,8,0:0:0:0:
256,192,236703,1,0,0:0:0:0:
256,192,236819,1,8,0:0:0:0:
256,192,236934,1,0,0:0:0:0:
256,192,237050,1,8,0:0:0:0:
256,192,237165,1,8,0:0:0:0:
256,192,237280,1,0,0:0:0:0:
240,192,237396,1,0,0:0:0:0:
240,192,237511,1,8,0:0:0:0:
208,160,237626,1,0,0:0:0:0:
208,160,237742,1,8,0:0:0:0:
208,160,237857,1,0,0:0:0:0:
208,160,237915,1,0,0:0:0:0:
208,160,237973,1,8,0:0:0:0:
208,160,238088,1,8,0:0:0:0:
208,160,238203,1,0,0:0:0:0:
224,192,238434,1,8,0:0:0:0:
224,192,238550,1,0,0:0:0:0:
224,192,238665,1,8,0:0:0:0:
224,192,238780,1,8,0:0:0:0:
224,192,238896,1,0,0:0:0:0:
224,192,239011,1,8,0:0:0:0:
224,192,239126,1,0,0:0:0:0:
224,192,239242,1,0,0:0:0:0:
224,192,239357,1,8,0:0:0:0:
224,192,239473,1,0,0:0:0:0:
224,192,239588,1,8,0:0:0:0:
224,192,239646,1,8,0:0:0:0:
224,192,239703,1,0,0:0:0:0:
224,192,239819,1,8,0:0:0:0:
224,192,239934,1,8,0:0:0:0:
224,224,240050,1,0,0:0:0:0:
256,192,240280,1,8,0:0:0:0:
256,192,240396,1,0,0:0:0:0:
256,192,240511,1,8,0:0:0:0:
288,208,240626,1,8,0:0:0:0:
288,208,240742,1,0,0:0:0:0:
288,208,240857,1,0,0:0:0:0:
288,192,240973,1,8,0:0:0:0:
288,192,241088,1,0,0:0:0:0:
288,192,241203,1,8,0:0:0:0:
288,192,241319,1,0,0:0:0:0:
288,192,241434,1,8,0:0:0:0:
288,192,241550,1,0,0:0:0:0:
288,192,241607,1,0,0:0:0:0:
288,192,241665,1,8,0:0:0:0:
288,192,241780,1,8,0:0:0:0:
288,192,241896,1,0,0:0:0:0:
272,176,242126,1,8,0:0:0:0:
272,176,242242,1,0,0:0:0:0:
272,176,242357,1,8,0:0:0:0:
272,176,242473,1,8,0:0:0:0:
256,176,242588,1,0,0:0:0:0:
256,176,242703,1,8,0:0:0:0:
256,176,242819,1,0,0:0:0:0:
256,176,242934,1,0,0:0:0:0:
256,176,243050,1,8,0:0:0:0:
256,176,243165,1,8,0:0:0:0:
256,176,243280,1,0,0:0:0:0:
256,176,243396,1,0,0:0:0:0:
256,176,243453,1,0,0:0:0:0:
256,176,243511,1,8,0:0:0:0:
256,176,243626,1,8,0:0:0:0:
256,176,243742,1,4,0:0:0:0:
240,160,243973,1,8,0:0:0:0:
240,160,244088,1,0,0:0:0:0:
256,176,244203,1,8,0:0:0:0:
256,176,244319,1,8,0:0:0:0:
256,176,244434,1,0,0:0:0:0:
256,176,244550,1,0,0:0:0:0:
256,176,244665,1,8,0:0:0:0:
256,176,244780,1,0,0:0:0:0:
256,176,244896,1,8,0:0:0:0:
256,176,245011,1,8,0:0:0:0:
256,176,245126,1,0,0:0:0:0:
256,176,245242,1,8,0:0:0:0:
256,176,245300,1,8,0:0:0:0:
256,176,245357,1,0,0:0:0:0:
256,176,245473,1,8,0:0:0:0:
256,176,245588,1,0,0:0:0:0:
224,176,245819,1,8,0:0:0:0:
256,176,245934,1,0,0:0:0:0:
256,176,246050,1,8,0:0:0:0:
256,176,246165,1,0,0:0:0:0:
256,176,246280,1,8,0:0:0:0:
256,176,246396,1,8,0:0:0:0:
256,176,246511,1,0,0:0:0:0:
112,64,246569,1,0,0:0:0:0:
256,176,246626,1,0,0:0:0:0:
256,176,246742,1,8,0:0:0:0:
256,176,246857,1,0,0:0:0:0:
256,176,246973,1,8,0:0:0:0:
256,176,247030,1,8,0:0:0:0:
256,176,247088,1,8,0:0:0:0:
256,176,247203,1,0,0:0:0:0:
256,176,247319,1,8,0:0:0:0:
256,176,247434,1,0,0:0:0:0:
272,160,247665,1,8,0:0:0:0:
272,160,247780,1,0,0:0:0:0:
272,160,247896,1,8,0:0:0:0:
272,160,248011,1,0,0:0:0:0:
272,160,248126,1,8,0:0:0:0:
272,160,248242,1,8,0:0:0:0:
272,160,248357,1,0,0:0:0:0:
272,160,248473,1,0,0:0:0:0:
272,160,248588,1,8,0:0:0:0:
272,160,248703,1,0,0:0:0:0:
272,160,248819,1,8,0:0:0:0:
272,160,248934,1,0,0:0:0:0:
272,160,248992,1,0,0:0:0:0:
272,160,249050,1,8,0:0:0:0:
272,160,249165,1,8,0:0:0:0:
272,160,249280,1,4,0:0:0:0:
288,192,249511,1,8,0:0:0:0:
288,192,249626,1,0,0:0:0:0:
288,192,249742,1,8,0:0:0:0:
288,192,249857,1,0,0:0:0:0:
288,192,249973,1,8,0:0:0:0:
272,160,250088,1,8,0:0:0:0:
256,192,250203,12,0,250896,0:0:0:0:
208,224,251126,5,4,0:0:0:0:
240,192,251357,1,0,0:0:0:0:
240,192,251588,1,0,0:0:0:0:
240,192,251819,1,0,0:0:0:0:
240,192,252050,1,0,0:0:0:0:
240,192,252280,1,0,0:0:0:0:
240,192,252511,1,0,0:0:0:0:
240,192,252742,1,0,0:0:0:0:
240,192,252973,1,0,0:0:0:0:
240,192,253203,1,0,0:0:0:0:
240,192,253434,1,0,0:0:0:0:
240,192,253665,1,0,0:0:0:0:
240,192,253896,1,0,0:0:0:0:
240,192,254126,1,0,0:0:0:0:
336,144,254242,1,0,0:0:0:0:
240,192,254357,1,0,0:0:0:0:
240,160,254415,1,0,0:0:0:0:
240,192,254473,1,0,0:0:0:0:
240,192,254588,1,0,0:0:0:0:
240,192,254819,1,0,0:0:0:0:
240,192,255050,1,0,0:0:0:0:
240,192,255280,1,0,0:0:0:0:
240,192,255511,1,0,0:0:0:0:
240,192,255742,1,0,0:0:0:0:
240,192,255973,1,0,0:0:0:0:
240,192,256203,1,0,0:0:0:0:
240,192,256434,1,0,0:0:0:0:
240,192,256665,1,0,0:0:0:0:
208,192,256780,1,0,0:0:0:0:
240,192,256896,1,0,0:0:0:0:
240,192,257126,1,0,0:0:0:0:
240,192,257357,1,0,0:0:0:0:
224,80,257473,1,0,0:0:0:0:
240,192,257588,1,0,0:0:0:0:
240,192,257819,1,0,0:0:0:0:
240,192,257934,1,0,0:0:0:0:
240,192,258165,1,0,0:0:0:0:
240,192,258280,1,0,0:0:0:0:
240,192,258511,1,4,0:0:0:0:
240,192,258742,1,8,0:0:0:0:
240,192,258973,1,8,0:0:0:0:
240,192,259203,1,8,0:0:0:0:
240,192,259434,1,8,0:0:0:0:
240,192,259665,1,8,0:0:0:0:
240,192,259896,1,8,0:0:0:0:
240,192,260126,1,8,0:0:0:0:
240,192,260357,1,8,0:0:0:0:
240,192,260588,1,8,0:0:0:0:
240,192,260819,1,8,0:0:0:0:
240,192,261050,1,8,0:0:0:0:
240,192,261280,1,8,0:0:0:0:
240,192,261511,1,8,0:0:0:0:
240,192,261742,1,8,0:0:0:0:
240,192,261973,1,8,0:0:0:0:
240,192,262203,1,4,0:0:0:0:
240,192,262434,1,8,0:0:0:0:
240,176,262550,1,8,0:0:0:0:
240,192,262665,1,0,0:0:0:0:
240,192,262780,1,8,0:0:0:0:
240,192,262896,1,8,0:0:0:0:
240,192,263011,1,8,0:0:0:0:
240,192,263126,1,0,0:0:0:0:
256,176,263242,1,0,0:0:0:0:
256,176,263357,1,8,0:0:0:0:
256,176,263473,1,0,0:0:0:0:
240,192,263588,1,8,0:0:0:0:
240,192,263703,1,8,0:0:0:0:
240,192,263819,1,0,0:0:0:0:
240,192,263934,1,8,0:0:0:0:
240,192,264050,1,0,0:0:0:0:
240,192,264165,1,0,0:0:0:0:
240,192,264223,1,0,0:0:0:0:
240,192,264280,1,8,0:0:0:0:
240,192,264396,1,0,0:0:0:0:
240,192,264511,1,8,0:0:0:0:
240,192,264569,1,8,0:0:0:0:
240,192,264626,1,0,0:0:0:0:
240,192,264684,1,0,0:0:0:0:
240,192,264742,1,8,0:0:0:0:
240,192,264857,1,8,0:0:0:0:
176,176,264973,1,0,0:0:0:0:
240,160,265665,1,0,0:0:0:0:
240,160,265896,1,12,0:0:0:0:
