osu file format v14

[General]
AudioFilename: audio.mp3
AudioLeadIn: 0
PreviewTime: 187101
Countdown: 0
SampleSet: None
StackLeniency: 0.4
Mode: 0
LetterboxInBreaks: 0
WidescreenStoryboard: 1

[Editor]
Bookmarks: 9591,19717,39409,59101,68948,78794,118178,137871,147717,156178,157563,177255,187101,196332,196948,215707,216640,236332,246178,256025,261255
DistanceSpacing: 1.1
BeatDivisor: 6
GridSize: 16
TimelineZoom: 4.099998

[Metadata]
Title:Goodbye
TitleUnicode:Goodbye
Artist:DJKurara
ArtistUnicode:DJKurara
Creator:EijiKuinbii
Version:grumd's Extra
Source:
Tags:semaphore fser grumd nattu SpecialThanks 「You say GOOD BYE」 amenpunk russian hardbass donk rock remix mashcore breakcore electronic dance edm jungle
BeatmapID:1968486
BeatmapSetID:866436

[Difficulty]
HPDrainRate:5.5
CircleSize:4
OverallDifficulty:9
ApproachRate:9.4
SliderMultiplier:1.6
SliderTickRate:1

[Events]
//Background and Video events
0,0,"BG.jpg",0,0
//Break Periods
2,67907,77568
2,187291,195722
//Storyboard Layer 0 (Background)
//Storyboard Layer 1 (Fail)
//Storyboard Layer 2 (Pass)
//Storyboard Layer 3 (Foreground)
//Storyboard Sound Samples

[TimingPoints]
15,307.692307692308,4,3,2,15,1,0
15,-200,4,3,2,15,0,0
2476,-200,4,3,2,30,0,0
4938,-200,4,3,2,45,0,0
7399,-200,4,3,2,50,0,0
8630,-200,4,3,2,60,0,0
9553,-200,4,3,2,45,0,0
9591,-200,4,3,2,5,0,0
9630,-200,4,3,2,45,0,0
9668,-200,4,3,2,5,0,0
9707,-200,4,3,2,45,0,0
9745,-200,4,3,2,5,0,0
9784,-200,4,3,2,45,0,0
9822,-200,4,3,2,5,0,0
9861,-111.111111111111,4,3,2,45,0,0
14515,-111.111111111111,4,3,2,5,0,0
14553,-111.111111111111,4,3,2,45,0,0
14591,-111.111111111111,4,3,2,5,0,0
14630,-111.111111111111,4,3,2,45,0,0
14668,-111.111111111111,4,3,2,5,0,0
14707,-111.111111111111,4,3,2,45,0,0
14745,-111.111111111111,4,3,2,5,0,0
14784,-111.111111111111,4,3,2,45,0,0
16668,-111.111111111111,4,3,2,5,0,0
16707,-111.111111111111,4,3,2,45,0,0
16745,-111.111111111111,4,3,2,5,0,0
16784,-111.111111111111,4,3,2,45,0,0
16822,-111.111111111111,4,3,2,5,0,0
16861,-111.111111111111,4,3,2,45,0,0
16899,-111.111111111111,4,3,2,5,0,0
16938,-111.111111111111,4,3,2,45,0,0
19707,-100,4,3,2,60,0,0
28168,-100,4,3,2,60,0,0
29245,-200,4,3,2,60,0,0
29553,-100,4,3,2,70,0,0
38015,-100,4,3,2,60,0,0
39399,-100,4,3,2,70,0,0
40630,-100,4,3,2,70,0,0
57245,-100,4,3,2,70,0,0
59091,-100,4,3,2,60,0,0
68938,-200,4,3,2,30,0,0
70168,-200,4,3,2,30,0,0
78168,-100,4,3,2,30,0,0
78322,-100,4,3,2,70,0,0
87091,-83.3333333333333,4,3,2,70,0,0
88630,-100,4,3,2,70,0,0
95399,-83.3333333333333,4,3,2,70,0,0
95707,-71.4285714285714,4,3,2,70,0,0
96015,-100,4,3,2,70,0,0
98476,-200,4,3,2,70,0,0
108322,-400,4,3,2,70,0,0
109091,-400,4,3,2,40,0,0
110784,-400,4,3,2,70,0,0
111553,-400,4,3,2,40,0,0
113245,-400,4,3,2,70,0,0
114015,-400,4,3,2,40,0,0
115707,-100,4,3,2,60,0,0
116938,-100,4,3,2,60,0,0
117861,-200,4,3,2,45,0,0
118168,-100,4,3,2,70,0,0
122784,-76.9230769230769,4,3,2,70,0,0
123091,-100,4,3,2,70,0,0
126784,-76.9230769230769,4,3,2,70,0,0
128015,-90.9090909090909,4,3,2,70,0,0
136630,-66.6666666666667,4,3,2,70,0,0
137553,-200,4,3,2,60,0,0
137861,-100,4,3,2,60,0,0
147438,-100,4,3,2,5,0,0
147476,-100,4,3,2,60,0,0
147515,-100,4,3,2,5,0,0
147553,-100,4,3,2,60,0,0
147591,-100,4,3,2,5,0,0
147630,-100,4,3,2,70,0,0
147668,-100,4,3,2,5,0,0
147707,-100,4,3,2,70,0,0
176015,-200,4,3,2,70,0,0
176322,-142.857142857143,4,3,2,70,0,0
176630,-100,4,3,2,70,0,0
176938,-62.5,4,3,2,70,0,0
177245,-100,4,3,2,70,0,0
183245,-100,4,3,2,60,0,0
183399,-100,4,3,2,60,0,0
185861,-100,4,3,2,70,0,0
186168,-100,4,3,2,50,0,0
186476,-100,4,3,2,65,0,0
186784,-100,4,3,2,38,0,0
186861,-100,4,3,2,36,0,0
186938,-100,4,3,2,34,0,0
187015,-100,4,3,2,32,0,0
187091,-200,4,3,2,70,0,0
187168,-200,4,3,2,35,0,0
196322,-333.333333333333,4,3,2,70,0,0
196630,-55.5555555555556,4,3,2,70,0,0
196707,-100,4,3,2,70,0,0
196938,-100,4,3,2,70,0,0
208938,-100,4,3,2,70,0,0
213245,-66.6666666666667,4,3,2,70,0,0
213861,-100,4,3,2,70,0,0
225091,-66.6666666666667,4,3,2,70,0,0
225707,-100,4,3,2,70,0,0
226168,-153.846153846154,4,3,2,70,0,0
226476,-100,4,3,2,70,0,0
230784,-133.333333333333,4,3,2,70,0,0
231091,-76.9230769230769,4,3,2,70,0,0
231399,-100,4,3,2,70,0,0
236322,-133.333333333333,4,3,2,45,0,0
236553,-133.333333333333,4,3,2,5,0,0
236630,-133.333333333333,4,3,2,45,0,0
237399,-133.333333333333,4,3,2,5,0,0
237553,-133.333333333333,4,3,2,45,0,0
237707,-133.333333333333,4,3,2,5,0,0
237861,-133.333333333333,4,3,2,45,0,0
238168,-133.333333333333,4,3,2,45,0,0
238707,-133.333333333333,4,3,2,5,0,0
238784,-133.333333333333,4,3,2,45,0,0
241168,-133.333333333333,4,3,2,5,0,0
241245,-133.333333333333,4,3,2,45,0,0
241707,-133.333333333333,4,3,2,5,0,0
241861,-133.333333333333,4,3,2,45,0,0
242322,-133.333333333333,4,3,2,5,0,0
242476,-133.333333333333,4,3,2,45,0,0
243630,-133.333333333333,4,3,2,5,0,0
243707,-133.333333333333,4,3,2,45,0,0
244784,-133.333333333333,4,3,2,5,0,0
244938,-133.333333333333,4,3,2,45,0,0
245245,-133.333333333333,4,3,2,60,0,0
245553,-133.333333333333,4,3,2,60,0,0
245861,-133.333333333333,4,3,2,70,0,0
246168,-90.9090909090909,4,3,2,70,0,0
250476,-66.6666666666667,4,3,2,70,0,0
251091,-90.9090909090909,4,3,2,70,0,0
254784,-71.4285714285714,4,3,2,70,0,0
256322,-100,4,3,2,60,0,0
256630,-100,4,3,2,50,0,0
256938,-100,4,3,2,45,0,0
257245,-100,4,3,2,40,0,0
257553,-100,4,3,2,35,0,0
257861,-100,4,3,2,30,0,0
258168,-100,4,3,2,25,0,0
258476,-100,4,3,2,20,0,0
258784,-100,4,3,2,15,0,0
259091,-100,4,3,2,10,0,0
259399,-100,4,3,2,5,0,0
261245,-1000,4,3,2,5,0,0

[Colours]
Combo1 : 164,179,223
Combo2 : 249,155,239
Combo3 : 166,222,236

[HitObjects]
80,168,15,5,4,1:2:0:0:
110,96,168,1,0,1:0:0:0:
85,176,322,1,0,1:0:0:0:
116,105,476,1,0,1:0:0:0:
92,185,630,1,8,1:2:0:0:
266,225,2476,5,0,1:0:0:0:
259,143,2629,1,0,1:0:0:0:
275,229,2783,1,0,1:0:0:0:
269,149,2937,1,0,1:0:0:0:
286,234,3091,1,8,1:2:0:0:
458,123,4938,5,0,1:0:0:0:
466,32,5091,1,0,1:0:0:0:
448,128,5245,1,0,1:0:0:0:
455,38,5399,1,0,1:0:0:0:
436,133,5553,1,8,1:2:0:0:
383,294,7399,5,0,1:0:0:0:
337,207,7552,1,0,1:0:0:0:
377,304,7706,1,0,1:0:0:0:
331,218,7860,1,0,1:0:0:0:
372,314,8014,1,8,1:2:0:0:
128,294,8630,5,0,1:0:0:0:
174,207,8783,1,0,1:0:0:0:
134,304,8937,1,0,1:0:0:0:
180,218,9091,1,0,1:0:0:0:
140,314,9245,1,8,1:2:0:0:
317,334,9553,6,0,L|328:322,6,10,2|0|2|0|2|0|2,0:3|0:3|0:3|0:3|0:3|0:3|0:3,0:0:0:0:
354,258,9861,6,0,P|335:228|326:193,1,71.9999978027344,4|4,0:0|0:0,0:0:0:0:
375,89,10168,1,0,0:0:0:0:
472,134,10322,2,0,P|470:170|459:208,1,71.9999978027344,0|4,0:0|0:0,0:0:0:0:
265,270,10630,1,0,0:0:0:0:
209,202,10784,1,4,0:0:0:0:
213,184,10861,1,0,0:0:0:0:
217,166,10938,1,2,0:0:0:0:
221,148,11015,1,2,0:0:0:0:
225,131,11091,5,4,0:0:0:0:
154,71,11245,2,0,L|113:79,1,35.9999989013672,4|0,0:0|0:0,0:0:0:0:
309,124,11399,2,0,L|353:114,1,35.9999989013672
218,19,11553,1,4,0:0:0:0:
309,124,11707,2,0,P|319:162|319:197,1,71.9999978027344,0|2,0:0|0:0,0:0:0:0:
271,252,11938,1,2,0:0:0:0:
271,252,12015,1,4,0:0:0:0:
459,232,12168,2,0,L|496:241,1,35.9999989013672,0|2,0:0|0:0,0:0:0:0:
420,157,12322,5,4,0:0:0:0:
420,140,12398,1,0,0:0:0:0:
423,123,12475,1,0,0:0:0:0:
429,108,12552,1,0,0:0:0:0:
438,95,12630,2,0,L|478:88,1,35.9999989013672,2|2,0:0|0:0,0:0:0:0:
312,50,12784,2,0,L|358:42,1,35.9999989013672,2|2,0:0|0:0,0:0:0:0:
256,144,12938,2,0,P|272:173|278:212,1,71.9999978027344,4|0,0:0|0:0,0:0:0:0:
276,228,13168,1,0,0:0:0:0:
272,245,13245,1,0,0:0:0:0:
141,289,13399,2,0,L|121:286,2,17.9999994506836,2|2|2,3:3|3:3|3:3,0:0:0:0:
188,350,13553,6,0,L|227:344,1,35.9999989013672,4|0,0:0|0:0,0:0:0:0:
142,203,13707,2,0,L|106:197,1,35.9999989013672,4|4,0:0|0:0,0:0:0:0:
27,247,13861,2,0,B|12:279|12:279|8:317,1,71.9999978027344,0|2,0:0|0:0,0:0:0:0:
60,373,14091,1,2,0:0:0:0:
60,373,14168,2,0,L|102:365,1,35.9999989013672,4|4,0:0|0:0,0:0:0:0:
217,264,14322,2,0,L|257:271,1,35.9999989013672,4|4,0:0|0:0,0:0:0:0:
333,344,14476,1,2,0:0:0:0:
350,339,14553,1,2,0:0:0:0:
367,334,14630,2,0,L|392:326,2,17.9999994506836,2|0|2,0:0|3:0|0:0,0:0:0:0:
387,257,14784,5,4,0:0:0:0:
512,321,14938,1,4,0:0:0:0:
482,138,15091,2,0,L|475:95,1,35.9999989013672,4|4,0:0|0:0,0:0:0:0:
387,257,15245,2,0,L|380:296,1,35.9999989013672,4|4,0:0|0:0,0:0:0:0:
257,165,15399,1,2,3:3:0:0:
271,153,15476,1,2,3:3:0:0:
286,144,15553,1,2,3:3:0:0:
304,137,15630,1,2,3:3:0:0:
321,135,15707,2,0,P|338:135|356:140,1,35.9999989013672,2|0,3:0|3:0,3:0:0:0:
146,22,15938,1,0,0:0:0:0:
146,22,16015,6,0,L|137:62,1,35.9999989013672,4|4,0:0|0:0,0:0:0:0:
63,88,16168,2,0,L|67:116,2,17.9999994506836,2|2|2,0:3|0:3|0:3,0:0:0:0:
122,162,16322,1,2,0:0:0:0:
118,179,16399,1,2,0:0:0:0:
114,196,16476,1,2,0:0:0:0:
110,213,16553,1,2,0:0:0:0:
106,230,16630,2,0,L|99:258,6,17.9999994506836,2|0|2|0|2|0|2,0:0|0:0|0:0|0:0|0:0|0:0|0:0,0:0:0:0:
165,302,16938,6,0,L|158:330,2,17.9999994506836,0|0|0,0:0|0:0|0:0,0:0:0:0:
243,290,17091,2,0,L|236:318,2,17.9999994506836,0|0|0,0:0|0:0|0:0,0:0:0:0:
297,219,17245,2,0,L|291:180,1,35.9999989013672,4|0,0:0|0:0,0:0:0:0:
431,285,17399,2,0,L|421:323,1,35.9999989013672,4|0,0:0|0:0,0:0:0:0:
381,149,17553,1,2,0:0:0:0:
396,139,17630,1,2,0:0:0:0:
413,134,17707,1,4,0:0:0:0:
430,131,17784,1,0,0:0:0:0:
447,132,17861,2,0,P|466:160|475:205,1,71.9999978027344,0|0,0:0|0:0,0:0:0:0:
357,240,18091,1,0,0:0:0:0:
357,240,18168,2,0,P|338:268|329:313,1,71.9999978027344,4|0,0:0|0:0,0:0:0:0:
62,250,18476,6,0,L|68:292,1,35.9999989013672,0|0,0:0|0:0,0:0:0:0:
148,227,18630,2,0,L|142:262,1,35.9999989013672,0|0,0:0|0:0,0:0:0:0:
40,211,18784,2,0,L|45:246,1,35.9999989013672,0|0,0:0|0:0,0:0:0:0:
185,194,18938,2,0,L|179:229,1,35.9999989013672,0|0,0:0|0:0,0:0:0:0:
21,173,19091,2,0,L|26:208,1,35.9999989013672,0|0,0:0|0:0,0:0:0:0:
210,153,19245,2,0,L|204:188,1,35.9999989013672,0|0,0:0|0:0,0:0:0:0:
46,118,19399,2,0,L|50:146,6,17.9999994506836,2|2|2|0|2|2|2,0:0|0:0|0:0|0:0|0:0|0:0|0:0,0:0:0:0:
95,62,19707,5,4,0:0:0:0:
302,91,19861,1,4,0:0:0:0:
128,155,20015,1,8,0:2:0:0:
302,91,20168,2,0,L|311:51,1,40,0|0,0:0|0:0,0:0:0:0:
338,204,20322,1,4,0:0:0:0:
361,201,20399,1,0,0:0:0:0:
385,196,20476,2,0,L|426:189,1,40,8|0,0:2|0:0,0:0:0:0:
258,219,20630,2,0,L|218:225,1,40,0|0,0:0|0:0,0:0:0:0:
91,336,20784,2,0,L|130:342,1,40,8|0,0:2|0:0,0:0:0:0:
28,213,20938,5,4,0:0:0:0:
22,189,21015,1,4,0:0:0:0:
23,165,21091,1,4,0:0:0:0:
33,143,21168,1,4,0:0:0:0:
51,126,21245,2,0,P|99:122|140:103,1,80,8|0,0:2|0:0,0:0:0:0:
179,40,21476,1,0,0:0:0:0:
179,40,21553,2,0,P|205:41|223:46,1,40,4|0,0:0|0:0,0:0:0:0:
265,207,21707,1,8,0:2:0:0:
265,207,21784,1,0,0:0:0:0:
265,207,21861,2,0,L|258:250,1,40,8|0,0:2|0:0,0:0:0:0:
119,236,22015,2,0,L|125:283,1,40,0|0,0:2|0:2,0:0:0:0:
270,114,22168,6,0,P|310:96|347:93,1,80,4|0,0:0|0:0,0:0:0:0:
421,130,22399,1,0,0:0:0:0:
421,130,22476,2,0,P|439:170|442:207,1,80,8|0,0:2|0:0,0:0:0:0:
390,267,22707,1,0,0:0:0:0:
390,267,22784,2,0,P|368:275|344:276,1,40,4|0,0:0|0:0,0:0:0:0:
203,199,22938,2,0,P|225:191|249:190,1,40,8|0,0:2|0:0,0:0:0:0:
115,346,23091,2,0,P|93:344|75:337,1,40,4|0,0:0|0:0,0:0:0:0:
38,160,23245,1,8,0:2:0:0:
203,199,23399,6,0,P|216:228|222:280,1,80,4|4,0:0|0:0,0:0:0:0:
131,121,23630,1,4,0:0:0:0:
131,121,23707,2,0,P|149:95|191:64,1,80,8|0,0:2|0:0,0:0:0:0:
111,231,23938,1,0,0:0:0:0:
111,231,24015,2,0,P|89:229|67:222,1,40,4|0,0:0|0:0,0:0:0:0:
158,314,24168,2,0,P|137:323|115:328,1,40,8|0,0:2|0:0,0:0:0:0:
307,185,24322,2,0,P|288:172|273:155,1,40,8|0,0:2|0:0,0:0:0:0:
376,104,24476,2,0,P|366:83|361:61,1,40,0|0,0:0|0:0,0:0:0:0:
493,229,24630,6,0,B|488:270|488:270|472:310,1,80,4|4,0:0|0:0,0:0:0:0:
284,346,24938,1,8,0:2:0:0:
383,203,25091,1,0,0:0:0:0:
190,150,25245,2,0,L|146:160,1,40,4|0,0:0|0:0,0:0:0:0:
19,266,25399,1,8,0:2:0:0:
42,269,25476,1,0,0:0:0:0:
65,273,25553,2,0,L|111:279,1,40,4|0,0:0|0:0,0:0:0:0:
253,301,25707,2,0,L|213:295,1,40,8|0,0:2|0:0,0:0:0:0:
361,244,25861,5,4,0:0:0:0:
376,226,25938,1,4,0:0:0:0:
383,203,26015,1,4,0:0:0:0:
383,179,26091,1,4,0:0:0:0:
374,156,26168,1,8,0:2:0:0:
166,93,26322,2,0,L|211:86,1,40,0|0,0:0|0:0,0:0:0:0:
67,166,26476,1,4,0:0:0:0:
64,189,26553,1,4,0:0:0:0:
62,212,26630,2,0,L|55:257,1,40,8|0,0:2|0:0,0:0:0:0:
225,212,26784,1,8,0:2:0:0:
228,235,26861,1,0,0:0:0:0:
230,258,26938,2,0,L|236:297,1,40,0|0,0:0|0:0,0:0:0:0:
38,368,27091,6,0,L|44:326,1,40,4|0,0:0|0:0,0:0:0:0:
230,258,27245,2,0,L|236:297,1,40,4|4,0:0|0:0,0:0:0:0:
386,350,27399,2,0,B|425:344|425:344|461:324,1,80,8|0,0:2|0:0,0:0:0:0:
481,247,27630,1,0,0:0:0:0:
481,247,27707,2,0,L|472:205,1,40,4|0,0:0|0:0,0:0:0:0:
426,13,27861,2,0,L|434:52,1,40,8|0,0:2|0:0,0:0:0:0:
453,130,28015,1,4,0:1:0:0:
453,130,28168,5,4,0:2:0:0:
287,92,28476,1,4,0:2:0:0:
453,130,28784,1,4,0:2:0:0:
287,92,28938,2,0,L|248:83,1,40,0|0,0:0|0:0,0:0:0:0:
453,130,29091,2,0,L|492:139,1,40,4|0,0:0|0:0,0:0:0:0:
213,199,29245,6,0,L|169:189,1,40,0|0,0:0|0:0,0:0:0:0:
77,179,29553,6,0,L|159:198,1,80,4|4,0:0|0:0,0:0:0:0:
318,333,29861,1,8,0:2:0:0:
394,158,30015,2,0,L|401:202,1,40,0|0,0:0|0:0,0:0:0:0:
482,299,30168,1,4,0:0:0:0:
482,299,30245,1,0,0:0:0:0:
482,299,30322,1,8,0:2:0:0:
252,251,30476,2,0,L|208:260,1,40,4|0,0:0|0:0,0:0:0:0:
108,340,30630,2,0,L|63:331,1,40,8|0,0:2|0:0,0:0:0:0:
34,154,30784,5,4,0:0:0:0:
54,141,30861,1,4,0:0:0:0:
76,133,30938,1,4,0:0:0:0:
99,130,31015,1,4,0:0:0:0:
122,132,31091,2,0,P|162:143|196:171,1,80,8|0,0:2|0:0,0:0:0:0:
265,131,31322,1,0,0:0:0:0:
265,131,31399,2,0,P|258:109|255:84,1,40,4|4,0:0|0:0,0:0:0:0:
369,151,31553,2,0,P|375:130|387:111,1,40,8|0,0:2|0:0,0:0:0:0:
431,245,31707,2,0,P|448:234|471:228,1,40,8|0,0:2|0:0,0:0:0:0:
414,363,31861,2,0,P|434:365|456:374,1,40,0|0,0:0|0:0,0:0:0:0:
277,275,32015,6,0,P|237:293|197:296,1,80,4|4,0:0|0:0,0:0:0:0:
133,251,32245,1,4,0:0:0:0:
133,251,32322,2,0,L|116:164,1,80,8|0,0:2|0:0,0:0:0:0:
162,98,32553,1,0,0:0:0:0:
162,98,32630,2,0,L|151:50,1,40,4|0,0:0|0:0,0:0:0:0:
42,211,32784,2,0,L|33:249,1,40,8|0,0:2|0:0,0:0:0:0:
232,178,32938,1,4,0:0:0:0:
232,178,33015,1,0,0:0:0:0:
232,178,33091,1,8,0:2:0:0:
45,73,33245,5,4,0:0:0:0:
163,250,33399,1,4,0:0:0:0:
158,273,33476,1,4,0:0:0:0:
154,296,33553,2,0,L|145:339,1,40,8|0,0:2|0:0,0:0:0:0:
280,245,33707,1,0,0:0:0:0:
300,232,33784,1,0,0:0:0:0:
322,224,33861,2,0,P|360:218|404:225,1,80,4|8,0:0|0:2,0:0:0:0:
454,288,34091,1,0,0:0:0:0:
454,288,34168,2,0,P|453:311|449:331,1,40,8|0,0:2|0:0,0:0:0:0:
267,360,34322,2,0,P|259:342|256:320,1,40,0|0,0:0|0:0,0:0:0:0:
367,145,34476,6,0,P|393:110|401:71,1,80,4|4,0:0|0:0,0:0:0:0:
149,25,34784,2,0,L|153:65,1,40,8|0,0:2|0:0,0:0:0:0:
29,179,34938,2,0,L|33:139,1,40,0|0,0:0|0:0,0:0:0:0:
175,205,35091,1,4,0:0:0:0:
190,223,35168,1,0,0:0:0:0:
198,245,35245,1,8,0:2:0:0:
199,268,35322,1,0,0:0:0:0:
192,292,35399,1,4,0:0:0:0:
56,348,35553,2,0,L|15:342,1,40,8|0,0:2|0:0,0:0:0:0:
249,375,35707,6,0,L|299:383,1,40,4|4,0:0|0:0,0:0:0:0:
299,300,35861,2,0,L|349:308,1,40,4|4,0:0|0:0,0:0:0:0:
345,223,36015,2,0,L|428:235,1,80,8|0,0:2|0:0,0:0:0:0:
479,298,36245,1,0,0:0:0:0:
479,298,36322,2,0,P|486:321|488:341,1,40,4|4,0:0|0:0,0:0:0:0:
389,142,36476,2,0,P|395:120|403:105,1,40,8|0,0:2|0:0,0:0:0:0:
299,300,36630,2,0,P|253:294|221:277,1,80,8|0,0:2|0:0,0:0:0:0:
174,46,36938,5,4,0:0:0:0:
115,198,37091,2,0,L|72:206,1,40,0|0,0:0|0:0,0:0:0:0:
280,168,37245,2,0,L|366:149,1,80,8|0,0:2|0:0,0:0:0:0:
389,67,37476,1,0,0:0:0:0:
389,67,37553,2,0,L|341:78,1,40,4|0,0:0|0:0,0:0:0:0:
444,191,37707,5,8,0:2:0:0:
148,126,37861,1,2,0:0:0:0:
263,256,38015,1,4,0:2:0:0:
150,292,38322,6,0,L|144:336,1,40,0|0,0:0|0:0,0:0:0:0:
160,283,38476,2,0,L|153:328,1,40,0|0,0:0|0:0,0:0:0:0:
170,275,38630,2,0,L|164:319,1,40,0|0,0:0|0:0,0:0:0:0:
62,188,38784,2,0,L|74:273,2,80,0|0|0,0:0|0:0|0:0,0:0:0:0:
219,32,39399,6,0,L|300:44,1,80,4|2,0:2|0:2,0:0:0:0:
357,102,39630,1,0,0:0:0:0:
357,102,39707,2,0,P|330:135|319:171,1,80,8|2,0:2|3:2,0:0:0:0:
422,283,39938,1,0,3:0:0:0:
422,283,40015,2,0,P|419:240|403:200,1,80,4|10,0:0|0:2,0:0:0:0:
216,256,40245,1,0,0:0:0:0:
216,256,40322,2,0,L|138:240,1,80,4|8,0:0|0:2,0:0:0:0:
49,74,40553,1,0,0:0:0:0:
49,74,40630,6,0,L|92:66,1,40,4|4,0:0|0:0,0:0:0:0:
91,157,40784,2,0,L|134:149,1,40,2|0,0:2|0:0,0:0:0:0:
281,83,40938,2,0,L|237:90,1,40,8|0,0:2|0:0,0:0:0:0:
263,177,41092,2,0,L|219:184,1,40,2|0,0:2|0:0,0:0:0:0:
372,348,41245,2,0,P|416:343|452:328,1,80,4|2,0:0|0:2,0:0:0:0:
505,262,41476,1,0,0:0:0:0:
499,238,41553,2,0,L|489:198,1,40,8|0,0:2|0:0,0:0:0:0:
311,267,41707,2,0,L|302:306,1,40,2|0,0:2|0:0,0:0:0:0:
423,140,41861,6,0,B|389:120|389:120|349:115,1,80,0|2,0:0|0:2,0:0:0:0:
205,199,42091,1,0,0:0:0:0:
205,199,42168,2,0,L|216:284,1,80,8|2,0:2|0:2,0:0:0:0:
18,239,42399,1,0,0:0:0:0:
18,239,42476,2,0,L|7:324,1,80,0|10,0:0|0:2,0:0:0:0:
151,357,42707,1,0,0:0:0:0:
151,357,42784,2,0,L|144:308,1,40,4|0,0:0|0:0,0:0:0:0:
88,153,42938,2,0,L|93:192,1,40,10|0,0:2|0:0,0:0:0:0:
285,227,43091,5,4,0:0:0:0:
308,220,43168,1,0,0:0:0:0:
331,214,43245,1,2,0:2:0:0:
354,208,43322,1,0,0:0:0:0:
377,202,43399,2,0,B|402:235|402:235|411:276,1,80,8|8,0:2|0:2,0:0:0:0:
187,343,43707,6,0,B|191:302|191:302|206:266,1,80,4|2,0:0|0:2,0:0:0:0:
111,210,43938,1,0,0:0:0:0:
111,210,44015,2,0,B|87:204,2,20,4|0|0,0:0|0:0|0:0,0:0:0:0:
206,159,44168,2,0,B|229:164,2,20,2|0|0,0:2|0:0|0:0,0:0:0:0:
106,88,44322,6,0,L|66:79,1,40,4|0,0:0|0:0,0:0:0:0:
283,57,44476,1,2,0:2:0:0:
306,63,44553,1,0,0:0:0:0:
329,69,44630,2,0,L|372:81,1,40,8|0,0:2|0:0,0:0:0:0:
437,201,44784,1,2,0:2:0:0:
414,195,44861,1,0,0:0:0:0:
391,189,44938,2,0,L|348:177,1,40,4|0,0:0|0:0,0:0:0:0:
200,300,45091,1,10,0:2:0:0:
200,300,45168,1,0,0:0:0:0:
200,300,45245,2,0,P|241:298|282:282,1,80,4|10,0:0|0:2,0:0:0:0:
202,104,45553,5,4,0:0:0:0:
177,100,45630,1,0,0:0:0:0:
152,105,45707,1,2,0:2:0:0:
130,114,45784,1,0,0:0:0:0:
109,131,45861,2,0,L|102:176,1,40,8|0,0:2|0:0,0:0:0:0:
46,312,46015,2,0,L|40:270,1,40,2|0,0:2|0:0,0:0:0:0:
179,229,46168,2,0,L|261:246,1,80,4|2,0:0|0:2,0:0:0:0:
472,341,46476,2,0,L|426:333,1,40,8|0,0:2|0:0,0:0:0:0:
493,320,46630,2,0,L|447:312,1,40,2|0,0:2|0:0,0:0:0:0:
348,216,46784,5,4,0:0:0:0:
343,191,46860,1,0,0:0:0:0:
347,166,46937,1,2,0:2:0:0:
359,145,47014,1,0,0:0:0:0:
378,128,47091,2,0,B|414:114|414:114|456:117,1,80,8|2,0:2|0:2,0:0:0:0:
355,310,47399,2,0,P|332:306|317:300,1,40,4|0,0:0|0:0,0:0:0:0:
159,197,47553,2,0,P|177:189|197:187,1,40,10|0,0:2|0:0,0:0:0:0:
112,349,47707,1,4,0:0:0:0:
87,354,47783,1,0,0:0:0:0:
62,350,47860,1,10,0:2:0:0:
41,338,47937,1,0,0:0:0:0:
24,319,48014,6,0,B|19:272,2,40,4|0|2,0:0|0:0|0:2,0:0:0:0:
89,282,48322,6,0,B|84:235,2,40,4|0|2,0:0|0:0|0:2,0:0:0:0:
156,252,48630,6,0,B|151:205,1,40,0|0,1:0|0:0,0:0:0:0:
183,239,48784,2,0,B|178:192,1,40,0|0,1:0|0:0,0:0:0:0:
266,290,48938,2,0,L|258:331,1,40,2|2,0:0|0:0,0:0:0:0:
370,174,49091,2,0,L|362:131,1,40,2|2,0:0|0:0,0:0:0:0:
463,347,49245,5,4,0:1:0:0:
257,206,49399,1,2,0:2:0:0:
292,101,49553,2,0,L|303:61,1,40,8|0,0:2|0:0,0:0:0:0:
257,206,49707,1,2,0:2:0:0:
170,66,49861,1,4,0:0:0:0:
90,257,50015,1,10,0:2:0:0:
59,147,50168,2,0,L|48:107,1,40,4|0,0:0|0:0,0:0:0:0:
90,257,50322,1,10,0:2:0:0:
224,121,50476,5,4,0:0:0:0:
247,127,50553,1,0,0:0:0:0:
270,132,50630,1,2,0:2:0:0:
293,137,50707,1,0,0:0:0:0:
316,142,50784,2,0,P|330:180|331:225,1,80,8|2,0:2|0:2,0:0:0:0:
258,262,51015,1,0,0:0:0:0:
258,262,51091,2,0,L|213:254,1,40,4|0,0:0|0:0,0:0:0:0:
51,331,51245,1,2,0:2:0:0:
51,331,51322,1,0,0:0:0:0:
51,331,51399,2,0,L|93:324,1,40,8|0,0:2|0:0,0:0:0:0:
71,186,51553,2,0,L|113:179,1,40,2|0,0:2|0:0,0:0:0:0:
96,40,51707,6,0,L|181:26,1,80,4|2,0:0|0:2,0:0:0:0:
199,23,51938,1,0,0:0:0:0:
222,19,52015,1,8,0:2:0:0:
407,95,52168,1,2,0:2:0:0:
383,91,52245,1,0,0:0:0:0:
359,88,52322,2,0,L|312:80,1,40,4|0,0:0|0:0,0:0:0:0:
250,226,52476,2,0,L|297:218,1,40,10|0,0:2|0:0,0:0:0:0:
129,107,52630,1,4,0:0:0:0:
112,124,52707,1,0,0:0:0:0:
103,146,52784,1,10,0:2:0:0:
101,170,52861,1,0,0:0:0:0:
108,192,52938,5,4,0:0:0:0:
112,196,53015,1,0,0:0:0:0:
116,200,53091,2,0,L|163:193,1,40,2|0,0:2|0:0,0:0:0:0:
228,317,53245,1,8,0:2:0:0:
224,321,53322,1,0,0:0:0:0:
220,325,53399,2,0,L|177:317,1,40,2|8,0:2|0:2,0:0:0:0:
337,237,53553,5,4,0:0:0:0:
337,237,53630,1,0,0:0:0:0:
337,237,53707,1,10,0:2:0:0:
415,62,53861,6,0,L|415:105,1,40,8|8,0:2|0:2,0:0:0:0:
415,190,54015,1,8,0:0:0:0:
269,31,54168,5,4,0:0:0:0:
245,35,54245,1,0,0:0:0:0:
221,40,54322,1,2,0:2:0:0:
167,184,54476,2,0,P|126:183|88:169,1,80,8|2,0:2|0:2,0:0:0:0:
57,102,54707,1,0,0:0:0:0:
57,102,54784,2,0,L|51:62,1,40,4|0,0:0|0:0,0:0:0:0:
0,214,54938,2,0,L|6:174,1,40,10|0,0:2|0:0,0:0:0:0:
121,324,55091,2,0,L|41:335,1,80,4|10,0:0|0:2,0:0:0:0:
250,228,55399,5,4,0:0:0:0:
267,244,55476,1,0,0:0:0:0:
279,264,55553,1,2,0:2:0:0:
285,287,55630,1,0,0:0:0:0:
284,311,55707,1,8,0:2:0:0:
83,245,55861,1,2,0:2:0:0:
274,121,56015,2,0,L|288:38,1,80,4|2,0:0|0:2,0:0:0:0:
349,191,56322,2,0,L|357:234,1,40,2|0,1:2|0:0,0:0:0:0:
167,117,56476,2,0,L|158:162,1,40,2|0,1:2|0:0,0:0:0:0:
393,66,56630,5,4,0:0:0:0:
477,232,56784,1,2,0:2:0:0:
474,255,56861,1,0,0:0:0:0:
468,279,56938,2,0,P|434:304|394:315,1,80,8|2,0:2|0:2,0:0:0:0:
316,309,57168,1,0,0:0:0:0:
316,309,57245,6,0,B|294:305|294:305|260:317|260:317|239:313,1,80,4|10,0:0|0:2,0:0:0:0:
1,281,57553,2,0,L|47:287,1,40,4|0,0:0|0:0,0:0:0:0:
231,319,57707,1,10,0:2:0:0:
24,205,57861,6,0,L|78:201,1,40,4|0,0:2|0:0,0:0:0:0:
258,171,58015,2,0,L|217:177,1,40,2|0,0:2|0:0,0:0:0:0:
29,191,58168,2,0,L|78:178,1,40,4|0,0:2|0:0,0:0:0:0:
233,91,58322,2,0,L|190:111,1,40,2|0,0:2|0:0,0:0:0:0:
31,177,58476,2,0,L|69:157,1,40,4|0,0:2|0:0,0:0:0:0:
182,18,58630,2,0,L|152:54,1,40,2|0,0:2|0:0,0:0:0:0:
129,224,58784,1,2,0:0:0:0:
148,237,58861,1,2,0:0:0:0:
170,243,58938,1,2,0:0:0:0:
194,244,59015,1,2,0:0:0:0:
215,240,59091,6,0,P|258:200|230:109,1,160,4|0,0:2|0:0,0:0:0:0:
85,50,59553,2,0,L|169:62,1,80,4|4,0:0|0:0,0:0:0:0:
310,18,59861,1,4,0:0:0:0:
355,110,60015,2,0,P|395:95|431:93,1,80,4|4,0:0|0:0,0:0:0:0:
453,303,60322,6,0,P|391:311|314:237,1,160,12|4,0:2|0:0,0:0:0:0:
234,145,60784,2,0,L|220:237,1,80,4|4,0:0|0:0,0:0:0:0:
34,297,61091,1,4,0:0:0:0:
51,199,61245,2,0,P|89:184|132:178,1,80,4|4,0:0|0:0,0:0:0:0:
212,304,61553,6,0,P|229:339|345:349,1,160,12|4,0:2|0:0,0:0:0:0:
391,188,62015,2,0,P|401:231|421:265,1,80,4|4,0:0|0:0,0:0:0:0:
482,90,62322,1,4,0:0:0:0:
304,22,62476,2,0,P|263:33|227:57,1,80,4|4,0:0|0:0,0:0:0:0:
160,281,62784,5,4,0:2:0:0:
176,275,63399,1,4,0:2:0:0:
193,267,64015,1,12,0:2:0:0:
331,296,64168,2,0,L|338:339,1,40,4|4,0:0|0:0,0:0:0:0:
316,208,64322,1,4,0:0:0:0:
424,248,64476,2,0,L|431:291,1,40,4|4,0:0|0:0,0:0:0:0:
409,160,64630,1,4,0:0:0:0:
315,106,64784,1,4,0:0:0:0:
299,109,64861,1,4,0:0:0:0:
283,108,64938,1,4,0:0:0:0:
267,103,65015,1,0,0:0:0:0:
253,95,65091,1,0,0:0:0:0:
242,84,65168,1,0,0:0:0:0:
234,70,65245,6,0,L|240:20,2,40,12|4|4,0:2|0:0|0:0,0:0:0:0:
170,144,65553,1,4,0:0:0:0:
69,112,65707,2,0,L|62:151,1,40,4|0,0:0|0:0,0:0:0:0:
84,24,65861,1,4,0:0:0:0:
111,258,66015,2,0,L|104:303,1,40,4|4,0:0|0:0,0:0:0:0:
222,312,66168,2,0,L|228:360,1,40,4|4,0:0|0:0,0:0:0:0:
119,250,66322,2,0,L|113:296,1,40,4|4,0:0|0:0,0:0:0:0:
271,206,66476,5,4,0:2:0:0:
181,92,66630,1,0,0:0:0:0:
157,86,66707,1,0,0:0:0:0:
133,80,66784,1,4,0:0:0:0:
328,136,66938,5,4,0:0:0:0:
352,130,67015,1,0,0:0:0:0:
376,124,67092,1,4,0:0:0:0:
292,247,67245,5,4,0:0:0:0:
319,271,67322,1,0,0:0:0:0:
356,281,67399,1,2,0:0:0:0:
392,278,67476,1,0,0:0:0:0:
426,263,67553,1,2,0:0:0:0:
454,237,67630,1,0,0:0:0:0:
470,204,67707,1,4,1:2:0:0:
455,147,78168,5,6,0:0:0:0:
478,141,78245,1,6,0:0:0:0:
501,136,78322,1,12,0:3:0:0:
375,166,78476,2,0,L|345:173,6,20,2|0|2|0|2|0|2,0:0|0:0|0:0|0:0|0:0|0:0|0:0,0:0:0:0:
285,131,78784,6,0,P|277:115|275:94,1,40,4|0,0:2|0:0,0:0:0:0:
310,290,78938,2,0,P|309:313|303:332,1,40,2|0,0:2|0:0,0:0:0:0:
431,219,79091,1,8,0:2:0:0:
185,267,79245,1,2,0:2:0:0:
185,267,79322,1,0,0:0:0:0:
185,267,79399,2,0,L|139:257,1,40,4|0,0:0|0:0,0:0:0:0:
32,168,79553,2,0,L|74:177,1,40,10|0,0:2|0:0,0:0:0:0:
127,8,79707,2,0,P|110:43|108:85,1,80,4|10,0:0|0:2,0:0:0:0:
168,151,79938,1,0,0:0:0:0:
168,151,80015,6,0,L|211:160,1,40,4|0,0:0|0:0,0:0:0:0:
277,69,80168,1,2,0:2:0:0:
300,65,80245,1,0,0:0:0:0:
323,61,80322,1,8,0:2:0:0:
496,148,80476,1,2,0:2:0:0:
473,144,80553,1,0,0:0:0:0:
450,140,80630,1,4,0:0:0:0:
256,232,80784,1,2,0:2:0:0:
279,228,80861,1,0,0:0:0:0:
302,223,80938,2,0,L|345:213,1,40,8|0,0:2|0:0,0:0:0:0:
398,285,81091,2,0,L|420:293,2,20,2|0|0,0:2|0:0|0:0,0:0:0:0:
219,312,81245,6,0,P|187:287|172:250,1,80,4|2,0:0|0:2,0:0:0:0:
196,169,81476,1,0,0:0:0:0:
196,169,81553,2,0,L|283:149,1,80,8|2,0:2|0:2,0:0:0:0:
28,122,81784,1,0,0:0:0:0:
28,122,81861,2,0,L|66:112,1,40,4|0,0:0|0:0,0:0:0:0:
196,85,82015,2,0,L|243:74,1,40,10|0,0:2|0:0,0:0:0:0:
365,1,82168,1,4,0:0:0:0:
356,23,82245,1,0,0:0:0:0:
356,47,82322,1,10,0:2:0:0:
365,68,82399,1,0,0:0:0:0:
383,82,82476,6,0,L|471:96,1,80,4|2,0:0|0:2,0:0:0:0:
407,273,82707,1,0,0:0:0:0:
407,273,82784,2,0,L|319:287,1,80,8|2,0:2|0:2,0:0:0:0:
55,200,83092,1,4,0:0:0:0:
55,200,83168,1,0,0:0:0:0:
55,200,83245,1,2,0:2:0:0:
296,126,83399,2,0,L|290:100,2,20,2|2|2,0:0|0:0|0:0,0:0:0:0:
375,170,83553,2,0,L|370:189,2,20,2|2|2,0:2|0:0|0:0,0:0:0:0:
446,102,83707,6,0,L|451:59,1,40,4|0,0:0|0:0,0:0:0:0:
283,218,83861,1,2,0:2:0:0:
289,241,83938,1,0,0:0:0:0:
295,264,84015,2,0,L|307:307,1,40,8|0,0:2|0:0,0:0:0:0:
461,183,84168,1,2,0:2:0:0:
455,206,84245,1,0,0:0:0:0:
449,229,84322,2,0,L|438:267,1,40,4|0,0:0|0:0,0:0:0:0:
343,126,84476,1,10,0:2:0:0:
343,126,84553,1,0,0:0:0:0:
343,126,84630,2,0,P|304:111|260:110,1,80,4|10,0:0|0:2,0:0:0:0:
101,122,84938,5,4,0:0:0:0:
82,104,85015,1,0,0:0:0:0:
71,81,85092,1,2,0:2:0:0:
65,58,85169,1,0,0:0:0:0:
66,31,85246,2,0,L|52:72,1,40,8|0,0:2|0:0,0:0:0:0:
7,192,85400,2,0,L|-1:151,1,40,2|0,0:2|0:0,0:0:0:0:
83,276,85553,1,4,0:0:0:0:
100,260,85630,1,0,0:0:0:0:
121,249,85707,1,2,0:2:0:0:
144,245,85784,1,0,0:0:0:0:
167,247,85861,2,0,P|189:252|208:264,1,40,8|0,0:2|0:0,0:0:0:0:
301,62,86015,2,0,P|318:52|337:47,1,40,2|0,0:2|0:0,0:0:0:0:
430,248,86168,6,0,P|411:211|408:161,1,80,4|2,0:0|0:2,0:0:0:0:
509,33,86399,1,0,0:0:0:0:
509,33,86476,2,0,P|486:71|458:94,1,80,8|2,0:2|0:2,0:0:0:0:
252,126,86707,1,0,0:0:0:0:
252,126,86784,2,0,P|229:118|210:115,1,40,4|0,0:0|0:0,0:0:0:0:
101,182,86938,2,0,P|76:186|60:193,1,40,10|0,0:2|0:0,0:0:0:0:
250,356,87091,2,0,P|303:337|317:254,1,143.999995605469,4|0,0:0|0:0,0:0:0:0:
236,218,87399,6,0,L|184:227,1,47.9999985351563,4|0,0:0|0:0,0:0:0:0:
454,331,87553,1,2,0:2:0:0:
454,331,87630,1,0,0:0:0:0:
454,331,87707,2,0,L|501:339,1,47.9999985351563,4|0,0:0|0:0,0:0:0:0:
383,122,87861,2,0,L|430:114,1,47.9999985351563,2|0,0:2|0:0,0:0:0:0:
255,286,88015,2,0,L|304:299,1,47.9999985351563,2|2,0:0|0:0,0:0:0:0:
155,131,88168,2,0,L|203:122,1,47.9999985351563,2|2,0:2|0:0,0:0:0:0:
56,275,88322,2,0,L|94:287,6,23.9999992675781,4|0|0|0|0|0|0,0:0|0:0|0:0|0:0|0:0|0:0|0:0,0:0:0:0:
70,202,88630,6,0,P|51:172|43:126,1,80,4|2,0:0|0:2,0:0:0:0:
261,41,88938,2,0,L|302:49,1,40,8|0,0:2|0:0,0:0:0:0:
182,83,89091,1,2,0:2:0:0:
166,64,89168,1,0,0:0:0:0:
145,51,89245,1,4,0:0:0:0:
121,46,89322,1,0,0:0:0:0:
97,50,89399,1,10,0:2:0:0:
258,200,89553,2,0,P|301:218|338:219,1,80,4|10,0:0|0:2,0:0:0:0:
405,174,89784,1,0,0:0:0:0:
405,174,89861,6,0,P|410:156|414:132,1,40,4|0,0:0|0:0,0:0:0:0:
270,73,90015,2,0,P|273:93|281:114,1,40,2|0,0:2|0:0,0:0:0:0:
408,255,90168,2,0,P|405:294|388:330,1,80,8|2,0:2|0:2,0:0:0:0:
237,355,90399,1,0,0:0:0:0:
217,341,90476,2,0,L|209:294,1,40,4|0,0:0|0:0,0:0:0:0:
125,256,90630,2,0,L|117:281,2,20,2|0|0,0:2|0:0|0:0,0:0:0:0:
34,204,90784,2,0,L|40:230,2,20,8|0|0,1:2|0:0|1:0,0:0:0:0:
140,153,90938,1,2,1:2:0:0:
140,153,91015,1,0,1:0:0:0:
140,153,91091,6,0,P|175:170|220:177,1,80,4|2,0:0|0:2,0:0:0:0:
100,22,91322,1,0,0:0:0:0:
100,22,91399,2,0,P|60:38|18:42,1,80,8|2,0:2|0:2,0:0:0:0:
210,60,91630,1,0,0:0:0:0:
210,60,91707,2,0,P|220:78|226:98,1,40,4|0,0:0|0:0,0:0:0:0:
334,100,91861,2,0,P|331:120|325:140,1,40,10|0,0:2|0:0,0:0:0:0:
413,204,92015,2,0,P|403:222|397:242,1,40,4|0,0:0|0:0,0:0:0:0:
289,244,92169,2,0,P|291:264|297:284,1,40,10|0,0:2|0:0,0:0:0:0:
392,353,92322,5,4,0:0:0:0:
414,360,92399,1,0,0:0:0:0:
438,359,92476,1,2,0:2:0:0:
460,350,92553,1,0,0:0:0:0:
478,334,92630,1,8,0:2:0:0:
489,313,92707,1,0,0:0:0:0:
490,289,92784,2,0,L|484:248,1,40,2|0,0:2|0:0,0:0:0:0:
470,154,92938,2,0,L|464:113,1,40,4|0,0:0|0:0,0:0:0:0:
447,15,93091,1,2,0:2:0:0:
447,15,93168,1,0,0:0:0:0:
447,15,93245,2,0,P|401:46|333:46,1,120,8|0,0:2|0:0,0:0:0:0:
282,1,93553,6,0,L|289:43,1,40,4|0,0:0|0:0,0:0:0:0:
206,133,93707,1,2,0:2:0:0:
182,127,93784,1,0,0:0:0:0:
158,121,93861,2,0,L|148:79,1,40,8|0,0:2|0:0,0:0:0:0:
99,242,94015,2,0,L|67:271,1,40,2|0,0:2|0:0,0:0:0:0:
236,224,94168,2,0,L|277:236,1,40,4|0,0:0|0:0,0:0:0:0:
444,286,94322,2,0,L|405:274,1,40,10|0,0:2|0:0,0:0:0:0:
366,151,94476,1,4,0:0:0:0:
302,351,94630,1,10,0:2:0:0:
366,151,94784,6,0,L|381:197,1,40,4|0,0:0|0:0,0:0:0:0:
307,72,94938,1,2,0:2:0:0:
284,79,95015,1,0,0:0:0:0:
260,82,95091,2,0,P|220:77|187:57,1,80,8|2,0:2|0:2,0:0:0:0:
49,342,95399,6,0,L|40:294,1,47.9999985351563,4|0,0:0|0:0,0:0:0:0:
237,179,95553,1,2,0:2:0:0:
224,234,95630,1,0,0:0:0:0:
211,287,95707,2,0,P|201:248|176:311,1,167.999994873047,8|0,1:2|0:0,0:0:0:0:
270,340,96015,6,0,P|305:323|349:317,1,80,4|2,0:0|0:2,0:0:0:0:
369,320,96245,1,0,0:0:0:0:
391,327,96322,2,0,L|402:371,1,40,8|0,0:2|0:0,0:0:0:0:
477,271,96476,2,0,L|488:315,1,40,2|0,0:2|0:0,0:0:0:0:
326,229,96630,1,4,0:0:0:0:
486,159,96784,1,10,0:2:0:0:
255,154,96938,1,4,0:0:0:0:
491,16,97091,1,4,0:2:0:0:
98,102,98476,6,0,L|104:143,1,40,4|0,1:2|1:0,0:0:0:0:
198,228,98784,2,0,L|192:188,1,40,0|0,1:0|1:0,0:0:0:0:
270,81,99091,1,8,1:2:0:0:
379,153,100938,5,4,1:2:0:0:
473,169,101091,1,0,1:0:0:0:
379,153,101245,1,0,1:0:0:0:
439,79,101399,1,0,1:0:0:0:
439,79,101553,1,8,1:2:0:0:
326,314,103399,6,0,L|370:323,1,40,4|0,1:2|1:0,0:0:0:0:
286,238,103707,1,0,1:0:0:0:
229,335,103861,1,0,1:0:0:0:
229,335,104015,1,8,1:2:0:0:
57,185,105861,6,0,L|98:192,1,40,4|0,1:2|1:0,0:0:0:0:
184,136,106168,2,0,L|225:143,1,40,0|0,1:0|1:0,0:0:0:0:
297,270,106476,1,8,1:2:0:0:
455,185,107091,6,0,L|414:192,1,40,4|0,1:2|1:0,0:0:0:0:
328,136,107399,2,0,L|287:143,1,40,0|0,1:0|1:0,0:0:0:0:
215,270,107706,1,8,1:2:0:0:
290,43,108322,5,4,1:2:0:0:
261,120,108476,1,0,1:0:0:0:
312,180,108630,1,0,1:0:0:0:
394,169,108784,1,0,1:0:0:0:
394,169,108861,1,0,0:0:0:0:
394,169,108938,1,8,1:2:0:0:
353,262,110476,5,0,0:0:0:0:
347,263,110553,1,0,0:0:0:0:
341,264,110630,1,0,0:0:0:0:
335,265,110707,1,0,0:0:0:0:
329,266,110784,1,4,1:2:0:0:
193,223,110938,1,0,1:0:0:0:
251,319,111091,1,0,1:0:0:0:
143,352,111245,1,0,1:0:0:0:
143,352,111322,1,0,0:0:0:0:
143,352,111399,1,8,1:2:0:0:
190,52,112630,5,0,0:0:0:0:
195,54,112707,1,0,0:0:0:0:
200,56,112784,1,0,0:0:0:0:
205,58,112861,1,0,0:0:0:0:
210,60,112938,1,0,0:0:0:0:
215,62,113015,1,0,0:0:0:0:
220,64,113091,1,0,0:0:0:0:
225,66,113168,1,0,0:0:0:0:
230,68,113245,5,4,1:2:0:0:
393,34,113399,1,0,1:0:0:0:
323,218,113553,1,0,1:0:0:0:
302,127,113707,1,0,1:0:0:0:
302,127,113784,1,0,0:0:0:0:
302,127,113861,1,8,1:2:0:0:
67,228,115399,5,0,0:0:0:0:
72,226,115476,1,0,0:0:0:0:
77,224,115553,1,0,0:0:0:0:
82,222,115630,1,0,0:0:0:0:
88,220,115707,6,0,B|143:202|214:222|174:299|278:284|313:248|309:182|253:145|214:179,1,320,4|8,1:2|1:2,0:0:0:0:
137,134,116938,6,0,B|163:159|154:198|116:232|70:224|32:176|25:120|75:54|145:42,1,320,4|8,1:2|1:2,0:0:0:0:
390,115,117861,6,0,L|406:118,6,10,2|0|2|0|2|0|2,0:0|0:0|0:0|0:0|0:0|0:0|0:0,0:0:0:0:
333,183,118168,6,0,L|293:194,1,40,4|0,0:2|0:0,0:0:0:0:
135,285,118322,1,2,0:2:0:0:
158,279,118399,1,0,0:0:0:0:
181,273,118476,2,0,L|221:261,1,40,8|0,0:2|0:0,0:0:0:0:
40,220,118630,1,2,0:2:0:0:
40,220,118707,1,0,0:0:0:0:
40,220,118784,2,0,L|58:132,1,80,4|10,0:0|0:2,0:0:0:0:
19,20,119015,1,0,0:0:0:0:
19,20,119091,2,0,P|22:42|30:60,1,40,4|0,0:0|0:0,0:0:0:0:
157,152,119245,2,0,P|177:160|197:162,1,40,10|0,0:2|0:0,0:0:0:0:
346,115,119399,6,0,P|363:101|375:85,1,40,4|0,0:0|0:0,0:0:0:0:
290,32,119553,1,2,0:2:0:0:
400,202,119707,2,0,P|362:217|324:218,1,80,8|2,0:2|0:2,0:0:0:0:
145,269,120015,2,0,L|193:278,1,40,4|0,0:0|0:0,0:0:0:0:
281,294,120168,1,2,0:2:0:0:
48,208,120322,2,0,P|34:243|37:295,1,80,8|2,0:2|0:2,0:0:0:0:
249,159,120630,6,0,P|243:125|220:84,1,80,4|2,0:0|0:2,0:0:0:0:
130,63,120861,1,0,0:0:0:0:
102,79,120938,2,0,L|114:172,1,80,8|2,0:2|0:2,0:0:0:0:
222,255,121168,1,0,0:0:0:0:
247,274,121245,2,0,L|235:367,1,80,4|10,0:0|0:2,0:0:0:0:
154,378,121476,1,0,0:0:0:0:
122,374,121553,1,4,0:0:0:0:
94,357,121630,1,0,0:0:0:0:
77,329,121707,1,10,0:2:0:0:
72,297,121784,1,0,0:0:0:0:
83,267,121861,6,0,P|113:242|157:230,1,80,4|2,0:0|0:2,0:0:0:0:
316,302,122091,1,0,0:0:0:0:
328,331,122168,2,0,P|369:345|406:343,1,80,8|2,0:2|0:2,0:0:0:0:
499,190,122476,5,4,0:0:0:0:
495,174,122553,1,0,0:0:0:0:
491,158,122630,1,2,0:2:0:0:
487,142,122707,1,0,0:0:0:0:
483,126,122784,6,0,L|432:112,1,51.999997619629,8|0,0:2|0:0,0:0:0:0:
199,166,122938,2,0,L|149:152,1,51.999997619629,2|0,0:2|0:0,0:0:0:0:
335,87,123091,6,0,P|356:124|360:162,1,80,4|2,0:0|0:2,0:0:0:0:
190,291,123322,1,0,0:0:0:0:
190,291,123399,2,0,P|147:290|111:275,1,80,8|2,0:2|0:2,0:0:0:0:
95,66,123630,1,0,0:0:0:0:
95,66,123707,2,0,P|117:29|148:5,1,80,4|10,0:0|0:2,0:0:0:0:
232,31,123938,1,0,0:0:0:0:
232,31,124015,2,0,P|237:53|239:75,1,40,4|0,0:0|0:0,0:0:0:0:
276,172,124168,2,0,P|273:195|267:215,1,40,10|0,0:2|0:0,0:0:0:0:
113,276,124322,5,4,0:0:0:0:
113,276,124399,1,0,0:0:0:0:
113,276,124476,1,2,0:2:0:0:
381,334,124630,2,0,L|339:325,1,40,8|0,0:2|0:0,0:0:0:0:
204,366,124784,1,2,0:2:0:0:
353,238,124938,1,4,0:0:0:0:
358,214,125015,1,0,0:0:0:0:
363,191,125091,1,2,0:2:0:0:
280,55,125245,2,0,L|237:46,1,40,8|0,0:2|3:0,0:0:0:0:
472,129,125399,2,0,L|513:119,1,40,2|0,3:2|3:0,0:0:0:0:
257,198,125553,6,0,P|260:241|280:279,1,80,4|2,0:0|0:2,0:0:0:0:
457,328,125784,1,0,0:0:0:0:
486,316,125861,2,0,P|502:279|503:237,1,80,8|2,0:2|0:2,0:0:0:0:
405,93,126091,1,0,0:0:0:0:
384,117,126168,2,0,P|340:115|301:99,1,80,4|10,0:0|0:2,0:0:0:0:
250,51,126399,1,0,0:0:0:0:
236,79,126476,1,4,0:0:0:0:
213,101,126553,1,0,0:0:0:0:
185,115,126630,1,10,0:2:0:0:
153,118,126707,1,0,0:0:0:0:
121,111,126784,6,0,B|110:75|110:75|109:114|82:139,1,103.999995239258,6|0,0:0|0:0,0:0:0:0:
44,169,127015,1,0,0:0:0:0:
31,220,127091,2,0,P|51:229|81:230,1,51.999997619629,6|0,0:0|0:0,0:0:0:0:
174,196,127245,2,0,P|200:187|226:185,1,51.999997619629,0|0,0:0|0:0,0:0:0:0:
323,217,127399,5,4,0:0:0:0:
357,255,127476,1,0,0:0:0:0:
355,307,127553,1,2,0:2:0:0:
316,342,127630,1,0,0:0:0:0:
264,335,127707,2,0,P|254:310|253:279,1,51.999997619629,2|0,0:2|0:0,0:0:0:0:
395,87,127861,2,0,P|393:115|384:138,1,51.999997619629,2|0,0:2|0:0,0:0:0:0:
492,364,128015,6,0,P|468:329|456:282,1,88.000002685547,4|2,0:0|0:2,0:0:0:0:
493,186,128245,1,0,0:0:0:0:
493,186,128322,2,0,P|472:194|447:197,1,44.0000013427735,8|0,0:2|0:0,0:0:0:0:
289,116,128476,1,2,0:2:0:0:
283,84,128553,1,0,0:0:0:0:
278,52,128630,1,4,0:0:0:0:
177,228,128784,2,0,L|184:177,1,44.0000013427735,10|0,0:2|0:0,0:0:0:0:
89,261,128938,1,4,0:0:0:0:
105,287,129015,1,0,0:0:0:0:
127,307,129091,1,10,0:2:0:0:
155,318,129168,1,0,0:0:0:0:
185,321,129245,6,0,P|207:316|228:303,1,44.0000013427735,4|0,0:0|3:0,0:0:0:0:
275,179,129399,1,2,3:2:0:0:
479,294,129553,2,0,P|438:309|393:312,1,88.000002685547,8|2,0:2|0:2,0:0:0:0:
293,69,129861,2,0,P|316:74|335:85,1,44.0000013427735,4|0,0:0|0:0,0:0:0:0:
425,212,130015,2,0,P|449:208|467:200,1,44.0000013427735,2|0,0:2|0:0,0:0:0:0:
275,179,130168,1,8,0:2:0:0:
253,200,130245,1,0,0:0:0:0:
239,227,130322,1,2,0:2:0:0:
235,257,130399,1,0,0:0:0:0:
240,287,130476,6,0,B|279:307|279:307|324:312,1,88.000002685547,4|2,0:0|0:2,0:0:0:0:
111,221,130707,1,0,0:0:0:0:
111,221,130784,2,0,B|109:264|109:264|123:308,1,88.000002685547,8|2,0:2|0:2,0:0:0:0:
75,82,131015,1,0,0:0:0:0:
75,82,131092,2,0,B|34:99|34:99|2:130,1,88.000002685547,4|10,0:0|0:2,0:0:0:0:
153,129,131322,1,0,0:0:0:0:
179,113,131399,2,0,L|187:62,1,44.0000013427735,4|0,0:0|0:0,0:0:0:0:
338,21,131553,2,0,L|345:69,1,44.0000013427735,10|0,0:2|0:0,0:0:0:0:
268,248,131707,5,4,0:0:0:0:
481,203,131861,2,0,L|425:215,1,44.0000013427735,2|0,0:2|0:0,0:0:0:0:
268,248,132015,2,0,L|367:227,1,88.000002685547,8|2,0:2|0:2,0:0:0:0:
191,336,132322,1,6,0:0:0:0:
160,330,132399,1,2,0:0:0:0:
129,324,132476,1,2,0:2:0:0:
98,318,132553,1,0,0:0:0:0:
71,248,132630,1,6,0:0:0:0:
102,242,132707,1,2,0:0:0:0:
133,236,132784,1,2,0:2:0:0:
164,230,132861,1,0,0:0:0:0:
227,193,132938,6,0,P|245:154|248:108,1,88.000002685547,4|2,0:0|0:2,0:0:0:0:
136,25,133169,1,0,0:0:0:0:
136,25,133246,2,0,P|154:65|158:108,1,88.000002685547,8|2,0:2|0:2,0:0:0:0:
38,165,133477,1,0,0:0:0:0:
38,165,133554,2,0,P|57:124|62:77,1,88.000002685547,4|10,0:0|0:2,0:0:0:0:
248,109,133785,1,0,0:0:0:0:
248,109,133862,2,0,P|253:131|256:156,1,44.0000013427735,4|0,0:0|0:0,0:0:0:0:
187,267,134015,2,0,P|190:290|198:313,1,44.0000013427735,10|0,0:2|0:0,0:0:0:0:
322,353,134169,5,4,0:0:0:0:
351,347,134245,1,0,0:0:0:0:
380,341,134322,1,2,0:2:0:0:
456,138,134477,2,0,L|447:182,1,44.0000013427735,8|0,0:2|0:0,0:0:0:0:
512,310,134631,1,2,0:2:0:0:
334,180,134784,1,4,0:0:0:0:
305,186,134860,1,0,0:0:0:0:
276,192,134937,1,2,0:2:0:0:
192,305,135092,2,0,L|147:296,1,44.0000013427735,8|0,0:2|0:0,0:0:0:0:
118,152,135246,2,0,L|163:161,1,44.0000013427735,0|0,0:0|0:0,0:0:0:0:
0,214,135400,6,0,L|94:235,1,88.000002685547,4|2,0:0|0:2,0:0:0:0:
77,88,135631,1,0,0:0:0:0:
102,71,135707,2,0,L|196:92,1,88.000002685547,8|2,0:2|0:2,0:0:0:0:
289,30,135938,1,0,0:0:0:0:
314,47,136014,2,0,L|408:26,1,88.000002685547,4|10,0:0|0:2,0:0:0:0:
470,64,136245,1,0,0:0:0:0:
445,82,136322,1,4,0:0:0:0:
428,108,136399,1,0,0:0:0:0:
424,138,136476,1,10,0:2:0:0:
430,168,136553,1,0,0:0:0:0:
447,193,136630,6,0,P|400:181|435:257,1,180.000006866455,4|0,0:0|0:0,0:0:0:0:
427,260,136938,2,0,P|413:213|365:281,1,180.000006866455,4|0,0:0|0:0,0:0:0:0:
358,276,137245,2,0,P|391:241|308:233,1,180.000006866455,4|0,0:0|0:0,0:0:0:0:
268,285,137553,6,0,L|213:294,1,50,4|0,0:0|0:0,0:0:0:0:
144,226,137861,6,0,P|162:184|163:142,1,80,4|0,0:0|0:0,0:0:0:0:
77,72,138168,1,2,0:2:0:0:
241,103,138322,2,0,L|325:89,2,80,4|4|4,0:0|0:0|0:0,0:0:0:0:
50,209,138784,2,0,P|36:247|34:289,1,80,2|0,0:2|0:0,0:0:0:0:
118,355,139091,5,4,0:0:0:0:
210,306,139245,1,4,0:0:0:0:
233,312,139322,1,0,0:0:0:0:
256,318,139399,1,2,0:2:0:0:
349,270,139553,1,0,0:0:0:0:
283,124,139707,2,0,L|204:136,1,80,4|4,0:0|0:0,0:0:0:0:
80,77,140015,2,0,L|91:33,3,40,2|0|0|0,0:2|0:0|0:0|0:0,0:0:0:0:
160,14,140322,6,0,P|194:33|235:38,1,80,4|0,0:0|0:0,0:0:0:0:
331,8,140630,1,2,0:2:0:0:
447,116,140784,1,0,0:0:0:0:
445,139,140861,1,0,0:0:0:0:
443,162,140938,2,0,L|439:204,1,40,4|0,0:0|0:0,0:0:0:0:
323,150,141091,1,4,0:0:0:0:
325,173,141168,1,0,0:0:0:0:
327,196,141245,2,0,L|331:238,1,40,2|0,0:2|0:0,0:0:0:0:
400,365,141399,2,0,L|404:322,1,40,0|0,0:0|0:0,0:0:0:0:
394,308,141553,6,0,L|390:347,1,40,4|0,0:0|0:0,0:0:0:0:
245,277,141707,1,4,0:0:0:0:
222,284,141784,1,0,0:0:0:0:
198,290,141861,2,0,P|158:286|114:258,1,80,2|0,0:2|0:0,0:0:0:0:
140,165,142168,1,4,0:0:0:0:
155,146,142245,1,0,0:0:0:0:
163,123,142322,1,4,0:0:0:0:
164,99,142399,1,0,0:0:0:0:
157,75,142476,2,0,L|112:65,1,40,2|0,0:2|0:0,0:0:0:0:
342,25,142630,2,0,L|381:33,1,40,0|0,0:0|0:0,0:0:0:0:
410,198,142784,6,0,P|389:163|383:122,1,80,4|0,0:0|0:0,0:0:0:0:
497,254,143015,1,0,0:0:0:0:
497,254,143091,2,0,P|490:293|469:327,1,80,2|0,0:2|0:0,0:0:0:0:
301,292,143399,1,4,0:0:0:0:
282,276,143476,1,0,0:0:0:0:
268,256,143553,1,0,0:0:0:0:
259,233,143630,1,0,0:0:0:0:
256,209,143707,1,2,0:2:0:0:
259,185,143784,1,0,0:0:0:0:
269,163,143861,2,0,L|314:146,1,40,0|0,0:0|0:0,0:0:0:0:
174,127,144015,6,0,P|136:120|98:94,1,80,4|0,0:0|0:0,0:0:0:0:
230,38,144322,2,0,P|235:60|236:82,1,40,2|0,0:2|0:0,0:0:0:0:
105,188,144476,2,0,P|99:208|98:231,1,40,0|0,0:0|0:0,0:0:0:0:
141,311,144630,6,0,L|167:306,6,20,6|0|2|0|6|0|2,0:0|0:0|0:0|0:0|0:0|0:0|0:0,0:0:0:0:
246,248,144938,6,0,L|269:254,2,20,2|0|0,0:2|0:0|0:0,0:0:0:0:
252,323,145091,2,0,L|273:329,2,20,0|0|0,0:0|0:0|0:0,0:0:0:0:
344,297,145245,1,4,0:0:0:0:
479,254,145399,1,4,0:0:0:0:
479,254,145476,1,0,0:0:0:0:
479,254,145553,1,2,0:2:0:0:
304,171,145707,2,0,L|296:131,1,40,4|4,0:0|0:0,0:0:0:0:
340,55,145861,2,0,P|378:75|420:78,1,80,4|4,0:0|0:0,0:0:0:0:
477,35,146091,1,0,0:0:0:0:
477,35,146168,1,2,0:2:0:0:
220,94,146322,1,4,0:0:0:0:
329,260,146476,6,0,L|319:304,3,40,4|0|0|0,0:0|0:0|0:0|0:0,0:0:0:0:
410,311,146784,2,0,L|401:354,3,40,2|0|0|0,0:2|0:0|0:0|0:0,0:0:0:0:
420,171,147091,2,0,L|427:131,1,40,4|0,0:0|0:0,0:0:0:0:
339,120,147245,2,0,L|346:81,1,40,4|0,0:0|0:0,0:0:0:0:
237,31,147399,1,2,0:2:0:0:
210,40,147476,1,2,0:0:0:0:
183,49,147553,1,2,0:0:0:0:
156,58,147630,1,2,0:0:0:0:
129,67,147707,5,4,0:0:0:0:
41,250,147861,1,2,0:2:0:0:
202,167,148015,1,8,0:2:0:0:
66,122,148168,1,2,0:2:0:0:
243,248,148322,2,0,B|240:289|240:289|223:327,1,80,4|10,0:0|0:2,0:0:0:0:
41,250,148630,1,4,0:0:0:0:
202,167,148784,1,10,0:2:0:0:
325,297,148938,6,0,L|368:290,1,40,4|0,0:0|0:0,0:0:0:0:
499,265,149091,1,2,0:2:0:0:
470,269,149168,1,0,0:0:0:0:
443,275,149245,1,8,0:2:0:0:
235,238,149399,1,2,0:2:0:0:
297,37,149553,1,4,0:0:0:0:
297,37,149630,1,0,0:0:0:0:
297,37,149707,1,2,0:2:0:0:
357,129,149861,2,0,L|401:124,1,40,8|0,0:2|0:0,0:0:0:0:
161,146,150015,1,2,0:2:0:0:
312,231,150168,6,0,L|300:312,1,80,4|2,0:0|0:2,0:0:0:0:
227,341,150399,1,0,0:0:0:0:
227,341,150476,1,8,0:2:0:0:
46,254,150630,1,2,0:2:0:0:
243,157,150784,2,0,B|230:195|230:195|201:226,1,80,4|10,0:0|0:2,0:0:0:0:
80,135,151091,2,0,L|71:94,1,40,4|0,0:0|0:0,0:0:0:0:
163,30,151245,1,10,0:2:0:0:
327,109,151399,5,4,0:0:0:0:
270,278,151553,1,2,0:2:0:0:
270,278,151630,1,4,0:0:0:0:
270,278,151707,2,0,P|234:299|197:306,1,80,8|2,0:2|0:2,0:0:0:0:
419,204,152015,2,0,P|461:209|501:226,1,80,8|0,0:2|0:0,0:0:0:0:
165,136,152322,2,0,P|136:108|119:70,1,80,8|2,0:2|0:2,0:0:0:0:
56,281,152630,5,4,0:0:0:0:
236,218,152784,1,2,0:2:0:0:
120,342,152938,1,8,0:2:0:0:
91,161,153091,1,2,0:2:0:0:
240,306,153245,2,0,B|279:317|279:317|320:314,1,80,4|10,0:0|0:2,0:0:0:0:
409,133,153553,1,4,0:0:0:0:
444,278,153707,1,10,0:2:0:0:
285,126,153861,6,0,L|292:79,1,40,4|0,0:0|0:0,0:0:0:0:
304,5,154015,2,0,L|298:44,1,40,2|0,0:2|0:0,0:0:0:0:
271,205,154168,1,8,0:2:0:0:
78,120,154322,1,2,0:2:0:0:
204,46,154476,1,4,0:0:0:0:
204,46,154553,1,4,0:0:0:0:
204,46,154630,1,10,0:2:0:0:
90,214,154784,2,0,L|96:259,1,40,4|4,0:0|0:0,0:0:0:0:
239,335,154938,2,0,L|244:295,1,40,10|0,0:2|0:0,0:0:0:0:
35,354,155091,5,4,0:0:0:0:
90,214,155245,2,0,L|96:259,1,40,2|0,0:2|0:0,0:0:0:0:
35,354,155399,1,8,0:2:0:0:
239,335,155553,2,0,L|244:295,1,40,2|0,0:2|0:0,0:0:0:0:
331,275,155707,2,0,L|326:315,1,40,4|0,0:0|0:0,0:0:0:0:
410,362,155861,1,10,0:2:0:0:
303,117,156015,1,4,0:0:0:0:
177,243,156168,1,14,0:2:0:0:
405,293,157553,5,4,0:0:0:0:
337,104,157707,1,2,0:2:0:0:
277,244,157861,1,8,0:2:0:0:
461,197,158015,1,2,0:2:0:0:
250,136,158168,2,0,B|209:141|209:141|172:158,1,80,4|10,0:0|0:2,0:0:0:0:
118,334,158476,1,4,0:0:0:0:
71,225,158630,1,10,0:2:0:0:
238,301,158784,5,4,0:0:0:0:
265,294,158861,1,0,0:0:0:0:
292,287,158938,1,2,0:2:0:0:
319,280,159015,1,0,0:0:0:0:
345,273,159091,1,8,0:2:0:0:
429,350,159245,1,2,0:2:0:0:
348,151,159399,2,0,B|354:111|354:111|374:77,1,80,4|10,0:0|0:2,0:0:0:0:
475,238,159707,2,0,L|432:231,1,40,4|0,0:0|0:0,0:0:0:0:
238,190,159861,2,0,L|289:200,1,40,10|0,0:2|0:0,0:0:0:0:
444,145,160015,5,4,0:0:0:0:
345,273,160168,1,2,0:2:0:0:
345,273,160245,1,0,0:0:0:0:
345,273,160322,1,8,0:2:0:0:
280,94,160476,1,2,0:2:0:0:
117,208,160630,2,0,B|77:204|77:204|42:185,1,80,4|10,0:0|0:2,0:0:0:0:
83,62,160938,1,4,0:0:0:0:
107,51,161015,1,0,0:0:0:0:
134,53,161091,1,10,0:2:0:0:
160,64,161168,1,0,0:0:0:0:
180,83,161245,6,0,L|137:104,1,40,4|0,0:0|0:0,0:0:0:0:
244,181,161399,2,0,L|195:190,1,40,2|0,0:2|0:0,0:0:0:0:
298,296,161553,2,0,L|217:286,1,80,8|2,0:2|0:2,0:0:0:0:
503,193,161861,1,4,0:0:0:0:
301,129,162015,1,10,0:2:0:0:
503,193,162168,1,4,0:0:0:0:
301,129,162322,1,10,0:2:0:0:
447,38,162476,6,0,B|478:64|478:64|492:100,1,80,4|2,0:0|0:2,0:0:0:0:
365,192,162784,1,8,0:2:0:0:
271,52,162938,1,2,0:2:0:0:
225,248,163091,2,0,P|186:264|148:270,1,80,4|10,0:0|0:2,0:0:0:0:
19,125,163399,2,0,P|57:141|96:147,1,80,4|10,0:0|0:2,0:0:0:0:
243,90,163707,5,4,0:0:0:0:
269,82,163784,1,0,0:0:0:0:
297,82,163861,1,2,0:2:0:0:
323,90,163938,1,0,0:0:0:0:
346,105,164015,1,8,0:2:0:0:
464,264,164168,1,2,0:2:0:0:
233,289,164322,2,0,L|328:307,1,80,4|10,0:0|0:2,0:0:0:0:
425,173,164630,2,0,L|383:180,1,40,4|0,0:0|0:0,0:0:0:0:
281,287,164784,2,0,L|320:295,1,40,10|0,0:2|0:0,0:0:0:0:
170,173,164938,6,0,B|152:137|152:137|147:98,1,80,4|2,0:0|0:2,0:0:0:0:
86,256,165168,1,0,0:0:0:0:
86,256,165245,2,0,B|81:295|81:295|63:331,1,80,8|2,0:2|0:2,0:0:0:0:
17,163,165553,1,4,0:0:0:0:
175,285,165707,1,10,0:2:0:0:
242,90,165861,1,4,0:0:0:0:
242,90,165938,1,0,0:0:0:0:
242,90,166015,1,10,0:2:0:0:
99,171,166168,6,0,L|109:126,1,40,4|0,0:0|0:0,0:0:0:0:
134,16,166322,2,0,L|124:64,1,40,2|0,0:2|0:0,0:0:0:0:
198,212,166475,1,8,0:2:0:0:
472,168,166629,1,2,0:2:0:0:
198,212,166784,6,0,P|240:223|325:171,1,120,4|0,0:2|0:0,0:0:0:0:
472,168,167091,2,0,P|430:157|345:209,1,120,2|0,0:0|0:0,0:0:0:0:
342,228,167399,6,0,L|327:145,1,80,4|2,0:2|0:2,0:0:0:0:
111,51,167707,1,8,0:2:0:0:
255,91,167861,1,2,0:2:0:0:
98,177,168015,2,0,P|102:220|119:258,1,80,4|10,0:0|0:2,0:0:0:0:
254,287,168322,1,4,0:0:0:0:
170,121,168476,1,10,0:2:0:0:
16,201,168630,5,4,0:0:0:0:
8,228,168707,1,0,0:0:0:0:
9,255,168784,1,2,0:2:0:0:
19,280,168861,1,0,0:0:0:0:
38,300,168938,1,8,0:2:0:0:
201,275,169091,1,2,0:2:0:0:
310,359,169245,2,0,P|330:324|337:284,1,80,4|10,0:0|0:2,0:0:0:0:
278,143,169553,2,0,L|238:133,1,40,4|0,0:0|0:0,0:0:0:0:
389,218,169707,2,0,L|429:206,1,40,10|0,0:2|0:0,0:0:0:0:
201,275,169861,5,4,0:0:0:0:
141,140,170015,1,2,0:2:0:0:
141,140,170091,1,0,0:0:0:0:
141,140,170168,2,0,P|102:129|61:130,1,80,8|2,0:2|0:2,0:0:0:0:
260,58,170476,2,0,P|227:33|189:18,1,80,4|10,0:0|0:2,0:0:0:0:
452,131,170784,2,0,P|449:110|441:91,1,40,4|0,0:0|0:0,0:0:0:0:
386,33,170938,1,10,0:2:0:0:
290,192,171091,6,0,L|286:236,3,40,4|0|2|0,0:0|0:0|0:2|0:0,0:0:0:0:
413,281,171399,2,0,L|419:325,3,40,8|0|2|0,0:2|0:0|0:2|0:0,0:0:0:0:
249,315,171707,2,0,L|210:322,1,40,4|0,0:0|0:0,0:0:0:0:
395,179,171861,2,0,L|435:185,1,40,10|0,0:2|0:0,0:0:0:0:
198,210,172015,2,0,L|108:196,1,80,4|10,0:0|0:2,0:0:0:0:
34,35,172322,5,4,0:0:0:0:
4,201,172476,1,2,0:2:0:0:
221,93,172630,1,8,0:2:0:0:
62,125,172784,1,2,0:2:0:0:
110,286,172938,2,0,L|126:199,1,80,4|10,0:0|0:2,0:0:0:0:
34,349,173245,1,4,0:0:0:0:
235,285,173399,1,10,0:2:0:0:
217,151,173553,6,0,L|208:195,1,40,4|0,0:0|0:0,0:0:0:0:
335,107,173707,2,0,L|327:150,1,40,2|0,0:2|0:0,0:0:0:0:
256,32,173861,1,8,0:2:0:0:
133,131,174015,1,2,0:2:0:0:
302,253,174168,2,0,P|342:250|382:234,1,80,4|10,0:0|0:2,0:0:0:0:
419,130,174476,1,4,0:0:0:0:
398,110,174553,1,0,0:0:0:0:
388,83,174630,1,10,0:2:0:0:
389,55,174707,1,0,0:0:0:0:
401,29,174784,5,4,0:0:0:0:
206,64,174938,2,0,L|250:74,1,40,2|0,0:2|0:0,0:0:0:0:
85,36,175091,1,8,0:2:0:0:
127,205,175245,1,2,0:2:0:0:
85,36,175399,6,0,L|37:25,1,40,6|2,0:0|0:0,0:0:0:0:
206,64,175553,1,2,0:2:0:0:
113,198,175707,2,0,P|108:245|36:303,1,120,6|0,0:0|0:0,0:0:0:0:
42,293,176015,6,0,P|72:282|111:282,1,60,4|0,0:0|0:0,0:0:0:0:
122,306,176322,2,0,P|160:326|207:327,1,83.9999974365235,8|2,0:2|0:0,0:0:0:0:
239,294,176630,2,0,P|276:272|352:267,1,120,2|2,0:0|0:0,0:0:0:0:
408,319,176938,2,0,P|456:336|427:252,1,192,2|6,0:0|0:0,0:0:0:0:
379,190,177245,6,0,P|382:143|402:96,1,80,6|0,0:0|0:0,0:0:0:0:
449,61,177476,1,0,0:0:0:0:
449,61,177553,2,0,L|492:55,1,40,8|0,0:2|0:0,0:0:0:0:
324,13,177707,1,4,0:0:0:0:
255,186,177861,1,4,0:0:0:0:
212,57,178015,1,0,0:0:0:0:
212,57,178091,1,0,0:0:0:0:
212,57,178168,2,0,L|168:50,1,40,4|0,0:0|0:0,0:0:0:0:
45,135,178322,1,0,0:0:0:0:
50,165,178399,1,0,0:0:0:0:
56,197,178476,6,0,L|62:245,1,40,4|0,0:0|0:0,0:0:0:0:
146,315,178630,1,0,0:0:0:0:
172,297,178707,1,0,0:0:0:0:
201,287,178784,2,0,P|223:283|242:284,1,40,8|0,0:0|0:0,0:0:0:0:
330,208,178938,1,4,0:0:0:0:
353,230,179015,1,0,0:0:0:0:
380,245,179092,2,0,P|399:252|420:254,1,40,8|0,0:0|0:0,0:0:0:0:
433,124,179245,2,0,B|453:121|472:114|496:85,1,40,8|0,0:0|0:0,0:0:0:0:
327,52,179399,1,0,0:0:0:0:
306,76,179476,1,0,0:0:0:0:
278,92,179553,1,0,0:0:0:0:
246,98,179630,1,0,0:0:0:0:
215,89,179707,6,0,P|194:79|179:61,1,40,12|0,0:0|0:0,0:0:0:0:
51,15,179861,1,0,0:0:0:0:
56,46,179938,1,4,0:0:0:0:
62,77,180015,2,0,L|68:116,1,40,8|0,0:2|0:0,0:0:0:0:
153,185,180168,2,0,L|147:230,1,40,4|0,0:0|0:0,0:0:0:0:
120,332,180322,1,4,0:0:0:0:
151,325,180399,1,0,0:0:0:0:
182,318,180476,1,4,0:0:0:0:
213,312,180553,1,4,0:0:0:0:
244,306,180630,2,0,L|290:296,1,40,8|0,0:2|0:0,0:0:0:0:
422,270,180784,2,0,L|382:278,1,40,2|2,0:0|0:0,0:0:0:0:
153,185,180938,5,4,0:2:0:0:
158,196,181553,1,4,0:2:0:0:
163,205,182168,5,4,0:2:0:0:
152,170,182245,1,0,0:0:0:0:
154,134,182322,1,4,0:0:0:0:
170,101,182399,1,4,0:0:0:0:
199,79,182476,2,0,L|242:71,1,40,8|0,0:2|0:0,0:0:0:0:
364,186,182630,2,0,L|316:180,1,40,4|0,0:0|0:0,0:0:0:0:
267,308,182784,1,4,0:0:0:0:
239,332,182861,1,4,0:0:0:0:
206,346,182938,1,8,0:2:0:0:
170,347,183015,1,0,0:0:0:0:
136,333,183091,2,0,L|126:295,1,40,2|2,0:0|0:0,0:0:0:0:
54,237,183245,2,0,L|58:207,2,20,2|0|2,0:0|0:0|0:0,0:0:0:0:
34,138,183399,5,4,0:0:0:0:
53,168,183476,1,0,0:0:0:0:
85,183,183553,1,4,0:0:0:0:
120,189,183630,1,0,0:0:0:0:
155,182,183707,2,0,L|163:141,1,40,8|4,0:2|0:0,0:0:0:0:
280,146,183861,2,0,L|288:105,1,40,4|4,0:0|0:0,0:0:0:0:
417,98,184015,1,0,0:0:0:0:
423,132,184091,1,0,0:0:0:0:
429,167,184168,2,0,L|436:212,1,40,0|0,0:0|0:0,0:0:0:0:
307,339,184322,1,8,0:2:0:0:
313,304,184398,1,8,0:2:0:0:
319,269,184476,2,0,L|325:229,1,40,8|0,0:2|0:0,0:0:0:0:
436,310,184630,5,6,0:0:0:0:
211,347,184784,6,0,L|220:302,1,40,0|0,0:0|0:0,0:0:0:0:
244,179,184938,1,6,0:0:0:0:
105,363,185091,2,0,L|116:314,1,40,0|0,0:0|0:0,0:0:0:0:
155,132,185245,1,6,0:0:0:0:
0,193,185399,6,0,L|41:188,1,40,6|0,0:0|0:0,0:0:0:0:
169,250,185553,2,0,L|208:255,1,40,6|0,0:0|0:0,0:0:0:0:
349,223,185707,2,0,L|394:218,1,40,6|0,0:0|0:0,0:0:0:0:
469,158,185861,5,0,1:2:0:0:
456,141,185938,1,0,1:0:0:0:
440,128,186015,1,0,1:0:0:0:
422,119,186091,1,0,1:0:0:0:
401,114,186168,1,0,0:0:0:0:
381,114,186245,1,0,0:0:0:0:
361,117,186322,1,0,0:0:0:0:
343,125,186399,1,0,0:0:0:0:
322,129,186476,1,0,0:0:0:0:
302,128,186553,1,0,0:0:0:0:
282,124,186630,1,0,0:0:0:0:
264,116,186707,1,0,0:0:0:0:
247,104,186784,1,0,0:0:0:0:
234,88,186861,1,0,0:0:0:0:
227,70,186938,1,0,0:0:0:0:
225,52,187015,1,0,0:0:0:0:
228,35,187091,1,4,0:2:0:0:
293,97,196322,6,0,L|287:60,1,35.9999989013672,6|0,0:0|0:0,0:0:0:0:
273,47,196630,1,0,0:0:0:0:
112,189,196938,6,0,L|103:269,1,80,4|2,0:0|0:2,0:0:0:0:
217,335,197168,1,0,0:0:0:0:
217,335,197245,2,0,L|208:255,1,80,8|2,0:2|0:2,0:0:0:0:
320,209,197476,1,0,0:0:0:0:
320,209,197553,2,0,P|360:232|398:237,1,80,4|10,0:0|0:2,0:0:0:0:
486,156,197784,1,0,0:0:0:0:
486,156,197861,2,0,P|482:132|475:113,1,40,4|0,0:0|0:0,0:0:0:0:
344,55,198015,2,0,P|323:62|304:63,1,40,10|0,0:2|0:0,0:0:0:0:
183,24,198168,5,4,0:0:0:0:
202,44,198245,1,0,0:0:0:0:
213,69,198322,1,2,0:2:0:0:
217,96,198399,1,0,0:0:0:0:
212,123,198476,2,0,L|173:136,1,40,8|0,0:2|0:0,0:0:0:0:
71,72,198630,2,0,L|32:85,1,40,2|0,0:2|0:0,0:0:0:0:
4,203,198784,1,4,0:0:0:0:
20,225,198860,1,0,0:0:0:0:
42,240,198937,1,2,0:2:0:0:
68,249,199014,1,0,0:0:0:0:
96,249,199091,2,0,B|132:234|132:234|174:238,1,80,8|2,0:2|0:2,0:0:0:0:
224,291,199322,1,0,0:0:0:0:
199,360,199399,6,0,L|159:351,1,40,4|0,0:0|0:0,0:0:0:0:
332,272,199553,1,2,0:2:0:0:
493,334,199707,2,0,L|503:376,1,40,8|0,0:2|0:0,0:0:0:0:
436,212,199861,2,0,L|426:250,1,40,2|0,0:2|0:0,0:0:0:0:
511,103,200015,2,0,P|476:120|436:125,1,80,4|10,0:0|0:2,0:0:0:0:
332,272,200245,1,0,0:0:0:0:
332,272,200322,2,0,P|333:232|349:195,1,80,4|10,0:0|0:2,0:0:0:0:
279,35,200553,1,0,0:0:0:0:
279,35,200630,6,0,P|314:57|337:90,1,80,4|2,0:0|0:2,0:0:0:0:
240,210,200938,1,8,0:2:0:0:
212,205,201015,1,0,0:0:0:0:
184,200,201091,2,0,L|137:191,1,40,2|0,0:2|0:0,0:0:0:0:
6,165,201245,1,4,0:0:0:0:
34,170,201322,1,0,0:0:0:0:
62,175,201399,2,0,L|109:184,1,40,2|0,0:2|0:0,0:0:0:0:
178,125,201553,2,0,P|205:84|199:16,1,120,8|0,0:2|0:0,0:0:0:0:
125,18,201861,6,0,P|107:55|114:99,1,80,4|2,0:0|0:2,0:0:0:0:
147,264,202168,2,0,P|149:303|131:338,1,80,8|2,0:2|0:2,0:0:0:0:
52,352,202399,1,0,0:0:0:0:
52,352,202476,2,0,L|6:339,1,40,4|0,0:0|0:0,0:0:0:0:
229,251,202630,2,0,L|270:243,1,40,10|0,0:2|0:0,0:0:0:0:
356,342,202784,2,0,L|371:263,2,80,4|0|4,0:0|0:0|0:0,0:0:0:0:
348,348,203245,1,2,0:2:0:0:
340,354,203399,5,8,0:2:0:0:
312,348,203476,1,0,0:0:0:0:
284,342,203553,1,2,0:2:0:0:
256,337,203630,1,0,0:0:0:0:
228,330,203707,2,0,L|181:319,1,40,4|0,0:0|0:0,0:0:0:0:
91,154,203861,1,2,0:2:0:0:
96,182,203938,1,0,0:0:0:0:
103,210,204015,2,0,L|113:257,1,40,8|0,0:2|0:0,0:0:0:0:
233,113,204168,1,2,0:2:0:0:
228,141,204245,1,0,0:0:0:0:
222,169,204322,1,4,0:0:0:0:
227,177,204476,6,0,L|268:169,1,40,2|0,0:2|0:0,0:0:0:0:
455,126,204630,1,8,0:2:0:0:
446,130,204784,6,0,L|438:175,1,40,2|0,0:2|0:0,0:0:0:0:
372,302,204938,2,0,L|364:262,1,40,4|0,0:0|0:0,0:0:0:0:
329,66,205091,2,0,L|321:111,1,40,10|0,0:2|0:0,0:0:0:0:
251,268,205245,1,4,0:0:0:0:
223,274,205322,1,0,0:0:0:0:
194,272,205399,1,10,0:2:0:0:
166,261,205476,1,0,0:0:0:0:
145,243,205553,6,0,L|137:285,4,26.6666666666667,4|0|0|2|0,0:0|0:0|0:0|0:2|0:0,0:0:0:0:
362,296,205861,2,0,L|370:338,4,26.6666666666667,0|0|0|2|0,0:0|0:0|0:0|0:2|0:0,0:0:0:0:
412,192,206168,6,0,P|432:200|454:203,1,40,4|0,0:0|0:0,0:0:0:0:
330,84,206322,2,0,P|346:70|360:53,1,40,2|0,0:2|0:0,0:0:0:0:
213,201,206476,2,0,P|226:186|242:174,1,40,2|0,0:2|0:0,0:0:0:0:
121,55,206630,2,0,P|141:58|160:66,1,40,2|0,0:2|0:0,0:0:0:0:
78,182,206784,6,0,P|55:210|41:250,1,80,4|2,0:0|0:2,0:0:0:0:
169,338,207091,1,8,0:2:0:0:
196,330,207168,1,0,0:0:0:0:
223,323,207245,1,2,0:2:0:0:
250,316,207322,1,0,0:0:0:0:
277,309,207399,2,0,P|299:311|321:318,1,40,4|0,0:0|0:0,0:0:0:0:
323,215,207553,2,0,P|344:211|367:212,1,40,10|0,0:2|0:2,0:0:0:0:
298,115,207707,2,0,P|329:90|368:78,1,80,4|10,0:0|0:2,0:0:0:0:
215,82,207938,1,0,0:0:0:0:
215,82,208015,6,0,L|201:32,1,40,4|0,0:0|0:0,0:0:0:0:
142,184,208168,2,0,L|131:222,1,40,2|0,0:2|0:0,0:0:0:0:
56,31,208322,1,8,0:2:0:0:
0,244,208476,2,0,L|11:291,1,40,2|0,0:2|0:0,0:0:0:0:
27,144,208630,2,0,P|63:125|104:117,1,80,4|2,0:0|0:2,0:0:0:0:
241,155,208861,1,0,0:0:0:0:
241,155,208938,2,0,L|282:163,1,40,8|2,0:2|0:0,0:0:0:0:
365,126,209091,2,0,L|385:118,2,20,2|2|2,0:2|0:0|0:0,0:0:0:0:
418,224,209245,5,4,0:0:0:0:
217,283,209399,2,0,L|257:272,1,40,2|0,0:2|0:0,0:0:0:0:
418,224,209553,2,0,B|406:262|406:262|410:302,1,80,8|2,0:2|0:2,0:0:0:0:
483,336,209784,1,0,0:0:0:0:
483,336,209861,2,0,L|526:325,1,40,4|0,0:0|0:0,0:0:0:0:
484,139,210015,1,10,0:2:0:0:
461,123,210091,1,0,0:0:0:0:
433,115,210168,1,4,0:0:0:0:
405,116,210245,1,0,0:0:0:0:
378,124,210322,2,0,P|359:135|347:151,1,40,10|0,0:2|0:0,0:0:0:0:
331,348,210476,6,0,L|325:307,1,40,4|0,0:0|0:0,0:0:0:0:
220,159,210630,1,2,0:2:0:0:
231,120,210707,1,0,0:0:0:0:
242,81,210784,1,8,0:2:0:0:
258,75,210938,2,0,L|243:131,1,40,2|0,0:2|0:0,0:0:0:0:
203,273,211091,2,0,L|226:186,1,80,6|10,0:0|0:2,0:0:0:0:
166,74,211322,1,0,0:0:0:0:
96,95,211399,2,0,L|75:172,1,80,4|10,0:0|0:2,0:0:0:0:
331,276,211707,6,0,P|374:268|406:251,1,80,4|2,0:0|0:2,0:0:0:0:
449,73,212015,1,8,0:2:0:0:
422,80,212091,1,0,0:0:0:0:
394,81,212168,1,2,0:2:0:0:
367,73,212245,1,0,0:0:0:0:
345,55,212322,2,0,P|332:37|328:17,1,40,4|0,0:0|0:0,0:0:0:0:
236,92,212476,1,10,0:2:0:0:
242,119,212553,1,0,0:0:0:0:
248,146,212630,1,4,0:0:0:0:
98,281,212784,2,0,L|140:290,1,40,10|0,0:2|0:0,0:0:0:0:
230,354,212938,5,4,0:0:0:0:
245,330,213015,1,0,0:0:0:0:
267,314,213091,1,2,0:2:0:0:
294,309,213168,1,0,0:0:0:0:
321,313,213245,2,0,P|327:276|348:334,1,180.000006866455,8|0,0:2|0:0,0:0:0:0:
373,270,213553,2,0,P|343:246|404:257,1,180.000006866455,4|0,0:0|0:0,0:0:0:0:
362,203,213861,1,8,0:2:0:0:
354,175,213938,1,0,0:0:0:0:
357,147,214015,1,2,0:2:0:0:
369,122,214091,1,0,0:0:0:0:
390,103,214168,6,0,L|432:95,1,40,4|0,0:0|0:0,0:0:0:0:
231,29,214322,2,0,L|270:36,1,40,2|0,0:2|0:0,0:0:0:0:
124,152,214476,2,0,L|202:138,1,80,8|2,0:2|0:2,0:0:0:0:
485,267,214784,2,0,L|407:253,1,80,4|10,0:0|0:2,0:0:0:0:
204,314,215091,1,4,0:0:0:0:
184,293,215168,1,0,0:0:0:0:
197,268,215245,1,10,0:2:0:0:
225,273,215322,1,0,0:0:0:0:
228,301,215399,6,0,P|257:320|303:326,1,80,4|0,0:2|0:0,0:0:0:0:
421,93,215707,2,0,P|381:101|347:122,1,80,0|0,0:0|0:0,0:0:0:0:
333,140,215938,1,0,0:0:0:0:
321,161,216015,1,0,0:0:0:0:
230,200,216168,1,0,0:0:0:0:
157,135,216322,1,2,0:0:0:0:
161,111,216399,1,2,0:0:0:0:
165,87,216476,1,2,0:0:0:0:
169,63,216553,1,2,0:0:0:0:
173,39,216630,6,0,P|118:64|50:53,1,120,4|0,0:0|0:0,0:0:0:0:
35,42,216938,2,0,L|53:122,1,80,8|0,0:2|0:0,0:0:0:0:
124,295,217245,2,0,L|140:211,1,80,4|8,0:0|0:2,0:0:0:0:
10,331,217553,1,0,0:0:0:0:
10,331,217630,1,0,0:0:0:0:
10,331,217707,1,4,0:0:0:0:
219,275,217861,6,0,P|256:296|294:304,1,80,4|4,0:0|0:0,0:0:0:0:
422,245,218168,1,8,0:2:0:0:
345,163,218322,2,0,L|338:119,1,40,4|0,0:0|0:0,0:0:0:0:
422,245,218476,1,4,0:0:0:0:
417,272,218553,1,4,0:0:0:0:
412,299,218630,1,8,0:2:0:0:
432,144,218784,2,0,P|471:156|500:183,1,80,0|0,0:0|0:0,0:0:0:0:
288,237,219091,5,4,0:0:0:0:
288,237,219245,1,0,0:0:0:0:
334,35,219399,1,8,0:2:0:0:
242,143,219553,2,0,L|157:128,1,80,0|4,0:0|0:0,0:0:0:0:
3,232,219861,1,8,0:2:0:0:
33,58,220015,2,0,L|78:51,1,40,4|4,0:0|0:0,0:0:0:0:
170,33,220168,1,4,0:0:0:0:
339,129,220322,6,0,P|335:171|319:205,1,80,0|4,0:0|0:0,0:0:0:0:
237,232,220553,1,4,0:0:0:0:
237,232,220630,1,8,0:2:0:0:
381,333,220784,2,0,L|428:324,1,40,0|0,0:0|0:0,0:0:0:0:
475,259,220938,1,4,0:0:0:0:
475,259,221015,1,0,0:0:0:0:
475,259,221091,1,8,0:2:0:0:
424,77,221245,6,0,L|415:118,1,40,2|0,0:0|0:0,0:0:0:0:
176,35,221399,2,0,L|182:79,1,40,2|0,0:0|0:0,0:0:0:0:
93,219,221553,6,0,P|130:204|172:196,1,80,4|0,0:0|0:0,0:0:0:0:
327,311,221861,1,8,0:2:0:0:
215,355,222015,2,0,L|176:348,1,40,0|0,0:0|0:0,0:0:0:0:
327,311,222168,2,0,L|369:304,1,40,4|0,0:0|0:0,0:0:0:0:
478,368,222322,1,8,0:2:0:0:
389,185,222476,2,0,L|393:161,2,20
490,165,222630,1,8,0:2:0:0:
300,126,222784,6,0,P|286:86|285:43,1,80,4|0,0:0|0:0,0:0:0:0:
439,4,223091,1,8,0:2:0:0:
305,216,223245,1,0,0:0:0:0:
203,110,223399,2,0,L|210:156,1,40,4|0,0:0|0:0,0:0:0:0:
189,101,223553,2,0,L|196:147,1,40,4|0,0:0|0:0,0:0:0:0:
111,216,223707,2,0,L|104:262,1,40,8|0,0:2|0:0,0:0:0:0:
125,207,223861,2,0,L|118:253,1,40,2|0,0:0|0:0,0:0:0:0:
95,370,224015,6,0,L|113:281,1,80,4|0,0:0|0:0,0:0:0:0:
39,155,224322,1,8,0:2:0:0:
210,236,224476,1,0,0:0:0:0:
143,54,224630,2,0,P|126:91|121:131,1,80,4|8,0:0|0:0,0:0:0:0:
301,199,224938,1,0,0:0:0:0:
328,191,225015,1,0,0:0:0:0:
354,184,225091,6,0,P|337:115|322:177,1,180.000006866455,4|0,0:2|0:0,0:0:0:0:
355,115,225399,2,0,P|372:46|387:108,1,180.000006866455,4|0,0:2|0:0,0:0:0:0:
353,48,225707,1,4,0:0:0:0:
160,78,225861,2,0,L|241:95,1,80,4|4,0:0|0:0,0:0:0:0:
46,163,226168,6,0,L|101:159,1,51.999997619629,2|2,0:0|0:0,0:0:0:0:
33,178,226476,6,0,L|131:170,1,80,4|0,0:2|0:0,0:0:0:0:
281,234,226784,1,8,0:2:0:0:
116,292,226938,1,4,0:0:0:0:
198,145,227091,2,0,L|190:101,1,40,4|0,0:0|0:0,0:0:0:0:
281,234,227245,1,8,0:2:0:0:
345,84,227399,1,0,0:0:0:0:
372,79,227476,1,0,0:0:0:0:
399,82,227553,1,4,0:0:0:0:
422,96,227630,1,0,0:0:0:0:
438,118,227707,6,0,L|450:198,1,80,4|4,0:0|0:0,0:0:0:0:
324,321,228015,1,8,0:2:0:0:
471,288,228168,2,0,L|512:295,1,40,4|0,0:0|0:0,0:0:0:0:
351,164,228322,2,0,L|311:171,1,40,4|4,0:0|0:0,0:0:0:0:
233,284,228476,1,8,0:2:0:0:
203,97,228630,2,0,P|239:78|280:74,1,80,2|2,0:0|0:0,0:0:0:0:
127,203,228938,5,4,0:2:0:0:
127,203,229091,1,0,0:0:0:0:
51,53,229245,1,8,0:2:0:0:
127,203,229399,2,0,L|117:286,1,80,4|4,0:0|0:0,0:0:0:0:
2,343,229707,1,8,0:2:0:0:
194,379,229861,2,0,L|240:369,1,40,4|4,0:0|0:0,0:0:0:0:
270,264,230015,1,4,0:0:0:0:
430,360,230168,6,0,P|409:325|398:284,1,80,0|4,0:0|0:0,0:0:0:0:
396,259,230399,1,4,0:0:0:0:
398,231,230476,1,8,0:2:0:0:
500,114,230630,1,2,0:0:0:0:
339,64,230784,6,0,P|303:76|248:78,1,90.0000034332277,6|0,0:0|0:0,0:0:0:0:
258,117,231091,6,0,P|223:79|115:69,1,155.999992858887,0|0,0:0|0:0,0:0:0:0:
2,148,231399,6,0,P|44:148|83:136,1,80,4|0,0:0|0:0,0:0:0:0:
213,261,231707,2,0,P|178:241|139:231,1,80,8|0,0:2|0:0,0:0:0:0:
23,306,232015,1,4,0:0:0:0:
183,156,232168,1,4,0:0:0:0:
316,246,232322,2,0,B|323:267|323:267|322:290,1,40,2|0,0:0|0:0,0:0:0:0:
300,138,232476,2,0,B|292:119|292:119|294:98,1,40,2|0,3:0|0:0,0:0:0:0:
448,215,232630,6,0,L|435:299,1,80,4|4,0:0|0:0,0:0:0:0:
391,120,232938,1,8,0:2:0:0:
505,38,233091,1,0,0:0:0:0:
290,8,233245,2,0,L|341:16,1,40,4|4,0:0|0:0,0:0:0:0:
205,89,233399,1,0,1:0:0:0:
219,117,233476,1,0,1:0:0:0:
220,148,233553,1,0,1:0:0:0:
208,177,233630,1,0,1:0:0:0:
183,198,233707,1,0,1:0:0:0:
14,68,233861,6,0,P|31:102|37:146,1,80,4|0,0:0|0:0,0:0:0:0:
2,314,234168,2,0,P|33:286|69:270,1,80,8|6,0:2|0:0,0:0:0:0:
204,314,234476,1,6,0:0:0:0:
388,232,234630,1,8,0:2:0:0:
343,347,234784,1,4,0:0:0:0:
296,114,234938,1,4,0:2:0:0:
83,205,236322,6,0,P|126:220|172:221,1,90.0000034332277,4|0,0:0|0:0,0:0:0:0:
188,210,236630,1,2,0:2:0:0:
241,61,236938,1,4,0:0:0:0:
307,153,237091,1,4,0:0:0:0:
400,93,237245,2,0,P|434:97|465:105,1,60.0000022888184,2|0,0:2|0:0,0:0:0:0:
494,191,237553,2,0,P|464:194|435:201,1,60.0000022888184,4|0,0:0|0:0,0:0:0:0:
360,273,237861,1,2,0:2:0:0:
105,291,238168,1,4,0:0:0:0:
267,321,238322,1,4,0:0:0:0:
216,231,238476,6,0,P|220:193|238:143,1,90.0000034332277,2|0,0:2|0:0,0:0:0:0:
255,135,238784,1,4,0:0:0:0:
377,226,239091,6,0,P|379:258|390:290,1,60.0000022888184,2|0,0:2|0:0,0:0:0:0:
485,325,239399,1,4,0:0:0:0:
512,160,239553,1,4,0:0:0:0:
395,106,239707,2,0,P|363:110|333:122,1,60.0000022888184,2|0,0:2|0:0,0:0:0:0:
240,202,240015,2,0,P|211:203|180:197,1,60.0000022888184,4|0,0:0|0:0,0:0:0:0:
87,145,240322,1,2,0:2:0:0:
126,337,240630,1,4,0:0:0:0:
271,376,240784,1,4,0:0:0:0:
368,295,240938,6,0,P|331:275|279:270,1,90.0000034332277,2|0,0:2|0:0,0:0:0:0:
266,282,241245,1,4,0:0:0:0:
77,264,241553,2,0,P|64:238|55:206,1,60.0000022888184,2|0,0:2|0:0,0:0:0:0:
122,129,241861,1,4,0:0:0:0:
64,44,242015,1,4,0:0:0:0:
166,16,242168,2,0,P|196:30|228:37,1,60.0000022888184,2|0,0:2|3:0,0:0:0:0:
302,121,242476,2,0,P|271:121|240:128,1,60.0000022888184,4|0,0:0|0:0,0:0:0:0:
178,208,242784,1,2,0:2:0:0:
421,150,243091,1,4,0:0:0:0:
371,281,243245,1,4,0:0:0:0:
421,150,243399,6,0,P|417:107|397:62,1,90.0000034332277,2|0,0:2|0:0,0:0:0:0:
376,53,243707,1,4,0:0:0:0:
191,115,244015,1,2,0:2:0:0:
191,115,244322,1,4,0:0:0:0:
224,244,244476,1,4,0:0:0:0:
66,214,244630,2,0,P|99:203|126:201,1,60.0000022888184,2|0,0:2|0:0,0:0:0:0:
224,244,244938,2,0,P|255:257|284:262,1,60.0000022888184,4|0,0:0|0:0,0:0:0:0:
360,206,245245,1,2,0:2:0:0:
512,294,245553,1,4,0:0:0:0:
512,294,245707,1,4,0:0:0:0:
466,94,245861,2,0,P|422:79|368:78,1,90.0000034332277,2|0,0:2|0:0,0:0:0:0:
305,107,246168,6,0,L|292:200,1,88.000002685547,4|2,0:0|0:2,0:0:0:0:
154,34,246399,1,0,0:0:0:0:
154,34,246476,2,0,L|142:122,1,88.000002685547,8|2,0:2|0:2,0:0:0:0:
22,203,246707,1,0,0:0:0:0:
22,203,246784,2,0,L|10:291,1,88.000002685547,4|10,0:0|0:2,0:0:0:0:
165,355,247015,1,0,0:0:0:0:
165,355,247091,2,0,L|172:299,1,44.0000013427735,4|0,0:0|0:0,0:0:0:0:
107,236,247245,2,0,L|114:180,1,44.0000013427735,10|0,0:2|0:0,0:0:0:0:
262,275,247399,6,0,P|299:299|341:308,1,88.000002685547,4|2,0:0|0:2,0:0:0:0:
466,161,247707,1,8,0:2:0:0:
496,353,247861,1,2,0:2:0:0:
361,170,248015,2,0,L|375:78,1,88.000002685547,4|2,0:0|0:2,0:0:0:0:
427,31,248245,1,0,0:0:0:0:
499,44,248322,2,0,L|511:90,1,44.0000013427735,8|0,0:2|0:0,0:0:0:0:
418,276,248476,2,0,L|425:232,1,44.0000013427735,2|0,0:2|0:0,0:0:0:0:
272,103,248630,6,0,L|283:190,1,88.000002685547,4|2,0:0|0:2,0:0:0:0:
178,333,248938,1,8,0:2:0:0:
149,346,249015,1,0,0:0:0:0:
118,347,249091,1,2,0:2:0:0:
89,335,249168,1,0,0:0:0:0:
69,311,249245,2,0,L|63:262,1,44.0000013427735,4|0,0:0|0:0,0:0:0:0:
190,179,249399,2,0,L|184:222,1,44.0000013427735,10|0,0:2|0:0,0:0:0:0:
73,76,249553,1,4,0:0:0:0:
43,85,249630,1,0,0:0:0:0:
13,95,249707,1,10,0:2:0:0:
203,12,249861,6,0,P|242:32|287:39,1,88.000002685547,4|2,0:0|0:2,0:0:0:0:
315,32,250091,1,0,0:0:0:0:
345,30,250168,1,8,0:2:0:0:
375,36,250245,1,0,0:0:0:0:
402,50,250322,1,2,0:2:0:0:
421,74,250399,1,0,0:0:0:0:
431,103,250476,2,0,P|422:134|401:73,1,180.000006866455,4|0,0:0|0:0,0:0:0:0:
434,134,250784,2,0,B|427:169|427:169|407:196|407:196|375:210|375:210|337:206|337:206|305:186,1,180.000006866455,8|0,0:2|0:0,0:0:0:0:
260,99,251091,6,0,L|271:189,1,88.000002685547,4|2,0:2|0:2,0:0:0:0:
99,260,251399,1,8,0:2:0:0:
304,338,251553,1,2,0:2:0:0:
157,160,251707,2,0,L|110:169,1,44.0000013427735,4|0,0:0|0:0,0:0:0:0:
47,350,251861,2,0,L|94:359,1,44.0000013427735,10|0,0:2|0:0,0:0:0:0:
281,264,252015,1,4,0:0:0:0:
253,278,252091,1,0,0:0:0:0:
221,276,252168,1,10,0:2:0:0:
194,260,252245,1,0,0:0:0:0:
178,233,252322,6,0,L|188:184,1,44.0000013427735,4|0,0:0|0:0,0:0:0:0:
217,46,252476,1,2,0:2:0:0:
67,116,252630,2,0,L|43:28,1,88.000002685547,8|2,0:2|0:2,0:0:0:0:
260,137,252938,2,0,L|237:52,1,88.000002685547,4|2,0:0|0:2,0:0:0:0:
445,217,253245,2,0,B|430:215|424:198|438:181|462:182|486:202|487:239|476:264|459:276,1,132.00000402832,8|0,0:2|0:0,0:0:0:0:
398,321,253553,6,0,L|302:299,1,88.000002685547,4|2,0:2|0:2,0:0:0:0:
285,223,253784,1,0,0:0:0:0:
285,223,253861,2,0,L|333:212,1,44.0000013427735,8|0,0:2|0:0,0:0:0:0:
202,351,254015,2,0,L|153:341,1,44.0000013427735,2|0,0:2|0:0,0:0:0:0:
126,244,254168,1,4,0:0:0:0:
137,214,254245,1,0,0:0:0:0:
133,183,254322,1,10,0:2:0:0:
119,154,254399,1,0,0:0:0:0:
94,136,254476,2,0,L|45:143,1,44.0000013427735,4|0,0:0|0:0,0:0:0:0:
238,32,254630,1,10,0:2:0:0:
238,32,254707,1,0,0:0:0:0:
238,32,254784,6,0,P|241:80|345:110,1,167.999994873047,4|0,0:2|0:0,0:0:0:0:
379,42,255091,2,0,L|388:104,1,55.9999982910157,8|0,0:2|0:0,0:0:0:0:
310,258,255245,2,0,L|317:201,1,55.9999982910157,2|0,0:2|0:0,0:0:0:0:
491,158,255399,1,4,0:2:0:0:
424,354,255553,1,2,0:2:0:0:
414,315,255630,1,0,0:0:0:0:
405,276,255707,1,8,0:2:0:0:
220,330,255861,1,0,0:0:0:0:
261,106,256015,1,4,0:1:0:0:
256,192,256091,12,2,261284,2:0:0:0:
