osu file format v14

[General]
AudioFilename: audio.mp3
AudioLeadIn: 0
PreviewTime: 187101
Countdown: 0
SampleSet: None
StackLeniency: 0.4
Mode: 0
LetterboxInBreaks: 0
WidescreenStoryboard: 0

[Editor]
DistanceSpacing: 0.8
BeatDivisor: 4
GridSize: 4
TimelineZoom: 3.199999

[Metadata]
Title:Goodbye
TitleUnicode:Goodbye
Artist:DJKurara
ArtistUnicode:DJKurara
Creator:EijiKuinbii
Version:SEVEN COLORS
Source:
Tags:semaphore fser grumd nattu SpecialThanks 「You say GOOD BYE」 amenpunk russian hardbass donk rock remix mashcore breakcore electronic dance edm jungle
BeatmapID:1811477
BeatmapSetID:866436

[Difficulty]
HPDrainRate:6
CircleSize:4
OverallDifficulty:9.2
ApproachRate:9.6
SliderMultiplier:2.2
SliderTickRate:1

[Events]
//Background and Video events
0,0,"BG.jpg",0,0
//Break Periods
//Storyboard Layer 0 (Background)
//Storyboard Layer 1 (Fail)
//Storyboard Layer 2 (Pass)
//Storyboard Layer 3 (Foreground)
//Storyboard Sound Samples

[TimingPoints]
15,307.692307692308,4,3,2,15,1,0
15,-100,4,3,2,15,0,0
2476,-100,4,3,2,30,0,0
4938,-100,4,3,2,45,0,0
7399,-100,4,3,2,50,0,0
8630,-100,4,3,2,60,0,0
9553,-200,4,3,2,45,0,0
9591,-200,4,3,2,5,0,0
9630,-200,4,3,2,45,0,0
9668,-200,4,3,2,5,0,0
9707,-200,4,3,2,45,0,0
9745,-200,4,3,2,5,0,0
9784,-200,4,3,2,45,0,0
9822,-83.3333333333333,4,3,2,5,0,0
9861,-83.3333333333333,4,3,2,45,0,0
12015,-133.333333333333,4,3,2,45,0,0
12322,-83.3333333333333,4,3,2,45,0,0
14515,-71.4285714285714,4,3,2,5,0,0
14553,-71.4285714285714,4,3,2,45,0,0
14591,-58.8235294117647,4,3,2,5,0,0
14630,-58.8235294117647,4,3,2,45,0,0
14668,-50,4,3,2,5,0,0
14707,-50,4,3,2,45,0,0
14745,-133.333333333333,4,3,2,5,0,0
14784,-133.333333333333,4,3,2,45,0,0
16015,-83.3333333333333,4,3,2,45,0,0
16168,-133.333333333333,4,3,2,45,0,0
16322,-83.3333333333333,4,3,2,45,0,0
16668,-83.3333333333333,4,3,2,5,0,0
16707,-83.3333333333333,4,3,2,45,0,0
16745,-83.3333333333333,4,3,2,5,0,0
16784,-83.3333333333333,4,3,2,45,0,0
16822,-83.3333333333333,4,3,2,5,0,0
16861,-83.3333333333333,4,3,2,45,0,0
16899,-52.6315789473684,4,3,2,5,0,0
16938,-52.6315789473684,4,3,2,45,0,0
17091,-133.333333333333,4,3,2,45,0,0
17861,-83.3333333333333,4,3,2,45,0,0
19707,-66.6666666666667,4,3,2,60,0,0
28168,-66.6666666666667,4,3,2,60,0,0
29553,-66.6666666666667,4,3,2,70,0,0
38015,-200,4,3,2,60,0,0
38322,-100,4,3,2,60,0,0
38784,-294.117647058824,4,3,2,60,0,0
39091,-50,4,3,2,60,0,0
39399,-83.3333333333333,4,3,2,70,0,0
39553,-66.6666666666667,4,3,2,70,0,0
43707,-200,4,3,2,70,0,0
44015,-50,4,3,2,70,0,0
44322,-66.6666666666667,4,3,2,70,0,0
45245,-71.4285714285714,4,3,2,70,0,0
45399,-55.5555555555556,4,3,2,70,0,0
45553,-66.6666666666667,4,3,2,70,0,0
48015,-200,4,3,2,70,0,0
49245,-66.6666666666667,4,3,2,70,0,0
59091,-76.9230769230769,4,3,2,60,0,0
62784,-133.333333333333,4,3,2,60,0,0
63322,-133.333333333333,4,3,2,5,0,0
63399,-133.333333333333,4,3,2,60,0,0
64015,-76.9230769230769,4,3,2,60,0,0
66476,-333.333333333333,4,3,2,60,0,0
66784,-166.666666666667,4,3,2,60,0,0
67091,-111.111111111111,4,3,2,60,0,0
68938,-111.111111111111,4,3,2,30,0,0
70168,-133.333333333333,4,3,2,30,0,0
78322,-57.1428571428571,4,3,2,70,0,0
78476,-41.6666666666667,4,3,2,60,0,0
78515,-37.037037037037,4,3,2,5,0,0
78553,-37.037037037037,4,3,2,70,0,0
78591,-33.3333333333333,4,3,2,5,0,0
78630,-33.3333333333333,4,3,2,70,0,0
78668,-30.3030303030303,4,3,2,5,0,0
78707,-30.3030303030303,4,3,2,70,0,0
78745,-66.6666666666667,4,3,2,5,0,0
78784,-66.6666666666667,4,3,2,70,0,0
83399,-133.333333333333,4,3,2,70,0,0
83707,-66.6666666666667,4,3,2,70,0,0
88015,-133.333333333333,4,3,2,70,0,0
88322,-50,4,3,2,70,0,0
88630,-66.6666666666667,4,3,2,70,0,0
97091,-133.333333333333,4,3,2,70,0,0
109091,-133.333333333333,4,3,2,40,0,0
110784,-133.333333333333,4,3,2,70,0,0
111553,-133.333333333333,4,3,2,40,0,0
113245,-133.333333333333,4,3,2,70,0,0
114015,-133.333333333333,4,3,2,40,0,0
115707,-133.333333333333,4,3,2,60,0,0
116938,-133.333333333333,4,3,2,60,0,0
117861,-58.8235294117647,4,3,2,70,0,0
117899,-55.5555555555556,4,3,2,5,0,0
117938,-55.5555555555556,4,3,2,60,0,0
117976,-52.6315789473684,4,3,2,5,0,0
118015,-52.6315789473684,4,3,2,70,0,0
118053,-50,4,3,2,5,0,0
118091,-50,4,3,2,60,0,0
118130,-66.6666666666667,4,3,2,5,0,0
118168,-66.6666666666667,4,3,2,70,0,0
126784,-100,4,3,2,70,0,0
128015,-66.6666666666667,4,3,2,70,0,0
136938,-76.9230769230769,4,3,2,70,0,0
137245,-90.9090909090909,4,3,2,70,0,0
137553,-66.6666666666667,4,3,2,60,0,0
140015,-83.3333333333333,4,3,2,60,0,0
140322,-66.6666666666667,4,3,2,60,0,0
142476,-100,4,3,2,60,0,0
142784,-66.6666666666667,4,3,2,60,0,0
144168,-50,4,3,2,60,0,0
144322,-66.6666666666667,4,3,2,60,0,0
144630,-133.333333333333,4,3,2,60,0,0
144668,-133.333333333333,4,3,2,5,0,0
144707,-133.333333333333,4,3,2,60,0,0
144745,-133.333333333333,4,3,2,5,0,0
144784,-133.333333333333,4,3,2,60,0,0
144822,-133.333333333333,4,3,2,5,0,0
144861,-133.333333333333,4,3,2,60,0,0
144899,-50,4,3,2,5,0,0
144938,-50,4,3,2,60,0,0
145245,-66.6666666666667,4,3,2,60,0,0
147438,-62.5,4,3,2,5,0,0
147476,-62.5,4,3,2,60,0,0
147515,-58.8235294117647,4,3,2,5,0,0
147553,-58.8235294117647,4,3,2,60,0,0
147591,-55.5555555555556,4,3,2,5,0,0
147630,-55.5555555555556,4,3,2,70,0,0
147668,-66.6666666666667,4,3,2,5,0,0
147707,-66.6666666666667,4,3,2,70,0,0
152015,-133.333333333333,4,3,2,70,0,0
152630,-66.6666666666667,4,3,2,70,0,0
156168,-666.666666666658,4,3,2,70,0,0
157553,-66.6666666666667,4,3,2,70,0,0
161861,-133.333333333333,4,3,2,70,0,0
162476,-66.6666666666667,4,3,2,70,0,0
166784,-83.3333333333333,4,3,2,70,0,0
167399,-66.6666666666667,4,3,2,70,0,0
177245,-66.6666666666667,4,3,2,60,0,0
180784,-50,4,3,2,60,0,0
180822,-50,4,3,2,5,0,0
180861,-50,4,3,2,60,0,0
180899,-100,4,3,2,5,0,0
180938,-100,4,3,2,60,0,0
182168,-66.6666666666667,4,3,2,60,0,0
183091,-58.8235294117647,4,3,2,60,0,0
183130,-55.5555555555556,4,3,2,5,0,0
183168,-55.5555555555556,4,3,2,60,0,0
183207,-52.6315789473684,4,3,2,5,0,0
183245,-52.6315789473684,4,3,2,60,0,0
183284,-50,4,3,2,5,0,0
183322,-50,4,3,2,60,0,0
183361,-66.6666666666667,4,3,2,5,0,0
183399,-66.6666666666667,4,3,2,60,0,0
184630,-166.666666666667,4,3,2,60,0,0
184938,-333.333333333333,4,3,2,60,0,0
185553,-100,4,3,2,60,0,0
185861,-100,4,3,2,70,0,0
186168,-100,4,3,2,50,0,0
186476,-100,4,3,2,65,0,0
186784,-100,4,3,2,38,0,0
186861,-100,4,3,2,36,0,0
186938,-100,4,3,2,34,0,0
187015,-100,4,3,2,32,0,0
187091,-200,4,3,2,70,0,0
187168,-200,4,3,2,35,0,0
196322,-50,4,3,2,70,0,0
196938,-66.6666666666667,4,3,2,70,0,0
202784,-133.333333333333,4,3,2,70,0,0
203707,-58.8235294117647,4,3,2,70,0,0
203861,-66.6666666666667,4,3,2,70,0,0
204630,-55.5555555555556,4,3,2,70,0,0
204784,-66.6666666666667,4,3,2,70,0,0
205553,-83.3333333333333,4,3,2,70,0,0
205861,-40,4,3,2,70,0,0
206322,-66.6666666666667,4,3,2,70,0,0
211091,-133.333333333333,4,3,2,70,0,0
211399,-66.6666666666667,4,3,2,70,0,0
213245,-83.3333333333333,4,3,2,70,0,0
213553,-62.5,4,3,2,70,0,0
214168,-66.6666666666667,4,3,2,70,0,0
215399,-133.333333333333,4,3,2,70,0,0
216322,-66.6666666666667,4,3,2,70,0,0
221245,-52.6315789473684,4,3,2,70,0,0
221399,-50,4,3,2,70,0,0
221553,-66.6666666666667,4,3,2,70,0,0
222515,-66.6666666666667,4,3,2,5,0,0
222553,-66.6666666666667,4,3,2,70,0,0
222591,-66.6666666666667,4,3,2,5,0,0
222630,-66.6666666666667,4,3,2,70,0,0
223861,-52.6315789473684,4,3,2,70,0,0
224015,-66.6666666666667,4,3,2,70,0,0
225091,-76.9230769230769,4,3,2,70,0,0
226476,-66.6666666666667,4,3,2,70,0,0
230938,-133.333333333333,4,3,2,70,0,0
231091,-52.6315789473684,4,3,2,70,0,0
231399,-66.6666666666667,4,3,2,70,0,0
232322,-100,4,3,2,70,0,0
232476,-50,4,3,2,70,0,0
232630,-66.6666666666667,4,3,2,70,0,0
236322,-133.333333333333,4,3,2,45,0,0
236553,-133.333333333333,4,3,2,5,0,0
236630,-133.333333333333,4,3,2,45,0,0
237399,-133.333333333333,4,3,2,5,0,0
237553,-133.333333333333,4,3,2,45,0,0
237707,-133.333333333333,4,3,2,5,0,0
237861,-133.333333333333,4,3,2,45,0,0
238707,-133.333333333333,4,3,2,5,0,0
238784,-133.333333333333,4,3,2,45,0,0
239322,-133.333333333333,4,3,2,5,0,0
239399,-133.333333333333,4,3,2,45,0,0
239938,-133.333333333333,4,3,2,5,0,0
240015,-133.333333333333,4,3,2,45,0,0
240245,-133.333333333333,4,3,2,5,0,0
240322,-133.333333333333,4,3,2,45,0,0
241168,-133.333333333333,4,3,2,5,0,0
241245,-133.333333333333,4,3,2,45,0,0
241707,-133.333333333333,4,3,2,5,0,0
241861,-133.333333333333,4,3,2,45,0,0
242322,-133.333333333333,4,3,2,5,0,0
242476,-133.333333333333,4,3,2,45,0,0
242707,-133.333333333333,4,3,2,5,0,0
242784,-133.333333333333,4,3,2,45,0,0
243630,-133.333333333333,4,3,2,5,0,0
243707,-133.333333333333,4,3,2,45,0,0
243938,-133.333333333333,4,3,2,5,0,0
244015,-133.333333333333,4,3,2,45,0,0
244784,-133.333333333333,4,3,2,5,0,0
244938,-133.333333333333,4,3,2,45,0,0
245168,-133.333333333333,4,3,2,5,0,0
245245,-133.333333333333,4,3,2,60,0,0
245476,-133.333333333333,4,3,2,5,0,0
245553,-133.333333333333,4,3,2,60,0,0
245861,-133.333333333333,4,3,2,70,0,0
246168,-66.6666666666667,4,3,2,70,0,0
250784,-52.6315789473684,4,3,2,70,0,0
251091,-66.6666666666667,4,3,2,70,0,0
255707,-100,4,3,2,70,0,0
256322,-100,4,3,2,60,0,0
256630,-100,4,3,2,50,0,0
256938,-100,4,3,2,45,0,0
257245,-100,4,3,2,40,0,0
257553,-100,4,3,2,35,0,0
257861,-100,4,3,2,30,0,0
258168,-100,4,3,2,25,0,0
258476,-100,4,3,2,20,0,0
258784,-100,4,3,2,15,0,0
259091,-100,4,3,2,10,0,0
259399,-100,4,3,2,5,0,0

[Colours]
Combo1 : 164,179,223
Combo2 : 249,155,239
Combo3 : 166,222,236

[HitObjects]
151,224,15,5,4,1:2:0:0:
162,218,168,1,0,1:0:0:0:
64,217,322,1,0,1:0:0:0:
151,224,476,1,0,1:0:0:0:
239,231,630,1,8,1:2:0:0:
357,197,2476,5,0,1:0:0:0:
347,184,2630,1,0,1:0:0:0:
311,273,2784,1,0,1:0:0:0:
357,197,2938,1,0,1:0:0:0:
306,114,3091,1,8,1:2:0:0:
157,143,4938,5,0,1:0:0:0:
236,133,5091,1,0,1:0:0:0:
88,89,5245,1,0,1:0:0:0:
157,151,5399,1,0,1:0:0:0:
294,74,5553,1,8,1:2:0:0:
418,169,7399,5,0,1:0:0:0:
366,89,7553,1,0,1:0:0:0:
354,231,7707,1,0,1:0:0:0:
453,90,7861,1,0,1:0:0:0:
349,251,8015,1,8,1:2:0:0:
187,307,8630,5,0,1:0:0:0:
231,160,8784,1,0,1:0:0:0:
265,339,8938,1,0,1:0:0:0:
145,145,9091,1,0,1:0:0:0:
283,337,9245,1,8,1:2:0:0:
113,315,9553,6,0,P|113:302|117:299,1,13.75,2|0,0:3|0:3,0:0:0:0:
105,293,9630,2,0,P|114:283|119:284,1,13.75,2|0,0:3|0:3,0:0:0:0:
115,273,9707,2,0,P|128:273|131:277,1,13.75,2|0,0:3|0:3,0:0:0:0:
136,265,9784,2,0,P|145:274|144:279,1,13.75,2|0,0:3|0:3,0:0:0:0:
183,340,9861,6,0,L|172:204,1,131.99999597168,4|4,0:0|0:0,0:0:0:0:
213,54,10168,2,0,P|198:67|212:51,1,65.9999979858399,0|0,0:0|0:0,0:0:0:0:
134,115,10322,2,0,P|72:96|55:98,1,65.9999979858399,0|0,0:0|0:0,0:0:0:0:
294,89,10476,1,4,0:0:0:0:
214,155,10630,1,0,0:0:0:0:
378,115,10784,1,4,0:0:0:0:
390,107,10860,1,0,0:0:0:0:
404,101,10937,1,2,0:0:0:0:
419,97,11014,1,2,0:0:0:0:
434,96,11091,1,4,0:0:0:0:
435,180,11245,5,4,0:0:0:0:
499,35,11399,1,2,0:0:0:0:
462,15,11476,1,2,0:0:0:0:
422,9,11553,1,4,0:0:0:0:
435,180,11707,1,0,0:0:0:0:
248,106,11861,1,2,0:0:0:0:
239,97,11938,1,2,0:0:0:0:
234,83,12015,2,0,L|229:147,2,41.2500015735627,4|0|0,0:0|0:0|0:0,0:0:0:0:
286,188,12245,5,2,0:0:0:0:
279,193,12322,2,0,L|291:349,1,131.99999597168,4|0,0:0|0:0,0:0:0:0:
61,190,12630,5,2,0:0:0:0:
35,152,12706,1,2,0:0:0:0:
34,106,12783,1,2,0:0:0:0:
58,68,12860,1,2,0:0:0:0:
100,49,12938,1,4,0:0:0:0:
113,48,13014,1,0,0:0:0:0:
126,49,13091,2,0,L|212:66,1,65.9999979858399,0|0,0:0|0:0,0:0:0:0:
298,120,13245,1,0,0:0:0:0:
307,116,13322,1,0,0:0:0:0:
319,114,13399,2,0,L|362:103,2,32.99999899292,2|2|2,3:3|3:3|3:3,0:0:0:0:
185,146,13553,5,4,0:0:0:0:
173,143,13630,2,0,P|154:189|162:218,1,65.9999979858399,0|4,0:0|0:0,0:0:0:0:
119,264,13784,1,4,0:0:0:0:
108,270,13861,2,0,P|127:315|153:330,1,65.9999979858399,0|0,0:0|0:0,0:0:0:0:
279,220,14015,2,0,L|310:211,2,32.99999899292,2|2|2,0:0|0:0|0:0,0:0:0:0:
248,328,14168,5,4,0:0:0:0:
229,326,14244,1,4,0:0:0:0:
219,343,14321,1,4,0:0:0:0:
227,359,14398,1,4,0:0:0:0:
242,358,14476,6,0,P|255:345|267:321,1,32.99999899292,2|0,0:0|3:0,0:0:0:0:
276,336,14553,2,0,P|281:311|283:285,1,38.4999988250733,2|0,0:0|3:0,0:0:0:0:
298,283,14630,2,0,P|292:257|274:233,1,46.7500008916855,2|0,0:0|3:0,0:0:0:0:
279,220,14707,2,0,P|249:197|217:185,1,55,2|0,0:0|3:0,0:0:0:0:
164,223,14784,6,0,P|153:200|167:170,1,41.2500015735627,4|0,0:0|0:0,0:0:0:0:
217,33,14938,2,0,P|218:53|208:70,1,41.2500015735627,4|0,0:0|0:0,0:0:0:0:
48,104,15091,1,4,0:0:0:0:
39,102,15167,1,4,0:0:0:0:
31,100,15244,1,4,0:0:0:0:
23,98,15321,1,4,0:0:0:0:
8,93,15399,5,2,0:3:0:0:
63,85,15475,1,2,0:3:0:0:
111,82,15552,1,2,0:3:0:0:
159,80,15630,1,2,0:3:0:0:
207,70,15707,2,0,L|254:66,1,41.2500015735627,2|0,0:0|0:0,0:0:0:0:
346,188,15861,1,4,0:0:0:0:
338,197,15938,1,0,0:0:0:0:
329,205,16015,2,0,L|333:114,1,65.9999979858399,4|4,0:0|0:0,0:0:0:0:
338,30,16168,2,0,L|339:6,2,20.6250007867813,2|2|2,0:3|0:3|0:3,0:0:0:0:
425,168,16322,5,2,0:0:0:0:
401,129,16399,1,2,0:0:0:0:
360,109,16476,1,2,0:0:0:0:
315,113,16553,1,2,0:0:0:0:
279,141,16630,6,0,P|263:155|238:162,1,32.99999899292,2|0,0:0|0:0,0:0:0:0:
274,168,16707,2,0,P|252:166|230:153,1,32.99999899292,2|0,0:0|0:0,0:0:0:0:
252,184,16784,2,0,P|237:168|231:143,1,32.99999899292,2|0,0:0|0:0,0:0:0:0:
225,179,16861,2,0,P|226:157|239:135,1,32.99999899292,2|0,0:0|0:0,0:0:0:0:
215,159,16938,6,0,B|138:145|169:87|63:70,1,156.749995814324,0|0,0:0|0:0,0:0:0:0:
10,79,17091,2,0,P|3:83|7:79,2,20.6250007867813,0|0|0,0:0|0:0|0:0,0:0:0:0:
70,162,17245,5,4,0:0:0:0:
41,0,17399,1,4,0:0:0:0:
83,246,17553,1,2,0:0:0:0:
114,237,17630,1,2,0:0:0:0:
138,214,17707,2,0,P|149:197|155:175,1,41.2500015735627,4|0,0:0|0:0,0:0:0:0:
218,74,17861,6,0,B|240:48|240:48|229:146,1,131.99999597168,0|0,0:0|0:0,0:0:0:0:
178,312,18091,1,0,0:0:0:0:
168,317,18168,2,0,P|215:281|253:292,1,65.9999979858399,4|0,0:0|0:0,0:0:0:0:
341,360,18322,2,0,P|311:350|291:324,1,65.9999979858399,0|0,0:0|0:0,0:0:0:0:
329,111,18476,5,0,0:0:0:0:
360,143,18553,1,0,0:0:0:0:
364,188,18630,1,0,0:0:0:0:
339,226,18707,1,0,0:0:0:0:
296,241,18783,5,0,0:0:0:0:
285,237,18861,1,0,0:0:0:0:
273,234,18938,2,0,P|272:194|245:145,1,65.9999979858399,0|0,0:0|0:0,0:0:0:0:
191,100,19091,5,0,0:0:0:0:
127,93,19167,1,0,0:0:0:0:
85,140,19244,1,0,0:0:0:0:
98,202,19321,1,0,0:0:0:0:
156,227,19399,6,0,P|189:231|210:228,2,32.99999899292,2|2|2,0:0|0:0|0:0,0:0:0:0:
254,166,19553,2,0,P|271:137|276:116,2,32.99999899292,2|2|2,0:0|0:0|0:0,0:0:0:0:
265,58,19707,6,0,B|345:62|345:62|345:67|345:67|454:70,1,165.000006294251,4|4,0:0|0:0,0:0:0:0:
429,266,19938,1,0,0:0:0:0:
419,274,20015,2,0,P|369:239|376:188,1,82.5000031471254,8|0,0:2|0:0,0:0:0:0:
486,189,20168,1,0,0:0:0:0:
490,201,20245,1,0,0:0:0:0:
485,210,20322,2,0,P|474:149|515:118,1,82.5000031471254,4|0,0:0|0:0,0:0:0:0:
354,210,20476,6,0,P|303:181|253:195,1,82.5000031471254,8|0,0:2|0:0,0:0:0:0:
144,264,20630,2,0,P|184:260|216:236,1,82.5000031471254,0|0,0:0|0:0,0:0:0:0:
172,66,20784,1,8,0:2:0:0:
169,56,20861,1,0,0:0:0:0:
155,38,20938,5,4,0:0:0:0:
212,38,21015,1,4,0:0:0:0:
265,58,21091,1,4,0:0:0:0:
312,91,21168,1,4,0:0:0:0:
369,95,21245,2,0,P|421:83|453:33,1,82.5000031471254,8|0,0:2|0:0,0:0:0:0:
375,12,21399,1,0,0:0:0:0:
375,21,21476,1,0,0:0:0:0:
368,17,21553,1,4,0:0:0:0:
448,164,21707,5,8,0:2:0:0:
452,175,21784,1,0,0:0:0:0:
451,197,21861,1,8,0:2:0:0:
437,228,21938,1,0,0:0:0:0:
402,263,22015,1,0,0:2:0:0:
356,284,22091,1,0,0:2:0:0:
297,288,22168,6,0,B|221:267|257:208|138:161,1,165.000006294251,4|0,0:0|0:0,0:0:0:0:
83,279,22399,1,0,0:0:0:0:
130,339,22476,2,0,L|144:221,1,82.5000031471254,8|0,0:2|0:0,0:0:0:0:
170,51,22630,1,0,0:0:0:0:
131,41,22707,1,0,0:0:0:0:
91,51,22784,1,4,0:0:0:0:
62,80,22861,1,0,0:0:0:0:
50,119,22938,2,0,B|49:126|49:126|83:104|165:114,1,82.5000031471254,8|0,0:2|0:0,0:0:0:0:
323,198,23091,5,4,0:0:0:0:
331,170,23168,1,0,0:0:0:0:
340,136,23245,1,8,0:2:0:0:
356,284,23399,1,4,0:0:0:0:
249,31,23553,5,4,0:0:0:0:
259,65,23630,1,4,0:0:0:0:
270,106,23707,1,8,0:2:0:0:
118,191,23861,2,0,B|95:200|95:200|114:169|151:171,1,82.5000031471254,0|0,0:0|0:0,0:0:0:0:
290,240,24015,1,4,0:0:0:0:
298,229,24091,1,0,0:0:0:0:
309,220,24168,5,8,0:2:0:0:
289,205,24245,1,0,0:0:0:0:
248,200,24322,1,8,0:2:0:0:
206,230,24399,1,0,0:0:0:0:
160,274,24476,1,0,0:0:0:0:
86,283,24553,1,0,0:0:0:0:
10,245,24630,6,0,L|23:153,1,82.5000031471254,4|0,0:0|0:0,0:0:0:0:
39,9,24784,2,0,B|21:20|17:48|17:48|31:20|50:13,1,82.5000031471254,4|0,0:0|0:0,0:0:0:0:
253,95,24938,2,0,B|174:112|187:56|93:75,1,165.000006294251,8|0,0:2|0:0,0:0:0:0:
229,20,25168,5,0,0:0:0:0:
237,10,25245,2,0,P|302:19|330:48,1,82.5000031471254,4|0,0:0|0:0,0:0:0:0:
322,150,25399,2,0,P|289:174|249:181,1,82.5000031471254,8|0,0:2|0:0,0:0:0:0:
8,187,25553,1,4,0:0:0:0:
211,296,25707,2,0,P|190:296|207:293,1,82.5000031471254,8|0,0:2|0:0,0:0:0:0:
43,261,25861,5,4,0:0:0:0:
84,221,25937,1,4,0:0:0:0:
135,194,26014,1,4,0:0:0:0:
191,180,26091,1,4,0:0:0:0:
249,181,26168,1,8,0:2:0:0:
416,338,26322,6,0,P|347:326|323:293,1,82.5000031471254,0|0,0:0|0:0,0:0:0:0:
322,214,26476,1,4,0:0:0:0:
312,235,26553,1,4,0:0:0:0:
294,250,26630,1,8,0:2:0:0:
402,78,26784,5,8,0:2:0:0:
416,92,26861,1,0,0:0:0:0:
433,125,26938,1,0,0:0:0:0:
437,178,27015,1,0,0:0:0:0:
412,235,27091,2,0,B|406:246|396:256|396:256|411:218|399:160,1,82.5000031471254,4|0,0:0|0:0,0:0:0:0:
322,57,27245,5,4,0:0:0:0:
336,28,27322,1,4,0:0:0:0:
362,7,27399,1,8,0:2:0:0:
249,181,27553,1,0,0:0:0:0:
209,168,27629,1,0,0:0:0:0:
180,140,27706,1,4,0:0:0:0:
152,110,27783,1,0,0:0:0:0:
114,93,27861,2,0,B|101:90|101:90|112:181,1,82.5000031471254,8|0,0:2|0:0,0:0:0:0:
108,359,28015,1,4,0:1:0:0:
115,353,28091,1,0,0:0:0:0:
128,310,28168,5,4,0:2:0:0:
92,234,28476,1,4,0:2:0:0:
109,158,28784,5,4,0:2:0:0:
93,8,28938,1,0,0:0:0:0:
102,5,29015,1,0,0:0:0:0:
113,3,29091,1,4,0:0:0:0:
43,77,29245,6,0,B|185:112|130:14|291:50,1,247.500009441376,0|0,0:0|0:0,0:0:0:0:
354,21,29553,6,0,B|371:36|373:52|373:52|379:27|356:3,1,82.5000031471254,4|0,0:0|0:0,0:0:0:0:
431,213,29707,2,0,B|432:235|422:248|422:248|444:234|445:201,1,82.5000031471254,4|0,0:0|0:0,0:0:0:0:
484,71,29861,2,0,P|396:135|320:157,1,165.000006294251,8|0,0:2|0:0,0:0:0:0:
134,174,30091,5,0,0:0:0:0:
121,162,30168,1,4,0:0:0:0:
176,146,30245,1,0,0:0:0:0:
228,170,30322,1,8,0:2:0:0:
364,304,30476,1,4,0:0:0:0:
176,245,30630,1,8,0:2:0:0:
442,353,30784,5,4,0:0:0:0:
453,297,30860,1,4,0:0:0:0:
429,246,30937,1,4,0:0:0:0:
379,219,31014,1,4,0:0:0:0:
323,228,31091,1,8,0:2:0:0:
95,277,31245,5,0,0:0:0:0:
80,269,31321,1,0,0:0:0:0:
63,266,31399,1,4,0:0:0:0:
119,255,31475,1,4,0:0:0:0:
176,245,31552,1,8,0:2:0:0:
364,130,31707,6,0,B|323:113|323:113|340:208|340:208|348:207|348:207|363:303,1,247.500009441376,8|0,0:2|0:0,0:0:0:0:
241,195,32015,2,0,P|182:164|157:166,1,82.5000031471254,4|0,0:0|0:0,0:0:0:0:
12,315,32168,1,4,0:0:0:0:
16,273,32244,1,4,0:0:0:0:
20,232,32321,1,8,0:2:0:0:
219,315,32476,5,0,0:0:0:0:
204,323,32552,1,0,0:0:0:0:
187,326,32630,1,4,0:0:0:0:
243,337,32706,1,0,0:0:0:0:
300,347,32783,1,8,0:2:0:0:
331,161,32938,1,4,0:0:0:0:
325,178,33016,1,0,0:0:0:0:
325,195,33091,2,0,P|363:151|346:96,1,82.5000031471254,8|0,0:2|0:0,0:0:0:0:
419,40,33245,6,0,L|312:55,1,82.5000031471254,4|0,0:0|0:0,0:0:0:0:
168,164,33399,1,4,0:0:0:0:
110,156,33475,1,4,0:0:0:0:
53,149,33553,1,8,0:2:0:0:
246,170,33707,1,0,0:0:0:0:
243,186,33784,1,0,0:0:0:0:
237,201,33861,1,4,0:0:0:0:
348,329,34015,2,0,P|302:286|234:290,1,82.5000031471254,8|0,0:2|0:0,0:0:0:0:
125,333,34168,2,0,P|162:317|188:285,1,82.5000031471254,8|0,0:2|0:0,0:0:0:0:
234,91,34322,5,0,0:0:0:0:
228,76,34399,1,0,0:0:0:0:
219,63,34476,2,0,B|298:74|298:74|303:72|303:72|401:85,1,165.000006294251,4|4,0:0|0:0,0:0:0:0:
462,238,34707,1,0,0:0:0:0:
454,248,34784,2,0,B|421:279|421:279|409:138,1,165.000006294251,8|0,0:2|0:0,0:0:0:0:
158,154,35091,6,0,B|143:141|123:139|123:139|159:136|175:154,1,82.5000031471254,4|0,0:0|0:0,0:0:0:0:
317,184,35245,2,0,L|235:194,1,82.5000031471254,8|0,0:2|0:0,0:0:0:0:
57,180,35399,2,0,B|42:193|22:195|22:195|58:198|74:180,1,82.5000031471254,4|0,0:0|0:0,0:0:0:0:
289,271,35553,2,0,L|371:280,1,82.5000031471254,8|0,0:2|0:0,0:0:0:0:
392,40,35707,5,4,0:0:0:0:
343,10,35783,1,4,0:0:0:0:
286,16,35860,1,4,0:0:0:0:
244,53,35937,1,4,0:0:0:0:
232,109,36014,1,8,0:2:0:0:
202,301,36168,6,0,P|201:342|221:378,1,82.5000031471254,0|0,0:0|0:0,0:0:0:0:
406,300,36322,1,4,0:0:0:0:
389,302,36399,1,4,0:0:0:0:
373,304,36475,1,8,0:2:0:0:
489,315,36630,2,0,B|491:273|491:273|466:237,1,82.5000031471254,8|0,0:2|0:0,0:0:0:0:
286,282,36784,2,0,B|284:324|284:324|309:360,1,82.5000031471254,0|0,0:0|0:0,0:0:0:0:
182,384,36938,6,0,B|92:359|148:306|35:261,1,165.000006294251,4|0,0:0|0:0,0:0:0:0:
61,114,37168,1,0,0:0:0:0:
4,168,37245,2,0,B|46:191|46:191|194:168,1,165.000006294251,8|0,0:2|0:0,0:0:0:0:
330,71,37476,1,0,0:0:0:0:
323,64,37553,1,4,0:0:0:0:
331,62,37630,1,0,0:0:0:0:
364,76,37707,2,0,P|290:105|268:140,1,82.5000031471254,8|0,0:2|0:0,0:0:0:0:
245,261,37861,2,0,P|238:220|248:181,1,82.5000031471254,2|0,0:0|0:0,0:0:0:0:
331,62,38015,6,0,P|378:67|412:86,1,82.5,4|0,0:2|0:0,0:0:0:0:
457,151,38322,6,0,L|450:205,1,55,0|0,0:0|0:0,0:0:0:0:
446,158,38476,2,0,L|439:212,1,55,0|0,0:0|0:0,0:0:0:0:
435,165,38630,2,0,L|428:219,1,55,0|0,0:0|0:0,0:0:0:0:
463,295,38784,6,0,L|469:349,1,56.1000003424072,0|0,0:0|0:0,0:0:0:0:
484,373,39091,6,0,B|310:342|417:233|199:190,1,330,0|0,0:0|0:0,0:0:0:0:
86,328,39399,6,0,P|90:354|88:328,1,65.9999979858399,4|0,0:2|0:0,0:0:0:0:
142,189,39553,2,0,P|85:163|74:128,1,82.5000031471254,2|0,0:2|0:0,0:0:0:0:
169,276,39707,2,0,P|199:287|170:274,1,82.5000031471254,8|0,0:2|0:0,0:0:0:0:
65,140,39861,2,0,P|66:77|94:53,1,82.5000031471254,2|0,3:2|3:0,0:0:0:0:
250,92,40015,5,4,0:0:0:0:
266,89,40091,1,0,0:0:0:0:
282,87,40168,1,10,0:2:0:0:
400,69,40322,2,0,B|375:-5|375:-5|363:65|363:65|365:71|365:71|355:164,1,247.500009441376,4|0,0:0|0:0,0:0:0:0:
282,307,40630,5,4,0:0:0:0:
208,320,40707,1,4,0:0:0:0:
162,261,40784,1,2,0:2:0:0:
116,203,40861,1,0,0:0:0:0:
42,215,40938,2,0,B|66:235|66:235|142:221,1,82.5000031471254,8|0,0:2|0:0,0:0:0:0:
266,166,41091,2,0,L|357:178,1,82.5000031471254,2|0,0:2|0:0,0:0:0:0:
390,306,41245,5,4,0:0:0:0:
391,322,41322,1,0,0:0:0:0:
386,338,41399,1,2,0:2:0:0:
445,196,41553,1,8,0:2:0:0:
473,234,41630,1,0,0:0:0:0:
487,283,41707,1,2,0:2:0:0:
277,162,41861,6,0,L|195:151,1,82.5000031471254,0|0,0:0|0:0,0:0:0:0:
364,214,42015,1,2,0:2:0:0:
356,156,42091,1,0,0:0:0:0:
349,99,42168,1,8,0:2:0:0:
284,257,42322,1,2,0:2:0:0:
267,255,42399,1,0,0:0:0:0:
253,247,42476,1,0,0:0:0:0:
362,150,42630,1,10,0:2:0:0:
166,216,42783,5,4,0:0:0:0:
118,258,42860,1,0,0:0:0:0:
122,322,42938,1,10,0:2:0:0:
174,358,43014,1,0,0:0:0:0:
235,339,43091,5,4,0:0:0:0:
238,323,43167,1,0,0:0:0:0:
240,306,43244,1,2,0:2:0:0:
243,290,43321,1,0,0:0:0:0:
246,274,43399,6,0,P|235:150|218:18,1,247.500009441376,8|0,0:2|0:0,0:0:0:0:
216,17,43707,6,0,B|189:9|189:9|151:31,1,55,4|2,0:0|0:2,0:0:0:0:
73,175,43938,1,0,0:0:0:0:
74,191,44015,2,0,B|47:199|47:199|9:177,4,55,4|0|0|0|2,0:0|0:0|0:0|0:0|0:2,0:0:0:0:
246,113,44322,6,0,P|270:129|245:119,1,82.5000031471254,4|0,0:0|0:0,0:0:0:0:
296,216,44476,2,0,P|334:253|366:255,1,82.5000031471254,2|0,0:2|0:0,0:0:0:0:
123,108,44630,2,0,P|148:90|128:111,1,82.5000031471254,8|0,0:2|0:0,0:0:0:0:
374,268,44784,2,0,P|423:248|438:219,1,82.5000031471254,2|0,0:2|0:0,0:0:0:0:
378,59,44938,5,4,0:0:0:0:
371,55,45014,1,0,0:0:0:0:
371,64,45091,1,10,0:2:0:0:
492,176,45245,2,0,B|503:187|507:199|507:199|512:175|489:149,1,76.9999976501466,4|0,0:0|0:0,0:0:0:0:
361,59,45399,2,0,L|244:63,1,98.9999969787599,10|0,0:2|0:0,0:0:0:0:
7,224,45553,5,4,0:0:0:0:
32,155,45630,1,0,0:0:0:0:
97,120,45707,1,2,0:2:0:0:
162,85,45784,1,0,0:0:0:0:
187,16,45861,2,0,B|197:7|197:7|177:43|178:113,1,82.5000031471254,8|0,0:2|0:0,0:0:0:0:
287,239,46015,2,0,B|300:238|300:238|260:226|212:176,1,82.5000031471254,2|0,0:2|0:0,0:0:0:0:
89,104,46168,5,4,0:0:0:0:
85,87,46245,1,0,0:0:0:0:
87,71,46322,1,2,0:2:0:0:
151,185,46476,5,8,0:2:0:0:
168,194,46553,1,0,0:0:0:0:
210,201,46630,1,2,0:2:0:0:
266,180,46707,1,0,0:0:0:0:
301,106,46784,1,4,0:0:0:0:
75,228,46938,5,2,0:2:0:0:
98,257,47015,1,0,0:0:0:0:
133,272,47092,1,8,0:2:0:0:
204,102,47245,1,2,0:2:0:0:
291,261,47399,6,0,P|254:279|214:286,1,82.5000031471254,4|0,0:0|0:0,0:0:0:0:
27,161,47553,2,0,P|16:121|17:80,1,82.5000031471254,10|0,0:2|0:0,0:0:0:0:
215,109,47707,5,4,0:0:0:0:
272,101,47783,1,0,0:0:0:0:
329,94,47860,1,10,0:2:0:0:
98,84,48015,6,0,L|126:86,2,27.5,4|0|2,0:0|0:0|0:2,0:0:0:0:
308,185,48322,2,0,L|280:186,2,27.5,4|0|2,0:0|0:0|0:2,0:0:0:0:
186,28,48630,6,0,L|188:-6,1,27.5,0|0,1:0|0:0,0:0:0:0:
151,167,48784,2,0,L|149:194,1,27.5,0|0,1:0|0:0,0:0:0:0:
361,124,48938,5,2,0:0:0:0:
350,115,49015,1,2,0:0:0:0:
320,107,49091,1,2,0:0:0:0:
275,114,49168,1,2,0:0:0:0:
233,159,49245,6,0,B|226:176|234:201|234:201|218:187|220:165,1,82.5000031471254,4|0,0:1|0:0,0:0:0:0:
425,180,49399,2,0,B|442:173|467:181|467:181|453:165|431:167,1,82.5000031471254,2|0,0:2|0:0,0:0:0:0:
238,306,49553,2,0,P|167:253|74:266,1,165.000006294251,8|2,0:2|0:2,0:0:0:0:
19,363,49784,5,0,0:0:0:0:
11,375,49861,1,4,0:0:0:0:
0,326,49938,1,0,0:0:0:0:
7,277,50015,1,10,0:2:0:0:
141,372,50168,2,0,B|157:387|157:387|146:350|110:333,1,82.5000031471254,4|0,0:0|0:0,0:0:0:0:
22,161,50322,1,10,0:2:0:0:
18,169,50399,1,0,0:0:0:0:
15,180,50476,5,4,0:0:0:0:
67,204,50553,1,0,0:0:0:0:
125,204,50630,1,2,0:2:0:0:
177,180,50707,1,0,0:0:0:0:
214,136,50784,2,0,P|261:80|317:62,1,82.5000031471254,8|0,0:2|0:0,0:0:0:0:
437,82,50938,2,0,L|340:73,1,82.5000031471254,2|0,0:2|0:0,0:0:0:0:
145,74,51092,1,4,0:0:0:0:
135,59,51168,1,0,0:0:0:0:
130,44,51245,1,2,0:2:0:0:
15,180,51399,5,8,0:2:0:0:
67,156,51476,1,0,0:0:0:0:
125,156,51553,1,2,0:2:0:0:
177,180,51630,1,0,0:0:0:0:
214,224,51707,1,4,0:0:0:0:
342,85,51862,1,2,0:2:0:0:
349,89,51939,1,0,0:0:0:0:
349,80,52015,2,0,B|341:168|341:168|334:169|334:169|324:277,1,165.000006294251,8|2,0:2|0:2,0:0:0:0:
448,357,52245,5,0,0:0:0:0:
450,343,52322,2,0,P|387:317|354:319,1,82.5000031471254,4|0,0:0|0:0,0:0:0:0:
246,309,52476,2,0,P|183:335|150:333,1,82.5000031471254,10|0,0:2|0:0,0:0:0:0:
16,356,52630,1,4,0:0:0:0:
20,298,52706,1,0,0:0:0:0:
25,240,52783,1,10,0:2:0:0:
245,101,52938,5,4,0:0:0:0:
250,106,53015,1,0,0:0:0:0:
254,112,53091,2,0,L|130:123,1,82.5000031471254,2|0,0:2|0:0,0:0:0:0:
16,142,53245,1,8,0:2:0:0:
11,147,53322,1,0,0:0:0:0:
7,153,53399,2,0,L|131:164,1,82.5000031471254,2|8,0:2|0:2,0:0:0:0:
304,176,53553,5,4,0:0:0:0:
309,181,53630,1,0,0:0:0:0:
313,187,53706,1,10,0:2:0:0:
371,256,53861,5,8,0:2:0:0:
367,250,53937,1,8,0:2:0:0:
362,245,54014,1,8,0:0:0:0:
398,124,54168,6,0,P|317:136|244:100,1,165.000006294251,4|2,0:0|0:2,0:0:0:0:
117,62,54399,1,0,0:0:0:0:
106,56,54476,2,0,B|96:48|75:56|75:56|68:89|108:109,1,82.5000031471254,8|0,0:2|0:0,0:0:0:0:
205,36,54630,2,0,B|216:31|220:9|220:9|195:-13|158:11,1,82.5000031471254,2|0,0:2|0:0,0:0:0:0:
97,181,54784,1,4,0:0:0:0:
101,196,54860,1,0,0:0:0:0:
105,212,54937,1,10,0:2:0:0:
0,312,55091,6,0,P|6:268|41:230,1,82.5000031471254,4|0,0:0|0:0,0:0:0:0:
191,197,55245,2,0,L|310:204,1,82.5000031471254,10|0,0:2|0:0,0:0:0:0:
429,314,55399,1,4,0:0:0:0:
472,277,55475,1,0,0:0:0:0:
481,221,55552,1,2,0:2:0:0:
454,172,55629,1,0,0:0:0:0:
401,151,55706,1,8,0:2:0:0:
344,339,55861,6,0,B|350:344|354:350|354:350|337:309|356:260,1,82.5000031471254,2|0,0:2|0:0,0:0:0:0:
274,131,56015,1,4,0:0:0:0:
274,121,56091,1,0,0:0:0:0:
353,124,56168,6,0,B|408:142|408:142|374:142,1,82.5000031471254,2|0,0:2|0:0,0:0:0:0:
241,203,56322,2,0,B|196:241|196:241|214:212,1,82.5000031471254,2|0,1:2|0:0,0:0:0:0:
226,58,56476,2,0,B|214:0|214:0|231:29,1,82.5000031471254,2|0,1:2|0:0,0:0:0:0:
354,273,56630,5,4,0:0:0:0:
281,258,56707,1,0,0:0:0:0:
240,195,56784,1,2,0:2:0:0:
199,132,56861,1,0,0:0:0:0:
126,117,56938,1,8,0:2:0:0:
68,374,57091,5,2,0:2:0:0:
66,358,57167,1,0,0:0:0:0:
47,338,57245,2,0,B|123:373|123:373|175:310,1,165.000006294251,4|10,0:0|0:2,0:0:0:0:
271,102,57553,1,4,0:0:0:0:
245,71,57630,1,0,0:0:0:0:
218,40,57707,1,10,0:2:0:0:
181,57,57784,1,0,0:0:0:0:
143,75,57861,6,0,P|165:116|212:130,1,82.5000031471254,4|0,0:2|0:0,0:0:0:0:
396,98,58015,5,2,0:2:0:0:
392,89,58091,1,0,0:0:0:0:
404,92,58168,2,0,P|382:133|335:147,1,82.5000031471254,4|0,0:2|0:0,0:0:0:0:
78,202,58322,5,2,0:2:0:0:
74,192,58398,1,0,0:0:0:0:
68,203,58476,2,0,P|112:216|155:193,1,82.5000031471254,4|0,0:2|0:0,0:0:0:0:
447,226,58630,5,2,0:2:0:0:
451,216,58706,1,0,0:0:0:0:
455,239,58784,5,2,0:0:0:0:
435,278,58861,1,2,0:0:0:0:
393,312,58938,1,2,0:0:0:0:
326,321,59015,1,2,0:0:0:0:
252,291,59091,6,0,P|212:275|175:278,1,71.4999967269899,4|0,0:2|0:0,0:0:0:0:
175,359,59245,1,0,0:0:0:0:
107,307,59399,2,0,P|76:337|64:372,1,71.4999967269899,0|0,0:0|0:0,0:0:0:0:
114,215,59553,1,4,0:0:0:0:
120,179,59629,1,4,0:0:0:0:
126,144,59706,1,4,0:0:0:0:
0,292,59861,5,4,0:0:0:0:
6,256,59937,1,0,0:0:0:0:
12,221,60014,1,4,0:0:0:0:
18,185,60091,1,4,0:0:0:0:
24,150,60168,1,4,0:0:0:0:
220,208,60322,5,12,0:2:0:0:
226,172,60398,1,4,0:0:0:0:
232,137,60475,1,4,0:0:0:0:
440,124,60630,5,4,0:0:0:0:
394,220,60784,1,4,0:0:0:0:
334,131,60938,1,4,0:0:0:0:
415,291,61091,5,4,0:0:0:0:
404,272,61167,1,4,0:0:0:0:
391,255,61244,1,4,0:0:0:0:
375,240,61321,1,4,0:0:0:0:
358,228,61398,1,4,0:0:0:0:
338,219,61475,1,4,0:0:0:0:
318,212,61553,6,0,L|310:297,1,71.4999967269899,12|0,0:2|0:0,0:0:0:0:
282,367,61707,1,4,0:0:0:0:
294,376,61784,1,4,0:0:0:0:
281,381,61861,1,4,0:0:0:0:
151,304,62015,5,4,0:0:0:0:
151,313,62092,1,4,0:0:0:0:
143,309,62169,1,4,0:0:0:0:
148,182,62322,5,4,0:0:0:0:
143,186,62399,1,0,0:0:0:0:
141,180,62476,1,4,0:0:0:0:
127,184,62553,1,4,0:0:0:0:
88,176,62630,1,4,0:0:0:0:
56,137,62707,1,0,0:0:0:0:
59,67,62784,6,0,B|185:79|185:79|205:99|205:99|351:115,1,288.750011014939,4|0,0:2|0:0,0:0:0:0:
391,201,63399,2,0,B|477:115|477:115|386:19,1,247.500009441376,4|0,0:2|0:0,0:0:0:0:
290,199,64015,5,12,0:2:0:0:
245,26,64168,1,4,0:0:0:0:
239,12,64244,1,4,0:0:0:0:
229,3,64321,1,4,0:0:0:0:
128,113,64476,5,4,0:0:0:0:
105,104,64553,1,4,0:0:0:0:
83,107,64629,1,4,0:0:0:0:
120,282,64784,5,4,0:0:0:0:
88,296,64861,1,4,0:0:0:0:
70,322,64937,1,4,0:0:0:0:
15,151,65091,5,0,0:0:0:0:
212,286,65245,1,12,0:2:0:0:
269,290,65321,1,4,0:0:0:0:
326,294,65398,1,4,0:0:0:0:
196,199,65553,6,0,B|224:182|224:182|250:209,1,71.4999967269899,4|4,0:0|0:0,0:0:0:0:
225,369,65707,2,0,B|197:386|197:386|171:359,1,71.4999967269899,4|0,0:0|0:0,0:0:0:0:
203,283,65861,1,4,0:0:0:0:
337,296,66015,5,4,0:0:0:0:
352,295,66091,1,4,0:0:0:0:
375,284,66168,1,4,0:0:0:0:
399,252,66245,1,4,0:0:0:0:
406,212,66322,1,4,0:0:0:0:
387,164,66399,1,4,0:0:0:0:
378,151,66476,6,0,P|366:126|367:95,1,49.4999984893799,4|0,0:2|0:0,0:0:0:0:
318,28,66784,6,0,P|301:50|296:67,1,32.99999899292,4|0,0:0|0:0,0:0:0:0:
297,182,66938,2,0,P|305:208|316:222,1,32.99999899292,4|0,0:0|0:0,0:0:0:0:
440,79,67091,5,4,0:0:0:0:
203,121,67245,1,4,0:0:0:0:
449,87,67399,2,0,L|501:84,1,49.4999984893799,2|0,0:0|0:0,0:0:0:0:
191,130,67553,2,0,L|139:127,1,49.4999984893799,2|0,0:0|0:0,0:0:0:0:
387,18,67707,5,4,1:2:0:0:
302,81,68938,5,4,0:2:0:0:
296,71,69091,1,0,0:0:0:0:
230,30,69245,1,0,0:0:0:0:
224,40,69398,1,0,0:0:0:0:
170,113,69553,5,2,0:0:0:0:
88,144,69707,1,2,0:0:0:0:
29,82,69861,1,2,0:0:0:0:
29,82,70015,1,2,0:0:0:0:
90,157,70168,6,0,L|100:244,1,82.5000031471254,0|0,0:0|0:0,0:0:0:0:
178,115,70476,2,0,L|188:197,1,82.5000031471254,0|0,0:0|0:0,0:0:0:0:
139,354,70784,1,0,0:0:0:0:
246,308,70938,1,0,0:0:0:0:
127,349,71091,1,0,0:0:0:0:
260,312,71245,1,4,0:0:0:0:
275,317,71322,1,4,0:0:0:0:
289,321,71399,6,0,L|397:301,1,82.5000031471254,4|0,0:0|0:0,0:0:0:0:
465,213,71707,2,0,L|383:228,1,82.5000031471254,4|0,0:0|0:0,0:0:0:0:
234,229,72015,5,0,0:0:0:0:
237,208,72168,1,0,0:0:0:0:
210,123,72322,1,0,0:0:0:0:
207,102,72475,1,0,0:0:0:0:
253,15,72630,5,2,0:0:0:0:
219,109,72784,1,0,0:0:0:0:
235,219,72938,1,2,0:0:0:0:
199,316,73091,1,0,0:0:0:0:
273,293,73245,1,2,0:0:0:0:
162,246,73399,1,0,0:0:0:0:
280,291,73553,1,2,0:0:0:0:
288,289,73629,1,2,0:0:0:0:
296,288,73706,1,2,0:0:0:0:
304,286,73783,1,2,0:0:0:0:
312,285,73860,5,4,0:0:0:0:
391,270,74015,1,0,0:0:0:0:
472,284,74168,2,0,L|463:378,1,82.5000031471254,0|0,0:0|0:0,0:0:0:0:
392,278,74476,5,0,0:0:0:0:
388,260,74630,1,0,0:0:0:0:
278,295,74784,2,0,L|270:212,1,82.5000031471254,0|0,0:0|0:0,0:0:0:0:
270,21,75091,5,2,0:0:0:0:
260,16,75245,1,0,0:0:0:0:
196,73,75399,1,2,0:0:0:0:
340,49,75553,1,0,0:0:0:0:
316,129,75707,1,2,0:0:0:0:
237,142,75861,1,0,0:0:0:0:
356,219,76015,1,2,0:0:0:0:
269,225,76168,1,4,0:0:0:0:
278,220,76245,1,4,0:0:0:0:
270,212,76322,6,0,L|278:295,1,82.5000031471254,4|0,0:0|0:0,0:0:0:0:
174,259,76630,2,0,L|166:341,1,82.5000031471254,4|0,0:0|0:0,0:0:0:0:
94,211,76938,5,4,0:0:0:0:
66,292,77091,1,0,0:0:0:0:
256,224,77245,1,4,0:0:0:0:
284,305,77398,1,0,0:0:0:0:
93,107,77553,5,4,0:0:0:0:
102,215,77707,1,0,0:0:0:0:
252,215,77861,1,4,0:0:0:0:
243,107,78015,1,0,0:0:0:0:
175,162,78168,5,6,0:0:0:0:
172,156,78245,1,6,0:0:0:0:
164,162,78322,2,0,L|282:157,1,96.2500009179115,12|0,0:3|0:0,0:0:0:0:
443,142,78476,6,0,B|455:144|463:162|463:162|441:169|415:134,1,65.9999979858399,2|0,0:0|0:0,0:0:0:0:
445,123,78553,6,0,B|450:112|470:110|470:110|470:133|428:147,1,74.2500002832413,2|0,0:0|0:0,0:0:0:0:
427,116,78630,6,0,B|418:107|422:87|422:87|444:95|445:139,1,82.5000031471254,2|0,0:0|0:0,0:0:0:0:
414,130,78707,6,0,B|402:135|385:125|385:125|399:106|441:119,1,90.7500008654595,2|0,0:0|0:0,0:0:0:0:
424,146,78784,6,0,B|426:161|407:178|407:178|389:154|422:108,1,82.5000031471254,4|0,0:2|0:0,0:0:0:0:
350,51,78938,2,0,P|287:26|256:30,1,82.5000031471254,2|0,0:2|0:0,0:0:0:0:
337,217,79091,2,0,B|327:229|302:228|302:228|307:198|362:189,1,82.5000031471254,8|0,0:2|3:0,0:0:0:0:
261,17,79245,2,0,P|204:54|189:81,1,82.5000031471254,2|0,0:2|0:0,0:0:0:0:
197,262,79399,5,4,0:0:0:0:
197,245,79476,1,0,0:0:0:0:
211,253,79553,1,10,0:2:0:0:
274,106,79707,1,4,0:0:0:0:
88,265,79861,2,0,B|81:271|60:275|60:275|92:280|112:269,1,82.5000031471254,10|0,0:2|0:0,0:0:0:0:
292,181,80015,5,4,0:0:0:0:
331,221,80091,1,0,0:0:0:0:
334,278,80168,1,2,0:2:0:0:
300,323,80245,1,0,0:0:0:0:
245,336,80322,1,8,0:2:0:0:
126,186,80476,2,0,L|138:80,1,82.5000031471254,2|0,0:2|0:0,0:0:0:0:
24,20,80630,2,0,B|7:50|7:50|163:26,1,165.000006294251,4|2,0:0|0:2,0:0:0:0:
348,41,80938,5,8,0:2:0:0:
327,76,81014,1,0,0:0:0:0:
294,99,81091,1,2,0:2:0:0:
253,105,81168,1,0,0:0:0:0:
214,93,81245,2,0,P|270:68|309:78,1,82.5000031471254,4|0,0:0|0:0,0:0:0:0:
399,131,81399,2,0,P|425:186|417:225,1,82.5000031471254,2|0,0:2|0:0,0:0:0:0:
294,329,81553,5,8,0:2:0:0:
286,322,81630,1,0,0:0:0:0:
281,333,81707,2,0,P|321:329|354:305,1,82.5000031471254,2|0,0:2|0:0,0:0:0:0:
405,112,81861,2,0,P|434:248|414:286,1,165.000006294251,4|10,0:0|0:2,0:0:0:0:
188,323,82168,5,4,0:0:0:0:
151,304,82244,1,0,0:0:0:0:
130,269,82321,1,10,0:2:0:0:
150,98,82476,1,4,0:0:0:0:
49,249,82630,1,2,0:2:0:0:
43,273,82707,1,0,0:0:0:0:
51,297,82783,1,8,0:2:0:0:
197,180,82938,6,0,P|171:189|196:179,1,82.5000031471254,2|0,0:2|0:0,0:0:0:0:
17,170,83091,1,4,0:0:0:0:
6,176,83168,1,0,0:0:0:0:
0,187,83244,1,2,0:2:0:0:
64,106,83399,6,0,P|43:93|37:91,6,20.6250007867813,2|2|2|2|2|2|2,0:0|0:0|0:0|0:0|0:2|0:0|0:0,0:0:0:0:
186,183,83707,6,0,B|281:162|229:112|336:91,1,165.000006294251,4|2,0:0|0:2,0:0:0:0:
512,264,84015,2,0,B|469:270|469:270|434:249,1,82.5000031471254,8|0,0:2|0:0,0:0:0:0:
501,180,84168,1,2,0:2:0:0:
487,188,84245,1,0,0:0:0:0:
487,172,84322,1,4,0:0:0:0:
365,212,84476,6,0,B|322:206|322:206|287:226,1,82.5000031471254,10|0,0:2|0:0,0:0:0:0:
332,377,84630,2,0,B|337:339|337:339|334:337|334:337|338:296,1,82.5000031471254,4|0,0:0|0:0,0:0:0:0:
384,133,84784,2,0,B|346:111|346:111|307:117,1,82.5000031471254,10|0,0:2|0:0,0:0:0:0:
89,109,84938,5,4,0:0:0:0:
143,92,85015,1,0,0:0:0:0:
195,115,85092,1,2,0:2:0:0:
219,166,85169,1,0,0:0:0:0:
203,221,85245,5,8,0:2:0:0:
199,213,85322,1,0,0:0:0:0:
199,204,85399,1,2,0:2:0:0:
313,113,85553,5,4,0:0:0:0:
309,72,85629,1,0,0:0:0:0:
332,41,85706,1,2,0:2:0:0:
371,32,85783,1,0,0:0:0:0:
432,76,85861,5,8,0:2:0:0:
384,133,85938,1,0,0:0:0:0:
313,113,86015,1,2,0:2:0:0:
241,92,86091,1,0,0:0:0:0:
194,150,86168,2,0,B|170:180|170:180|18:206,1,165.000006294251,4|2,0:0|0:2,0:0:0:0:
284,293,86476,6,0,P|300:270|286:294,1,82.5000031471254,8|0,0:2|0:0,0:0:0:0:
392,337,86630,2,0,P|388:296|401:257,1,82.5000031471254,2|0,0:2|0:0,0:0:0:0:
177,301,86784,2,0,P|203:332|215:371,1,82.5000031471254,4|0,0:0|0:0,0:0:0:0:
247,206,86938,2,0,B|262:193|266:171|266:171|282:193|316:202,1,82.5000031471254,10|0,0:2|0:0,0:0:0:0:
443,184,87091,1,4,0:0:0:0:
477,168,87167,1,0,0:0:0:0:
494,134,87244,1,10,0:2:0:0:
324,20,87399,5,4,0:0:0:0:
401,257,87553,1,2,0:2:0:0:
451,276,87629,1,0,0:0:0:0:
503,260,87706,1,4,0:0:0:0:
415,91,87861,6,0,B|421:73|405:52|405:52|414:69|405:104,1,82.5000031471254,2|0,0:2|0:0,0:0:0:0:
329,219,88015,2,0,P|320:249|320:269,3,41.2500015735627,2|2|2|2,0:0|0:0|0:2|0:0,0:0:0:0:
401,257,88322,6,0,B|212:217|334:113|130:64,1,330,4|0,0:0|0:0,0:0:0:0:
44,91,88630,6,0,B|22:95|4:128|4:128|16:113|44:102,1,82.5000031471254,4|0,0:0|0:0,0:0:0:0:
0,213,88784,2,0,P|12:258|51:279,1,82.5000031471254,2|0,0:2|0:0,0:0:0:0:
175,68,88938,2,0,B|156:55|120:65|120:65|139:63|167:75,1,82.5000031471254,8|0,0:2|0:0,0:0:0:0:
47,296,89091,2,0,P|92:303|128:276,1,82.5000031471254,2|0,0:2|0:0,0:0:0:0:
255,209,89245,5,4,0:0:0:0:
294,200,89321,1,0,0:0:0:0:
329,219,89398,1,10,0:2:0:0:
303,372,89553,2,0,L|285:241,1,82.5000031471254,4|0,0:0|0:0,0:0:0:0:
249,118,89707,1,10,0:2:0:0:
195,296,89861,5,4,0:0:0:0:
149,330,89937,1,0,0:0:0:0:
92,330,90014,1,2,0:2:0:0:
47,296,90091,1,0,0:0:0:0:
31,242,90168,1,8,0:2:0:0:
242,123,90322,1,2,0:2:0:0:
242,114,90399,1,0,0:0:0:0:
249,118,90476,5,4,0:0:0:0:
203,98,90553,1,0,0:0:0:0:
154,109,90630,1,2,0:2:0:0:
118,143,90707,1,0,0:0:0:0:
104,190,90784,2,0,B|104:220|113:238|113:238|112:219|122:155,1,82.5000031471254,8|0,1:2|1:0,0:0:0:0:
41,98,90938,2,0,B|12:87|-1:72|-1:72|16:80|80:93,1,82.5000031471254,2|0,1:2|1:0,0:0:0:0:
226,211,91091,6,0,L|317:223,1,82.5000031471254,4|0,0:0|0:0,0:0:0:0:
472,167,91245,1,2,0:2:0:0:
478,155,91322,1,0,0:0:0:0:
465,141,91399,2,0,P|467:241|405:306,1,165.000006294251,8|2,0:2|0:2,0:0:0:0:
226,211,91630,1,0,0:0:0:0:
221,219,91707,2,0,L|139:208,1,82.5000031471254,4|0,0:0|0:0,0:0:0:0:
307,221,91861,1,10,0:2:0:0:
55,195,92015,1,4,0:0:0:0:
30,162,92091,1,0,0:0:0:0:
29,121,92168,1,10,0:2:0:0:
224,38,92322,5,4,0:0:0:0:
254,87,92398,1,0,0:0:0:0:
257,144,92475,1,2,0:2:0:0:
231,195,92552,1,0,0:0:0:0:
185,228,92629,1,8,0:2:0:0:
57,44,92784,6,0,P|101:21|150:15,1,82.5000031471254,2|0,0:2|0:0,0:0:0:0:
379,104,92938,2,0,P|298:51|204:31,1,165.000006294251,4|2,0:0|0:2,0:0:0:0:
140,130,93168,1,0,0:0:0:0:
146,138,93245,2,0,P|65:191|-29:211,1,165.000006294251,8|2,0:2|0:2,0:0:0:0:
265,275,93553,6,0,P|271:302|262:277,1,82.5000031471254,4|0,0:0|0:0,0:0:0:0:
356,241,93707,2,0,P|421:221|435:190,1,82.5000031471254,2|0,0:2|0:0,0:0:0:0:
185,228,93861,2,0,P|162:244|181:226,1,82.5000031471254,8|0,0:2|0:0,0:0:0:0:
425,191,94015,2,0,P|431:123|408:98,1,82.5000031471254,2|0,0:2|0:0,0:0:0:0:
229,152,94168,5,4,0:0:0:0:
236,157,94245,1,0,0:0:0:0:
229,160,94322,1,10,0:2:0:0:
372,47,94476,2,0,L|171:63,1,165.000006294251,4|10,0:0|0:2,0:0:0:0:
185,228,94784,5,4,0:0:0:0:
132,250,94861,1,0,0:0:0:0:
77,238,94938,1,2,0:2:0:0:
37,197,95015,1,0,0:0:0:0:
27,140,95091,2,0,B|43:38|43:38|75:148,1,165.000006294251,8|2,0:2|0:2,0:0:0:0:
110,341,95399,5,4,0:0:0:0:
117,342,95476,1,0,0:0:0:0:
124,344,95553,2,0,P|164:337|210:322,1,82.5000031471254,2|0,0:2|0:0,0:0:0:0:
290,277,95707,1,8,1:2:0:0:
274,272,95784,1,0,1:0:0:0:
278,289,95861,1,2,1:2:0:0:
29,338,96015,5,4,0:0:0:0:
344,208,96168,1,2,0:2:0:0:
362,171,96244,1,0,0:0:0:0:
369,130,96321,1,8,0:2:0:0:
339,351,96476,1,2,0:2:0:0:
322,363,96553,1,0,0:0:0:0:
303,370,96629,1,4,0:0:0:0:
264,179,96784,5,10,0:2:0:0:
225,384,96938,1,4,0:0:0:0:
219,101,97091,5,4,0:2:0:0:
219,101,98476,5,4,1:2:0:0:
204,260,98630,1,0,1:0:0:0:
132,49,98784,1,0,1:0:0:0:
262,185,98938,1,0,1:0:0:0:
122,317,99091,1,8,1:2:0:0:
148,280,100938,5,4,1:2:0:0:
321,225,101091,1,0,1:0:0:0:
103,193,101245,1,0,1:0:0:0:
307,315,101399,1,0,1:0:0:0:
150,113,101553,1,8,1:2:0:0:
290,89,103399,5,4,1:2:0:0:
354,266,103553,1,0,1:0:0:0:
209,146,103707,1,0,1:0:0:0:
401,191,103861,1,0,1:0:0:0:
250,316,104015,1,8,1:2:0:0:
134,108,105861,5,4,1:2:0:0:
277,171,106015,1,0,1:0:0:0:
86,189,106168,1,0,1:0:0:0:
289,90,106322,1,0,1:0:0:0:
87,20,106476,1,8,1:2:0:0:
205,240,107091,5,4,1:2:0:0:
194,60,107245,1,0,1:0:0:0:
294,265,107399,1,0,1:0:0:0:
173,161,107553,1,0,1:0:0:0:
280,21,107707,1,8,1:2:0:0:
426,215,108322,5,4,1:2:0:0:
248,171,108476,1,0,1:0:0:0:
424,122,108630,1,0,1:0:0:0:
239,260,108784,1,0,1:0:0:0:
92,75,108938,5,8,1:2:0:0:
179,77,109091,1,0,0:0:0:0:
95,64,109245,1,0,0:0:0:0:
133,151,109399,1,0,0:0:0:0:
85,66,109553,1,0,0:0:0:0:
39,142,109707,1,0,0:0:0:0:
189,75,109861,2,0,L|291:96,1,82.5000031471254,0|0,0:0|0:0,0:0:0:0:
35,151,110168,2,0,L|8:259,1,82.5000031471254,0|0,0:0|0:0,0:0:0:0:
182,227,110476,1,0,0:0:0:0:
182,222,110553,1,0,0:0:0:0:
185,224,110630,1,0,0:0:0:0:
119,346,110784,5,4,1:2:0:0:
274,254,110938,1,0,1:0:0:0:
74,266,111091,1,0,1:0:0:0:
225,340,111245,1,0,1:0:0:0:
341,183,111399,5,8,1:2:0:0:
322,93,111553,1,0,0:0:0:0:
259,162,111707,1,0,0:0:0:0:
250,159,111861,1,0,0:0:0:0:
408,135,112015,1,0,0:0:0:0:
415,128,112168,1,0,0:0:0:0:
320,82,112322,2,0,L|306:0,1,82.5000031471254,0|0,0:0|0:0,0:0:0:0:
233,153,112630,2,0,L|184:134,3,41.2500015735627,0|0|0|0,0:0|0:0|0:0|0:0,0:0:0:0:
425,120,112938,2,0,L|462:87,3,41.2500015735627,0|0|0|0,0:0|0:0|0:0|0:0,0:0:0:0:
319,198,113245,5,4,1:2:0:0:
452,293,113399,1,0,1:0:0:0:
276,273,113553,1,0,1:0:0:0:
472,213,113707,1,0,1:0:0:0:
322,93,113861,5,8,1:2:0:0:
238,116,114015,1,0,0:0:0:0:
109,98,114168,1,0,0:0:0:0:
30,59,114322,1,0,0:0:0:0:
181,46,114476,1,0,0:0:0:0:
182,35,114630,1,0,0:0:0:0:
101,113,114784,2,0,P|61:167|36:184,1,82.5000031471254,0|0,0:0|0:0,0:0:0:0:
241,134,115091,2,0,P|259:198|276:223,1,82.5000031471254,0|0,0:0|0:0,0:0:0:0:
162,186,115399,1,0,0:0:0:0:
162,190,115476,1,0,0:0:0:0:
158,188,115553,1,0,0:0:0:0:
61,266,115707,5,4,1:2:0:0:
285,340,115861,1,0,1:0:0:0:
311,212,116015,1,0,1:0:0:0:
237,261,116168,1,0,1:0:0:0:
406,225,116322,1,8,1:2:0:0:
405,237,116938,5,4,1:2:0:0:
365,139,117091,1,0,1:0:0:0:
503,264,117245,1,0,1:0:0:0:
289,188,117399,1,0,1:0:0:0:
132,309,117553,1,8,1:2:0:0:
49,282,117707,5,0,0:0:0:0:
56,282,117784,5,0,0:0:0:0:
52,289,117861,6,0,P|40:247|40:229,1,46.7500008916855,2|0,0:0|0:0,0:0:0:0:
27,254,117938,6,0,P|32:224|42:203,1,49.4999984893799,2|0,0:0|0:0,0:0:0:0:
21,208,118015,6,0,P|41:173|60:158,1,52.2499986047745,2|0,0:0|0:0,0:0:0:0:
32,164,118091,6,0,P|64:134|84:129,1,55,2|0,0:0|0:0,0:0:0:0:
63,115,118168,6,0,P|115:104|153:115,1,82.5000031471254,4|0,0:2|0:0,0:0:0:0:
237,256,118322,1,2,0:2:0:0:
229,198,118398,1,0,0:0:0:0:
221,141,118475,1,8,0:2:0:0:
319,303,118630,1,2,0:2:0:0:
345,243,118706,1,0,0:0:0:0:
372,186,118783,1,4,0:0:0:0:
366,377,118938,1,10,0:2:0:0:
425,337,119014,1,0,0:0:0:0:
484,300,119091,1,4,0:0:0:0:
250,373,119245,6,0,P|242:348|248:375,1,82.5000031471254,10|0,0:2|0:0,0:0:0:0:
128,310,119399,5,4,0:0:0:0:
87,308,119475,1,0,0:0:0:0:
56,282,119552,1,2,0:2:0:0:
54,384,119707,1,8,0:2:0:0:
120,225,119861,1,2,0:2:0:0:
306,300,120015,1,4,0:0:0:0:
306,291,120091,1,0,0:0:0:0:
313,295,120168,2,0,P|357:261|368:225,1,82.5000031471254,2|0,0:2|0:0,0:0:0:0:
326,48,120322,1,8,0:2:0:0:
283,212,120476,1,2,0:2:0:0:
394,97,120630,6,0,P|344:83|202:77,1,165.000006294251,4|2,0:0|0:2,0:0:0:0:
52,156,120861,1,0,0:0:0:0:
52,156,120938,1,8,0:2:0:0:
238,145,121091,1,2,0:2:0:0:
223,84,121167,1,0,0:0:0:0:
181,41,121244,1,4,0:0:0:0:
115,205,121399,1,10,0:2:0:0:
131,177,121475,1,0,0:0:0:0:
133,137,121553,5,4,0:0:0:0:
103,206,121631,1,0,0:0:0:0:
158,254,121707,1,10,0:2:0:0:
213,302,121784,1,0,0:0:0:0:
183,371,121861,1,4,0:0:0:0:
265,230,122015,5,2,0:2:0:0:
314,218,122091,1,0,0:0:0:0:
364,206,122168,1,8,0:2:0:0:
303,310,122322,1,2,0:2:0:0:
259,147,122476,1,4,0:0:0:0:
260,138,122552,1,0,0:0:0:0:
262,130,122629,1,2,0:2:0:0:
263,122,122706,1,0,0:0:0:0:
274,105,122784,5,8,0:2:0:0:
246,1,122938,1,2,0:2:0:0:
265,230,123091,6,0,L|147:204,1,82.5000031471254,4|0,0:0|0:0,0:0:0:0:
49,242,123245,1,2,0:2:0:0:
45,200,123321,1,0,0:0:0:0:
23,165,123398,1,8,0:2:0:0:
117,322,123553,1,2,0:2:0:0:
156,274,123629,1,0,0:0:0:0:
171,214,123706,1,4,0:0:0:0:
215,369,123861,2,0,P|288:358|303:367,1,82.5000031471254,10|0,0:2|0:0,0:0:0:0:
454,339,124015,1,4,0:0:0:0:
397,338,124091,1,0,0:0:0:0:
353,302,124168,1,10,0:2:0:0:
343,246,124245,1,0,0:0:0:0:
427,254,124322,5,4,0:0:0:0:
427,263,124399,1,0,0:0:0:0:
420,259,124476,1,2,0:2:0:0:
358,160,124630,2,0,B|366:144|381:129|381:129|359:141|345:170,1,82.5000031471254,8|0,0:2|0:0,0:0:0:0:
263,283,124784,2,0,P|229:259|214:222,1,82.5000031471254,2|0,0:2|0:0,0:0:0:0:
263,85,124938,1,4,0:0:0:0:
263,94,125015,1,0,0:0:0:0:
270,90,125092,1,2,0:2:0:0:
134,223,125245,2,0,L|11:216,1,82.5000031471254,8|0,0:2|3:0,0:0:0:0:
271,287,125399,2,0,L|353:291,1,82.5000031471254,2|0,3:2|3:0,0:0:0:0:
52,295,125553,6,0,B|19:253|19:253|43:133,1,165.000006294251,4|2,0:0|0:2,0:0:0:0:
50,5,125784,1,0,0:0:0:0:
57,0,125861,2,0,B|72:7|72:7|55:92,1,82.5000031471254,8|0,0:2|0:0,0:0:0:0:
158,77,126015,1,2,0:2:0:0:
165,76,126091,1,0,0:0:0:0:
173,76,126168,2,0,B|181:90|181:90|121:152,1,82.5000031471254,4|0,0:0|0:0,0:0:0:0:
63,301,126322,5,10,0:2:0:0:
70,306,126399,1,0,0:0:0:0:
86,313,126476,1,4,0:0:0:0:
126,318,126553,1,0,0:0:0:0:
181,302,126630,1,10,0:2:0:0:
232,248,126707,1,0,0:0:0:0:
223,162,126784,6,0,B|308:186|308:186|317:279,1,165,6|0,0:0|0:0,0:0:0:0:
242,335,127091,2,0,B|157:311|157:311|148:218,1,165,6|0,0:0|0:0,0:0:0:0:
232,248,127399,5,4,0:0:0:0:
227,245,127476,1,0,0:0:0:0:
231,242,127553,1,2,0:2:0:0:
313,181,127707,6,0,P|314:176|313:180,1,55,2|0,0:2|0:0,0:0:0:0:
146,314,127861,2,0,P|145:319|146:315,1,55,2|0,0:2|0:0,0:0:0:0:
315,274,128015,6,0,B|392:284|392:284|397:287|397:287|485:297,1,165.000006294251,4|2,0:0|0:2,0:0:0:0:
438,141,128245,1,0,0:0:0:0:
366,124,128322,2,0,B|356:161|356:161|384:195,1,82.5000031471254,8|0,0:2|0:0,0:0:0:0:
511,159,128476,2,0,B|520:121|520:121|492:87,1,82.5000031471254,2|0,0:2|0:0,0:0:0:0:
461,218,128630,1,4,0:0:0:0:
414,59,128784,5,10,0:2:0:0:
414,50,128861,1,0,0:0:0:0:
421,54,128938,5,4,0:0:0:0:
364,43,129015,1,0,0:0:0:0:
310,61,129091,1,10,0:2:0:0:
281,111,129168,1,0,0:0:0:0:
288,168,129245,5,4,0:0:0:0:
286,161,129322,1,0,3:0:0:0:
280,166,129399,1,2,3:2:0:0:
2,34,129553,6,0,L|85:41,1,82.5000031471254,8|0,0:2|0:0,0:0:0:0:
114,122,129707,2,0,L|197:129,1,82.5000031471254,2|0,0:2|0:0,0:0:0:0:
347,226,129861,1,4,0:0:0:0:
404,221,129937,1,0,0:0:0:0:
461,218,130015,1,2,0:2:0:0:
263,254,130168,2,0,B|252:277|234:289|234:289|256:281|272:261,1,82.5000031471254,8|0,0:2|0:0,0:0:0:0:
366,124,130322,1,2,0:2:0:0:
499,314,130476,6,0,B|494:321|494:321|314:312,1,165.000006294251,4|2,0:0|0:2,0:0:0:0:
108,263,130707,1,0,0:0:0:0:
30,228,130784,2,0,B|96:178|96:178|184:215,1,165.000006294251,8|2,0:2|0:2,0:0:0:0:
129,110,131015,1,0,0:0:0:0:
98,30,131092,2,0,B|180:41|180:41|216:129,1,165.000006294251,4|10,0:0|0:2,0:0:0:0:
259,277,131322,1,0,0:0:0:0:
250,284,131399,5,4,0:0:0:0:
249,227,131475,1,0,0:0:0:0:
281,179,131552,1,10,0:2:0:0:
334,158,131629,1,0,0:0:0:0:
389,171,131706,1,4,0:0:0:0:
221,359,131861,1,2,0:2:0:0:
187,335,131937,1,0,0:0:0:0:
169,298,132014,1,8,0:2:0:0:
339,252,132168,1,2,0:2:0:0:
167,213,132322,5,6,0:0:0:0:
159,214,132399,2,0,L|75:202,1,82.5000031471254,2|2,0:0|0:2,0:0:0:0:
322,342,132630,1,6,0:0:0:0:
330,343,132707,2,0,L|414:331,1,82.5000031471254,2|2,0:0|0:2,0:0:0:0:
273,184,132938,6,0,L|257:10,1,165.000006294251,4|2,0:0|0:2,0:0:0:0:
353,173,133168,1,0,0:0:0:0:
367,256,133245,2,0,B|433:207|433:207|421:107,1,165.000006294251,8|2,0:2|0:2,0:0:0:0:
187,186,133476,1,0,0:0:0:0:
196,269,133553,2,0,B|119:240|119:240|103:140,1,165.000006294251,4|10,0:0|0:2,0:0:0:0:
245,363,133861,5,4,0:0:0:0:
272,312,133937,1,0,0:0:0:0:
318,277,134014,1,10,0:2:0:0:
373,262,134091,1,0,0:0:0:0:
430,269,134168,1,4,0:0:0:0:
427,276,134245,1,0,0:0:0:0:
424,283,134322,1,2,0:2:0:0:
350,178,134476,6,0,P|321:136|333:83,1,82.5000031471254,8|0,0:2|0:0,0:0:0:0:
434,0,134630,2,0,P|431:40|405:71,1,82.5000031471254,2|0,0:2|0:0,0:0:0:0:
164,141,134784,1,4,0:0:0:0:
106,141,134860,1,0,0:0:0:0:
62,103,134937,1,2,0:2:0:0:
158,225,135091,1,8,0:2:0:0:
199,222,135168,1,0,0:0:0:0:
228,194,135244,1,2,0:2:0:0:
134,57,135399,5,4,0:0:0:0:
309,175,135553,1,2,0:2:0:0:
309,233,135629,1,0,0:0:0:0:
271,277,135706,1,8,0:2:0:0:
343,89,135861,1,2,0:2:0:0:
392,138,135937,1,0,0:0:0:0:
397,207,136014,1,4,0:0:0:0:
317,9,136168,1,10,0:2:0:0:
315,0,136245,1,0,0:0:0:0:
307,5,136323,5,4,0:0:0:0:
341,3,136399,1,0,0:0:0:0:
389,11,136476,1,10,0:2:0:0:
450,46,136553,1,0,0:0:0:0:
497,105,136630,6,0,B|433:157|433:157|261:134,1,247.500009441376,4|0,0:0|0:0,0:0:0:0:
19,177,136938,6,0,B|73:220|73:220|217:200,1,214.49999018097,4|0,0:0|0:0,0:0:0:0:
438,244,137245,6,0,B|390:281|390:281|264:264,1,181.500005538941,4|0,0:0|0:0,0:0:0:0:
180,286,137553,6,0,B|183:327|183:327|209:271,1,82.5000031471254,4|0,0:0|0:0,0:0:0:0:
348,198,137707,2,0,B|351:157|351:157|368:194,1,82.5000031471254,2|0,0:2|0:0,0:0:0:0:
286,346,137861,6,0,B|270:263|270:263|274:256|274:256|256:163,1,165.000006294251,4|0,0:0|0:0,0:0:0:0:
203,88,138091,1,0,0:0:0:0:
197,95,138168,2,0,B|175:126|175:126|241:109,1,82.5000031471254,2|0,0:2|0:0,0:0:0:0:
274,52,138322,1,4,0:0:0:0:
417,112,138476,2,0,B|376:122|376:122|340:102,1,82.5000031471254,4|0,0:0|0:0,0:0:0:0:
154,16,138630,1,4,0:0:0:0:
253,196,138784,1,2,0:2:0:0:
253,187,138861,1,0,0:0:0:0:
260,192,138938,1,0,0:0:0:0:
430,209,139091,5,4,0:0:0:0:
419,248,139167,1,0,0:0:0:0:
392,278,139244,1,4,0:0:0:0:
354,293,139321,1,0,0:0:0:0:
313,289,139399,2,0,L|226:281,1,82.5000031471254,2|0,0:2|0:0,0:0:0:0:
84,279,139553,1,0,0:0:0:0:
75,272,139630,1,0,0:0:0:0:
79,263,139707,2,0,L|166:255,1,82.5000031471254,4|0,0:0|0:0,0:0:0:0:
342,210,139861,1,4,0:0:0:0:
150,161,140015,6,0,B|242:205|242:205|305:133,1,197.99999395752,2|0,0:2|0:0,0:0:0:0:
207,78,140322,6,0,P|227:103|204:82,1,82.5000031471254,4|0,0:0|0:0,0:0:0:0:
352,74,140476,1,0,0:0:0:0:
364,65,140552,1,0,0:0:0:0:
382,63,140630,2,0,P|404:112|392:155,1,82.5000031471254,2|0,0:2|0:0,0:0:0:0:
473,171,140784,1,0,0:0:0:0:
486,178,140860,1,0,0:0:0:0:
495,193,140938,2,0,P|459:233|415:239,1,82.5000031471254,4|0,0:0|0:0,0:0:0:0:
342,219,141091,1,4,0:0:0:0:
342,210,141168,1,0,0:0:0:0:
349,214,141245,1,2,0:2:0:0:
440,336,141399,2,0,P|406:325|398:318,2,41.2500015735627,0|0|0,0:0|0:0|0:0,0:0:0:0:
274,341,141553,5,4,0:0:0:0:
242,314,141629,1,0,0:0:0:0:
205,296,141706,1,4,0:0:0:0:
165,288,141783,1,0,0:0:0:0:
124,291,141861,2,0,B|131:314|110:343|110:343|102:277|32:217,1,165.000006294251,2|0,0:2|0:0,0:0:0:0:
38,104,142168,6,0,B|20:117|20:117|120:126,1,82.5000031471254,4|0,0:0|0:0,0:0:0:0:
273,84,142322,2,0,B|212:89|212:89|230:102,1,82.5000031471254,4|0,0:0|0:0,0:0:0:0:
457,127,142476,2,0,B|444:107|444:107|460:89|460:89|484:102|484:102|476:124|476:124|454:127,1,110,2|0,0:2|0:0,0:0:0:0:
333,26,142784,6,0,B|374:9|374:9|420:42,1,82.5000031471254,4|0,0:0|0:0,0:0:0:0:
394,179,142938,2,0,B|353:196|353:196|307:163,1,82.5000031471254,0|0,0:0|0:0,0:0:0:0:
366,105,143091,1,2,0:2:0:0:
333,79,143167,1,0,0:0:0:0:
295,62,143244,1,0,0:0:0:0:
255,53,143321,1,0,0:0:0:0:
184,89,143398,5,4,0:0:0:0:
251,122,143476,1,0,0:0:0:0:
300,67,143553,1,0,0:0:0:0:
350,13,143630,1,0,0:0:0:0:
417,46,143708,1,2,0:2:0:0:
120,20,143861,6,0,P|92:77|92:103,1,82.5000031471254,0|0,0:0|0:0,0:0:0:0:
156,202,144015,1,4,0:0:0:0:
163,197,144091,1,0,0:0:0:0:
160,208,144168,6,0,P|137:194|119:174,2,55,0|0|0,0:0|0:0|0:0,0:0:0:0:
293,289,144322,1,2,0:2:0:0:
299,264,144399,1,0,0:0:0:0:
335,228,144476,1,0,0:0:0:0:
384,220,144553,1,0,0:0:0:0:
409,229,144630,6,0,L|411:251,1,20.6250007867813,6|0,0:0|0:0,0:0:0:0:
419,239,144707,2,0,L|435:253,1,20.6250007867813,2|0,0:0|0:0,0:0:0:0:
427,231,144784,2,0,L|447:223,1,20.6250007867813,6|0,0:0|0:0,0:0:0:0:
417,218,144861,2,0,L|415:196,1,20.6250007867813,2|0,0:0|0:0,0:0:0:0:
406,233,144938,6,0,B|313:228|375:164|221:142,1,165,2|0,0:2|0:0,0:0:0:0:
188,157,145091,2,0,B|178:131|178:131|197:110,2,55,0|0|0,0:0|0:0|0:0,0:0:0:0:
274,63,145245,6,0,B|314:56|314:56|339:89,1,82.5000031471254,4|0,0:0|0:0,0:0:0:0:
285,252,145399,2,0,B|246:266|246:266|215:238,1,82.5000031471254,4|0,0:0|0:0,0:0:0:0:
279,168,145553,5,2,0:2:0:0:
271,165,145630,1,0,0:0:0:0:
271,157,145707,1,4,0:0:0:0:
279,154,145784,1,4,0:0:0:0:
283,161,145861,1,4,0:0:0:0:
408,137,146015,1,4,0:0:0:0:
430,126,146091,1,0,0:0:0:0:
447,109,146168,1,2,0:2:0:0:
268,68,146322,1,4,0:0:0:0:
381,223,146476,5,4,0:0:0:0:
379,239,146552,1,0,0:0:0:0:
377,255,146629,1,0,0:0:0:0:
375,272,146707,1,0,0:0:0:0:
372,303,146784,5,2,0:2:0:0:
368,273,146862,1,0,0:0:0:0:
365,242,146939,1,0,0:0:0:0:
361,211,147015,1,0,0:0:0:0:
357,178,147091,6,0,L|347:93,1,82.5000031471254,4|0,0:0|0:0,0:0:0:0:
371,24,147245,2,0,B|332:8|332:8|301:35,1,82.5000031471254,4|0,0:0|0:0,0:0:0:0:
267,152,147399,6,0,P|255:165|227:176,1,41.2500015735627,2|0,0:2|0:0,0:0:0:0:
252,150,147476,6,0,P|219:154|203:149,1,44,2|0,0:0|0:0,0:0:0:0:
241,142,147553,6,0,P|204:124|196:113,1,46.7500008916855,2|0,0:0|0:0,0:0:0:0:
230,127,147630,6,0,P|199:92|193:70,1,49.4999984893799,2|0,0:0|0:0,0:0:0:0:
228,106,147707,6,0,P|207:53|208:18,1,82.5000031471254,4|0,0:0|0:0,0:0:0:0:
423,93,147861,2,0,P|436:105|427:94,1,82.5000031471254,2|0,0:2|0:0,0:0:0:0:
282,260,148015,2,0,P|168:264|122:298,1,165.000006294251,8|2,0:2|0:2,0:0:0:0:
44,164,148245,5,0,0:0:0:0:
54,159,148322,2,0,P|80:199|69:241,1,82.5000031471254,4|0,0:0|0:0,0:0:0:0:
25,377,148476,2,0,P|21:336|45:304,1,82.5000031471254,10|0,0:2|0:0,0:0:0:0:
205,245,148630,2,0,P|286:252|350:302,1,165.000006294251,4|10,0:0|0:2,0:0:0:0:
512,167,148938,5,4,0:0:0:0:
473,125,149014,1,0,0:0:0:0:
417,121,149091,1,2,0:2:0:0:
372,155,149168,1,0,0:0:0:0:
363,211,149245,1,8,0:2:0:0:
430,342,149399,5,2,0:2:0:0:
285,173,149553,1,4,0:0:0:0:
281,132,149629,1,0,0:0:0:0:
294,93,149706,1,2,0:2:0:0:
264,267,149861,5,8,0:2:0:0:
205,245,149938,1,0,0:0:0:0:
182,203,150015,1,2,0:2:0:0:
180,168,150091,1,0,0:0:0:0:
186,155,150168,1,4,0:0:0:0:
365,145,150322,5,2,0:2:0:0:
371,149,150399,1,0,0:0:0:0:
364,153,150476,1,8,0:2:0:0:
185,70,150630,2,0,B|168:58|185:32|185:32|220:39|213:69,1,82.5000031471254,2|0,0:2|0:0,0:0:0:0:
295,58,150784,2,0,B|291:38|322:31|322:31|341:61|315:77,1,82.5000031471254,4|0,0:0|0:0,0:0:0:0:
170,170,150938,1,10,0:2:0:0:
359,156,151091,1,4,0:0:0:0:
416,160,151167,1,0,0:0:0:0:
474,164,151244,1,10,0:2:0:0:
315,246,151399,6,0,P|259:195|238:189,1,82.5000031471254,4|0,0:0|0:0,0:0:0:0:
88,213,151553,1,2,0:2:0:0:
63,245,151629,1,4,0:0:0:0:
28,266,151706,1,8,0:2:0:0:
0,112,151861,5,2,0:2:0:0:
7,101,152015,2,0,B|36:85|36:85|11:140|10:182,1,123.750004720688,8|0,0:2|0:0,0:0:0:0:
67,355,152322,5,8,0:2:0:0:
85,351,152399,1,0,0:0:0:0:
116,337,152476,1,2,0:2:0:0:
150,297,152553,1,0,0:0:0:0:
176,221,152630,6,0,P|173:169|211:87,1,82.5000031471254,4|0,0:0|0:0,0:0:0:0:
245,318,152784,2,0,B|260:329|282:330|282:330|263:322|247:297,1,82.5000031471254,2|0,0:2|0:0,0:0:0:0:
178,127,152938,2,0,P|212:88|297:56,1,82.5000031471254,8|0,0:2|0:0,0:0:0:0:
315,258,153091,1,2,0:2:0:0:
317,58,153245,5,4,0:0:0:0:
317,49,153322,1,0,0:0:0:0:
324,53,153399,1,10,0:2:0:0:
499,157,153553,2,0,B|425:173|425:173|313:141,1,165.000006294251,4|10,0:0|0:2,0:0:0:0:
164,216,153861,5,4,0:0:0:0:
111,198,153938,1,0,0:0:0:0:
81,150,154015,1,2,0:2:0:0:
88,94,154092,1,0,0:0:0:0:
131,57,154168,1,8,0:2:0:0:
201,292,154322,6,0,P|280:261|317:224,1,82.5000031471254,2|0,0:2|0:0,0:0:0:0:
399,107,154476,1,4,0:0:0:0:
403,91,154552,1,4,0:0:0:0:
405,74,154629,1,10,0:2:0:0:
398,237,154784,1,4,0:0:0:0:
415,233,154861,1,4,0:0:0:0:
444,219,154938,1,10,0:2:0:0:
483,188,155015,1,0,0:0:0:0:
512,129,155091,1,4,0:0:0:0:
294,91,155245,5,2,0:2:0:0:
294,79,155322,1,0,0:0:0:0:
303,84,155399,1,8,0:2:0:0:
310,222,155553,1,2,0:2:0:0:
305,220,155630,1,0,0:0:0:0:
300,217,155707,1,4,0:0:0:0:
201,80,155861,6,0,P|151:65|108:72,1,82.5000031471254,10|0,0:2|0:0,0:0:0:0:
11,167,156015,1,4,0:0:0:0:
3,157,156091,1,0,0:0:0:0:
0,167,156168,6,0,P|15:129|43:100,1,82.4999974822999,10|0,0:2|0:0,0:0:0:0:
132,85,157553,6,0,P|132:104|130:88,1,82.5000031471254,4|0,0:0|0:0,0:0:0:0:
272,151,157707,2,0,P|343:158|377:144,1,82.5000031471254,2|0,0:2|0:0,0:0:0:0:
188,175,157861,2,0,B|160:186|148:186|148:186|165:191|200:184,1,82.5000031471254,8|0,0:2|0:0,0:0:0:0:
364,168,158015,2,0,P|410:113|418:77,1,82.5000031471254,2|0,0:2|0:0,0:0:0:0:
224,56,158168,5,4,0:0:0:0:
216,41,158244,1,0,0:0:0:0:
206,28,158322,1,10,0:2:0:0:
307,231,158476,2,0,L|316:52,1,165.000006294251,4|10,0:0|0:2,0:0:0:0:
445,225,158784,5,4,0:0:0:0:
427,279,158860,1,0,0:0:0:0:
385,318,158937,1,2,0:2:0:0:
330,330,159014,1,0,0:0:0:0:
275,313,159091,1,8,0:2:0:0:
34,251,159245,5,2,0:2:0:0:
40,260,159322,1,0,0:0:0:0:
26,262,159399,2,0,P|84:238|116:246,1,82.5000031471254,4|0,0:0|0:0,0:0:0:0:
193,351,159553,2,0,P|191:310|168:276,1,82.5000031471254,10|0,0:2|0:0,0:0:0:0:
26,139,159707,1,4,0:0:0:0:
27,98,159783,1,0,0:0:0:0:
50,64,159860,1,10,0:2:0:0:
199,107,160015,6,0,L|297:94,1,82.5000031471254,4|0,0:0|0:0,0:0:0:0:
117,121,160168,1,2,0:2:0:0:
108,121,160245,1,0,0:0:0:0:
112,128,160322,1,8,0:2:0:0:
295,93,160476,2,0,L|282:191,1,82.5000031471254,2|0,0:2|0:0,0:0:0:0:
196,292,160630,5,4,0:0:0:0:
197,303,160706,1,0,0:0:0:0:
199,314,160783,1,10,0:2:0:0:
372,229,160938,1,4,0:0:0:0:
333,241,161015,1,0,0:0:0:0:
297,261,161091,1,10,0:2:0:0:
102,289,161245,5,4,0:0:0:0:
64,246,161321,1,0,0:0:0:0:
63,189,161399,1,2,0:2:0:0:
99,145,161475,1,0,0:0:0:0:
154,133,161553,2,0,B|234:137|234:137|239:138|239:138|352:146,1,165.000006294251,8|2,0:2|0:2,0:0:0:0:
163,48,161861,6,0,P|144:21|142:10,2,41.2500015735627,4|0|10,0:0|0:0|0:2,0:0:0:0:
154,231,162091,1,0,0:0:0:0:
148,218,162168,2,0,P|125:241|121:251,2,41.2500015735627,4|0|10,0:0|0:0|0:2,0:0:0:0:
318,143,162399,5,0,0:0:0:0:
315,153,162476,2,0,B|394:148|394:148|399:146|399:146|479:142,1,165.000006294251,4|2,0:0|0:2,0:0:0:0:
295,69,162707,1,0,0:0:0:0:
282,70,162784,2,0,B|246:94|246:94|236:151,1,82.5000031471254,8|0,0:2|0:0,0:0:0:0:
323,298,162938,1,2,0:2:0:0:
150,157,163091,1,4,0:0:0:0:
150,148,163168,1,0,0:0:0:0:
157,152,163245,2,0,B|165:194|165:194|213:225,1,82.5000031471254,10|0,0:2|0:0,0:0:0:0:
372,222,163399,1,4,0:0:0:0:
168,288,163553,1,10,0:2:0:0:
338,321,163707,5,4,0:0:0:0:
351,265,163783,1,0,0:0:0:0:
382,216,163860,1,2,0:2:0:0:
427,181,163937,1,0,0:0:0:0:
482,164,164014,1,8,0:2:0:0:
442,324,164168,6,0,B|428:362|428:362|427:313,1,82.5000031471254,2|0,0:2|0:0,0:0:0:0:
304,186,164322,2,0,B|290:147|290:147|289:196,1,82.5000031471254,4|0,0:0|0:0,0:0:0:0:
495,250,164476,1,10,0:2:0:0:
368,118,164630,1,4,0:0:0:0:
381,79,164706,1,0,0:0:0:0:
404,44,164783,1,10,0:2:0:0:
201,121,164938,6,0,L|118:128,1,82.5000031471254,4|0,0:0|0:0,0:0:0:0:
268,76,165091,1,2,0:2:0:0:
276,90,165168,1,0,0:0:0:0:
281,106,165245,2,0,L|149:94,1,82.5000031471254,8|0,0:2|0:0,0:0:0:0:
459,118,165399,1,2,0:2:0:0:
256,183,165553,5,4,0:0:0:0:
248,197,165630,1,0,0:0:0:0:
243,213,165707,1,10,0:2:0:0:
136,41,165861,1,4,0:0:0:0:
119,87,165937,1,0,0:0:0:0:
119,136,166014,1,10,0:2:0:0:
176,272,166168,5,4,0:0:0:0:
133,233,166244,1,0,0:0:0:0:
77,227,166321,1,2,0:2:0:0:
27,254,166398,1,0,0:0:0:0:
2,306,166475,1,8,0:2:0:0:
241,330,166630,6,0,B|269:304|269:304|261:261,1,82.5000031471254,2|0,0:2|0:0,0:0:0:0:
146,146,166784,6,0,P|224:116|338:107,1,197.99999395752,4|0,0:2|0:0,0:0:0:0:
436,122,167091,2,0,P|340:98|241:103,1,197.99999395752,2|0,0:0|0:0,0:0:0:0:
78,184,167399,6,0,B|65:145|65:145|85:94,1,82.5000031471254,4|0,0:2|0:0,0:0:0:0:
68,264,167553,2,0,B|28:252|28:252|-2:207,1,82.5000031471254,2|0,0:2|0:0,0:0:0:0:
146,146,167707,1,8,0:2:0:0:
117,338,167861,1,2,0:2:0:0:
120,329,167938,1,0,0:0:0:0:
111,330,168015,6,0,P|149:332|236:280,1,82.5000031471254,4|0,0:0|0:0,0:0:0:0:
379,158,168168,2,0,B|392:178|388:200|388:200|378:174|368:166,1,82.5000031471254,10|0,0:2|0:0,0:0:0:0:
311,222,168322,2,0,P|240:208|148:254,1,165.000006294251,4|10,0:0|0:2,0:0:0:0:
409,340,168630,5,4,0:0:0:0:
438,290,168706,1,0,0:0:0:0:
442,233,168783,1,2,0:2:0:0:
419,181,168860,1,0,0:0:0:0:
375,145,168937,1,8,0:2:0:0:
159,139,169091,6,0,L|165:49,1,82.5000031471254,2|0,0:2|0:0,0:0:0:0:
243,157,169245,2,0,B|274:171|274:171|237:130,1,82.5000031471254,4|0,0:0|0:0,0:0:0:0:
74,124,169399,2,0,B|35:153|35:153|69:146,1,82.5000031471254,10|0,0:2|0:0,0:0:0:0:
196,237,169553,5,4,0:0:0:0:
219,304,169630,1,0,0:0:0:0:
252,327,169707,1,10,0:2:0:0:
282,334,169784,1,0,0:0:0:0:
295,333,169861,6,0,B|369:315|328:254|450:230,1,165.000006294251,4|2,0:0|0:2,0:0:0:0:
309,175,170091,1,0,0:0:0:0:
280,247,170168,2,0,B|319:181|247:167|316:64,1,165.000006294251,8|2,0:2|0:2,0:0:0:0:
500,229,170476,5,4,0:0:0:0:
500,220,170553,1,0,0:0:0:0:
507,224,170630,1,10,0:2:0:0:
382,64,170784,1,4,0:0:0:0:
357,30,170860,1,0,0:0:0:0:
322,9,170937,1,10,0:2:0:0:
116,173,171091,5,4,0:0:0:0:
144,123,171167,1,0,0:0:0:0:
190,89,171244,1,2,0:2:0:0:
246,77,171321,1,0,0:0:0:0:
302,88,171398,1,8,0:2:0:0:
183,263,171553,6,0,P|180:243|187:265,1,82.5000031471254,2|0,0:2|0:0,0:0:0:0:
418,206,171707,2,0,P|404:167|380:134,1,82.5000031471254,4|0,0:0|0:0,0:0:0:0:
252,51,171861,1,10,0:2:0:0:
251,68,171938,1,0,0:0:0:0:
243,58,172015,2,0,P|283:64|320:82,1,82.5000031471254,4|0,0:0|0:0,0:0:0:0:
359,148,172168,1,10,0:2:0:0:
88,108,172322,6,0,B|109:60|109:60|130:196,1,165.000006294251,4|2,0:0|0:2,0:0:0:0:
155,354,172630,1,8,0:2:0:0:
205,187,172784,1,2,0:2:0:0:
221,168,172860,1,0,0:0:0:0:
241,153,172938,2,0,P|286:146|345:161,1,82.5000031471254,4|0,0:0|0:0,0:0:0:0:
157,262,173091,1,10,0:2:0:0:
397,174,173245,6,0,B|439:169|439:169|394:159,1,82.5000031471254,4|0,0:0|0:0,0:0:0:0:
214,76,173399,2,0,B|201:37|201:37|227:71,1,82.5000031471254,10|0,0:2|0:0,0:0:0:0:
281,235,173553,5,4,0:0:0:0:
326,268,173629,1,0,0:0:0:0:
381,284,173706,1,2,0:2:0:0:
438,277,173783,1,0,0:0:0:0:
490,252,173860,1,8,0:2:0:0:
382,86,174015,5,2,0:2:0:0:
382,77,174091,1,0,0:0:0:0:
388,80,174168,2,0,L|252:74,1,82.5000031471254,4|0,0:0|0:0,0:0:0:0:
406,172,174322,1,10,0:2:0:0:
254,316,174476,5,4,0:0:0:0:
209,349,174552,1,0,0:0:0:0:
154,365,174629,1,10,0:2:0:0:
97,358,174706,1,0,0:0:0:0:
45,333,174783,1,4,0:0:0:0:
75,194,174938,5,2,0:2:0:0:
76,210,175014,1,0,0:0:0:0:
78,226,175091,2,0,B|94:236|94:236|88:165,1,82.5000031471254,8|0,0:2|0:0,0:0:0:0:
52,45,175245,2,0,B|36:35|36:35|42:106,1,82.5000031471254,2|0,0:2|0:0,0:0:0:0:
256,107,175399,5,6,0:0:0:0:
267,112,175476,2,0,L|356:119,1,82.5000031471254,2|2,0:0|0:2,0:0:0:0:
99,169,175707,1,6,0:0:0:0:
110,164,175784,2,0,L|192:157,1,82.5000031471254,2|2,0:0|0:2,0:0:0:0:
363,256,176015,5,4,0:0:0:0:
368,270,176091,1,0,0:0:0:0:
358,283,176168,1,2,0:2:0:0:
342,281,176245,1,0,0:0:0:0:
336,267,176322,2,0,P|348:182|372:95,1,165.000006294251,8|2,0:2|0:2,0:0:0:0:
436,40,176553,5,2,0:0:0:0:
443,33,176630,1,2,0:0:0:0:
280,101,176784,1,0,0:0:0:0:
276,84,176861,1,2,0:0:0:0:
279,67,176938,1,2,0:0:0:0:
183,244,177091,1,6,0:0:0:0:
153,224,177168,1,6,0:0:0:0:
133,196,177245,5,6,0:0:0:0:
279,203,177399,1,0,0:0:0:0:
62,256,177553,1,8,0:2:0:0:
262,289,177707,5,4,0:0:0:0:
259,305,177783,1,0,0:0:0:0:
257,321,177860,1,4,0:0:0:0:
215,149,178015,2,0,B|239:115|239:115|288:125,1,82.5000031471254,0|0,0:0|0:0,0:0:0:0:
366,221,178168,1,4,0:0:0:0:
380,227,178244,1,0,0:0:0:0:
395,234,178321,1,0,0:0:0:0:
361,123,178476,5,4,0:0:0:0:
451,299,178630,1,4,0:0:0:0:
481,272,178706,1,4,0:0:0:0:
495,233,178784,1,8,0:2:0:0:
417,67,178938,2,0,B|393:33|393:33|344:43,1,82.5000031471254,4|0,0:0|0:0,0:0:0:0:
179,148,179091,1,0,0:0:0:0:
265,27,179245,5,0,0:0:0:0:
265,18,179322,1,0,0:0:0:0:
272,22,179399,1,0,0:0:0:0:
258,44,179476,1,0,0:0:0:0:
226,65,179553,1,0,0:0:0:0:
169,68,179630,1,0,0:0:0:0:
103,39,179707,5,4,0:0:0:0:
95,36,179785,1,4,0:0:0:0:
95,28,179862,1,0,0:0:0:0:
103,25,179939,1,4,0:0:0:0:
107,32,180015,6,0,L|95:130,1,82.5000031471254,8|0,0:2|0:0,0:0:0:0:
161,264,180168,1,4,0:0:0:0:
169,267,180245,1,0,0:0:0:0:
173,260,180322,2,0,L|161:162,1,82.5000031471254,4|0,0:0|0:0,0:0:0:0:
88,233,180476,2,0,L|6:243,1,82.5000031471254,4|4,0:0|0:0,0:0:0:0:
247,210,180630,2,0,L|328:199,1,82.5000031471254,8|0,0:2|0:0,0:0:0:0:
440,298,180784,2,0,P|446:301|438:295,1,55,2|0,0:0|0:0,0:0:0:0:
441,286,180861,2,0,P|484:267|496:253,1,55,2|0,0:0|0:0,0:0:0:0:
438,278,180938,6,0,B|455:176|455:176|459:172|459:172|478:62|478:62|369:142,1,330,4|0,0:2|0:0,0:0:0:0:
295,58,181553,6,0,B|312:160|312:160|316:164|316:164|335:274|335:274|226:194,1,330,4|0,0:2|0:0,0:0:0:0:
87,181,182168,6,0,P|127:169|168:167,1,82.5000031471254,4|0,0:2|0:0,0:0:0:0:
383,132,182322,1,4,0:0:0:0:
380,121,182399,1,4,0:0:0:0:
389,126,182476,2,0,P|347:123|308:112,1,82.5000031471254,8|0,0:2|0:0,0:0:0:0:
145,47,182630,1,4,0:0:0:0:
152,42,182707,1,0,0:0:0:0:
143,34,182784,1,4,0:0:0:0:
158,99,182861,1,4,0:0:0:0:
174,162,182938,1,8,0:2:0:0:
30,245,183091,6,0,P|17:270|24:293,1,46.7500008916855,2|0,0:0|0:0,0:0:0:0:
5,275,183168,2,0,P|11:307|39:329,1,49.4999984893799,2|0,0:0|0:0,0:0:0:0:
12,329,183245,2,0,P|41:351|62:351,1,52.2499986047745,2|0,0:0|0:0,0:0:0:0:
51,370,183322,2,0,P|86:366|113:349,1,55,2|0,0:0|0:0,0:0:0:0:
109,372,183399,6,0,P|155:332|165:280,1,82.5000031471254,4|0,0:0|0:0,0:0:0:0:
79,95,183553,1,4,0:0:0:0:
205,244,183707,5,8,0:2:0:0:
258,222,183783,1,4,0:0:0:0:
315,225,183860,1,4,0:0:0:0:
366,251,183937,1,4,0:0:0:0:
401,296,184015,2,0,B|385:336|385:336|348:260,1,82.5000031471254,0|0,0:0|0:0,0:0:0:0:
346,143,184168,5,0,0:0:0:0:
371,110,184244,1,0,0:0:0:0:
408,94,184321,1,8,0:2:0:0:
422,97,184399,1,8,0:2:0:0:
440,100,184476,2,0,L|351:85,1,82.5000031471254,8|0,0:2|0:0,0:0:0:0:
142,179,184631,6,0,P|124:160|115:79,1,98.9999969787599,6|0,0:0|0:0,0:0:0:0:
213,73,184938,2,0,P|200:94|196:124,1,49.4999984893799,6|0,0:0|0:0,0:0:0:0:
30,125,185245,5,6,0:0:0:0:
271,158,185399,1,6,0:0:0:0:
24,108,185553,2,0,B|5:107|-7:124|-7:124|11:119|37:127,1,55,6|0,0:0|0:0,0:0:0:0:
273,176,185707,2,0,B|292:177|304:160|304:160|286:165|260:157,1,55,6|0,0:0|0:0,0:0:0:0:
97,63,185861,5,0,1:2:0:0:
90,61,185938,1,0,1:0:0:0:
90,55,186015,1,0,1:0:0:0:
95,54,186091,1,0,1:0:0:0:
99,56,186168,5,0,0:0:0:0:
111,60,186245,1,0,0:0:0:0:
138,83,186322,1,0,0:0:0:0:
149,133,186399,1,0,0:0:0:0:
120,189,186476,1,0,0:0:0:0:
91,245,186553,1,0,0:0:0:0:
102,295,186630,1,0,0:0:0:0:
129,317,186707,1,0,0:0:0:0:
141,320,186784,5,0,0:0:0:0:
145,324,186861,5,0,0:0:0:0:
151,322,186937,5,0,0:0:0:0:
150,316,187014,5,0,0:0:0:0:
144,315,187091,6,0,P|255:322|374:350,1,220,4|0,0:2|0:0,0:0:0:0:
440,339,188015,1,0,0:0:0:0:
440,339,188168,1,0,0:0:0:0:
468,257,188630,2,0,B|415:234|415:234|369:278,2,110,2|2|2,0:0|0:0|0:0,0:0:0:0:
440,339,189553,5,2,0:0:0:0:
460,257,189861,2,0,P|479:189|501:148,1,110,0|0,0:0|0:0,0:0:0:0:
469,75,190476,1,0,0:0:0:0:
469,75,190630,1,0,0:0:0:0:
379,76,191091,2,0,P|327:94|280:122,1,110,2|0,0:0|0:0,0:0:0:0:
211,170,191707,5,0,0:0:0:0:
206,172,192015,2,0,P|154:154|107:126,1,110,4|0,0:2|0:0,0:0:0:0:
248,252,192630,2,0,P|224:266|190:268,1,55,4|0,3:0|3:0,3:0:0:0:
208,89,193091,1,0,0:0:0:0:
213,80,193245,2,0,P|267:88|322:121,2,110,2|2|2,0:0|0:0|0:0,0:0:0:0:
167,251,194168,5,0,0:3:0:0:
167,242,194476,1,0,0:2:0:0:
174,246,194784,1,0,0:2:0:0:
210,321,195091,5,2,0:3:0:0:
210,164,195399,1,2,0:0:0:0:
87,252,195707,2,0,P|159:237|163:129,1,192.5,2|0,0:0|0:0,0:0:0:0:
93,31,196322,6,0,B|-7:109|-7:109|160:130|160:130|164:124|164:124|324:143,1,440,6|0,0:2|0:0,0:0:0:0:
381,126,196938,6,0,B|389:145|383:160|383:160|398:146|392:113,1,82.5000031471254,4|0,0:0|0:0,0:0:0:0:
219,212,197091,2,0,P|155:252|115:254,1,82.5000031471254,2|0,0:2|0:0,0:0:0:0:
271,139,197245,2,0,B|290:146|296:161|296:161|297:141|269:122,1,82.5000031471254,8|0,0:2|0:0,0:0:0:0:
141,268,197399,2,0,P|67:251|37:224,1,82.5000031471254,2|0,0:2|0:0,0:0:0:0:
83,84,197553,5,4,0:0:0:0:
83,75,197630,1,0,0:0:0:0:
90,79,197707,1,10,0:2:0:0:
219,212,197861,1,4,0:0:0:0:
258,223,197937,1,0,0:0:0:0:
299,229,198014,1,10,0:2:0:0:
340,228,198091,1,0,0:0:0:0:
380,221,198168,1,4,0:0:0:0:
123,264,198322,5,2,0:2:0:0:
140,300,198398,1,0,0:0:0:0:
172,326,198475,1,8,0:2:0:0:
25,208,198630,1,2,0:2:0:0:
6,256,198706,1,0,0:0:0:0:
12,310,198784,1,4,0:0:0:0:
19,95,198938,1,2,0:2:0:0:
22,85,199015,1,0,0:0:0:0:
10,90,199091,2,0,L|192:73,1,165.000006294251,8|2,0:2|0:2,0:0:0:0:
354,55,199322,5,0,0:0:0:0:
364,51,199399,2,0,P|307:128|243:124,1,165.000006294251,4|2,0:0|0:2,0:0:0:0:
424,133,199707,2,0,B|435:143|459:141|459:141|431:158|403:143,1,82.5000031471254,8|0,0:2|0:0,0:0:0:0:
246,45,199861,1,2,0:2:0:0:
215,270,200015,1,4,0:0:0:0:
224,260,200091,1,0,0:0:0:0:
225,271,200168,1,10,0:2:0:0:
177,237,200245,1,0,0:0:0:0:
165,180,200322,2,0,P|173:123|200:81,1,82.5000031471254,4|0,0:0|0:0,0:0:0:0:
311,258,200476,5,10,0:2:0:0:
306,298,200552,1,0,0:0:0:0:
285,333,200629,1,4,0:0:0:0:
253,182,200784,1,2,0:2:0:0:
29,263,200938,5,8,0:2:0:0:
8,191,201014,1,0,0:0:0:0:
23,120,201091,1,2,0:2:0:0:
72,65,201168,1,0,0:0:0:0:
140,39,201245,1,4,0:0:0:0:
193,47,201322,1,0,0:0:0:0:
223,70,201399,1,2,0:2:0:0:
234,91,201476,1,0,0:0:0:0:
236,102,201553,6,0,B|207:137|207:137|162:122,1,82.5000031471254,8|0,0:2|0:0,0:0:0:0:
188,39,201707,1,2,0:2:0:0:
230,212,201861,6,0,P|249:281|263:375,1,165.000006294251,4|2,0:0|0:2,0:0:0:0:
317,238,202168,2,0,B|358:237|358:237|312:273,1,82.5000031471254,8|0,0:2|0:0,0:0:0:0:
167,282,202322,1,2,0:2:0:0:
150,278,202398,1,0,0:0:0:0:
134,275,202475,1,4,0:0:0:0:
339,341,202630,1,10,0:2:0:0:
426,200,202784,6,0,B|395:147|395:147|333:158,1,123.750004720688,4|0,0:0|0:0,0:0:0:0:
177,193,203091,6,0,L|180:151,1,41.2500015735627,4|0,0:0|0:0,0:0:0:0:
258,128,203245,2,0,L|255:170,1,41.2500015735627,2|0,0:2|0:0,0:0:0:0:
94,195,203399,5,8,0:2:0:0:
81,190,203476,1,0,0:0:0:0:
57,167,203553,1,2,0:2:0:0:
42,120,203630,1,0,0:0:0:0:
50,50,203707,6,0,B|66:44|66:44|4:131|53:251,1,187.000003566742,4|2,0:0|0:2,0:0:0:0:
48,334,203938,1,0,0:0:0:0:
33,324,204015,5,8,0:2:0:0:
89,314,204091,1,0,0:0:0:0:
145,302,204168,1,2,0:2:0:0:
324,253,204322,6,0,P|321:305|221:323,1,165.000006294251,4|2,0:0|0:2,0:0:0:0:
38,206,204553,1,0,0:0:0:0:
44,193,204630,2,0,P|150:189|219:284,1,197.99999395752,8|2,0:2|0:2,0:0:0:0:
394,343,204861,5,0,0:0:0:0:
397,334,204938,2,0,P|413:280|409:240,1,82.5000031471254,4|0,0:0|0:0,0:0:0:0:
359,107,205091,1,10,0:2:0:0:
352,117,205168,1,0,0:0:0:0:
343,107,205245,2,0,P|371:136|388:173,1,82.5000031471254,4|0,0:0|0:0,0:0:0:0:
274,69,205399,2,0,P|236:55|195:55,1,82.5000031471254,10|0,0:2|0:0,0:0:0:0:
25,35,205553,6,0,L|30:90,4,43.9999986572266,4|0|0|2|0,0:0|0:0|0:0|0:2|0:0,0:0:0:0:
107,101,205861,6,0,L|124:-7,4,91.6666666666667,0|0|0|2|0,0:0|0:0|0:0|0:2|0:0,0:0:0:0:
239,238,206168,5,4,0:0:0:0:
275,155,206322,2,0,B|276:139|307:132|307:132|307:164|291:169,1,82.5000031471254,2|0,0:2|0:0,0:0:0:0:
150,247,206476,2,0,B|135:254|114:230|114:230|141:214|154:226,1,82.5000031471254,2|0,0:2|0:0,0:0:0:0:
293,310,206630,2,0,B|306:318|296:349|296:349|269:333|272:316,1,82.5000031471254,2|0,0:2|0:0,0:0:0:0:
183,149,206784,6,0,P|205:107|310:36,1,165.000006294251,4|2,0:0|0:2,0:0:0:0:
439,204,207091,1,8,0:2:0:0:
417,211,207167,1,0,0:0:0:0:
395,218,207245,1,2,0:2:0:0:
374,207,207321,1,0,0:0:0:0:
353,196,207399,1,4,0:0:0:0:
435,302,207553,2,0,B|452:315|454:328|454:328|461:305|435:286,1,82.5000031471254,10|2,0:2|0:2,0:0:0:0:
406,129,207707,2,0,B|432:110|425:87|425:87|423:100|406:113,1,82.5000031471254,4|0,0:0|0:0,0:0:0:0:
277,239,207861,1,10,0:2:0:0:
329,81,208015,5,4,0:0:0:0:
316,59,208091,1,0,0:0:0:0:
299,42,208168,1,2,0:2:0:0:
266,244,208322,1,8,0:2:0:0:
100,86,208476,1,2,0:2:0:0:
106,99,208553,1,0,0:0:0:0:
90,88,208630,2,0,L|263:115,1,165.000006294251,4|2,0:0|0:2,0:0:0:0:
457,84,208938,2,0,B|444:69|444:69|420:79,2,41.2500015735627,8|2|2,0:2|0:0|0:0,0:0:0:0:
427,228,209091,2,0,B|407:236|407:236|394:221,2,41.2500015735627,2|2|2,0:2|0:0|0:0,0:0:0:0:
365,137,209245,6,0,P|278:148|196:189,1,165.000006294251,4|2,0:0|0:2,0:0:0:0:
156,327,209553,1,8,0:2:0:0:
120,307,209630,1,0,0:0:0:0:
81,293,209707,1,2,0:2:0:0:
41,285,209784,1,0,0:0:0:0:
0,284,209860,1,4,0:0:0:0:
249,298,210015,1,10,0:2:0:0:
236,242,210091,1,0,0:0:0:0:
203,194,210168,1,4,0:0:0:0:
225,384,210322,1,10,0:2:0:0:
107,156,210476,5,4,0:0:0:0:
149,116,210552,1,0,0:0:0:0:
202,94,210629,1,2,0:2:0:0:
259,92,210706,1,0,0:0:0:0:
313,111,210783,1,8,0:2:0:0:
459,217,210938,6,0,P|467:219|461:218,1,82.5000031471254,2|0,0:2|0:0,0:0:0:0:
401,280,211091,2,0,P|377:272|351:253,1,41.2500015735627,6|2,0:0|0:0,0:0:0:0:
208,182,211245,1,10,0:2:0:0:
221,181,211322,1,0,0:0:0:0:
241,188,211399,6,0,B|185:128|185:128|88:160,1,165.000006294251,4|10,0:0|0:2,0:0:0:0:
22,298,211707,2,0,B|100:323|100:323|156:263,1,165.000006294251,4|2,0:0|0:2,0:0:0:0:
149,116,212015,6,0,L|133:22,1,82.5000031471254,8|0,0:2|0:0,0:0:0:0:
81,236,212168,1,2,0:2:0:0:
81,227,212245,1,0,0:0:0:0:
88,231,212322,1,4,0:0:0:0:
61,80,212476,1,10,0:2:0:0:
174,223,212630,2,0,P|174:199|169:216,1,82.5000031471254,4|0,0:0|0:0,0:0:0:0:
264,126,212784,1,10,0:2:0:0:
296,101,212860,1,0,0:0:0:0:
336,96,212938,2,0,B|373:116|373:116|299:99,1,82.5000031471254,4|0,0:0|0:0,0:0:0:0:
223,57,213091,2,0,B|184:67|184:67|221:47,1,82.5000031471254,2|0,0:2|0:0,0:0:0:0:
426,47,213245,6,0,B|459:52|459:52|440:231,1,197.99999395752,8|0,0:2|0:0,0:0:0:0:
212,299,213553,6,0,B|174:223|174:223|372:278,1,264,4|0,0:0|0:0,0:0:0:0:
405,330,213860,5,8,0:2:0:0:
411,323,213937,1,0,0:0:0:0:
416,316,214014,1,2,0:2:0:0:
421,308,214091,1,0,0:0:0:0:
424,300,214168,2,0,L|271:260,1,82.5000031471254,4|0,0:0|0:0,0:0:0:0:
140,256,214322,1,2,0:2:0:0:
135,248,214399,1,0,0:0:0:0:
132,239,214476,2,0,L|285:199,1,82.5000031471254,8|0,0:2|0:0,0:0:0:0:
349,195,214630,1,2,0:2:0:0:
353,187,214707,1,0,0:0:0:0:
356,178,214784,6,0,L|203:138,1,82.5000031471254,4|0,0:0|0:0,0:0:0:0:
165,99,214938,2,0,L|318:59,1,82.5000031471254,10|0,0:2|0:0,0:0:0:0:
288,12,215091,5,4,0:0:0:0:
288,3,215168,1,0,0:0:0:0:
281,7,215245,1,10,0:2:0:0:
292,286,215399,6,0,P|286:218|269:156,1,123.750004720688,4|0,0:2|0:0,0:0:0:0:
192,129,215707,5,0,0:0:0:0:
193,119,215784,2,0,P|179:134|185:153,2,41.2500015735627,0|0|0,0:0|0:0|0:0,0:0:0:0:
244,209,216015,2,0,P|263:212|277:198,1,41.2500015735627,0|0,0:0|0:0,0:0:0:0:
296,120,216168,2,0,P|289:101|270:96,1,41.2500015735627,0|0,0:0|0:0,0:0:0:0:
145,226,216322,6,0,L|162:263,2,41.2500015735627,2|2|2,0:0|0:0|0:0,0:0:0:0:
55,210,216476,2,0,L|72:172,2,41.2500015735627,2|2|2,0:0|0:0|0:0,0:0:0:0:
252,220,216630,6,0,P|374:233|447:252,1,165.000006294251,4|0,0:0|0:0,0:0:0:0:
470,329,216861,1,0,0:0:0:0:
459,336,216938,2,0,P|399:333|374:296,1,82.5000031471254,8|0,0:2|0:0,0:0:0:0:
385,146,217091,1,0,0:0:0:0:
305,331,217245,1,4,0:0:0:0:
279,362,217321,1,0,0:0:0:0:
239,370,217398,1,8,0:2:0:0:
329,197,217553,1,0,0:0:0:0:
338,216,217629,1,0,0:0:0:0:
333,235,217706,1,4,0:0:0:0:
116,176,217861,6,0,B|107:166|107:166|139:155|199:180,1,82.5000031471254,4|0,0:0|0:0,0:0:0:0:
229,285,218015,1,4,0:0:0:0:
263,127,218168,2,0,L|252:26,1,82.5000031471254,8|0,0:2|0:0,0:0:0:0:
248,207,218322,1,4,0:0:0:0:
396,136,218476,1,4,0:0:0:0:
402,140,218553,1,4,0:0:0:0:
395,144,218630,1,8,0:2:0:0:
179,87,218784,1,0,0:0:0:0:
328,69,218938,1,0,0:0:0:0:
167,185,219091,6,0,B|149:162|149:162|82:155|82:155|80:157|80:157|14:151,1,165.000006294251,4|0,0:0|0:0,0:0:0:0:
114,31,219399,2,0,P|146:8|192:2,1,82.5000031471254,8|0,0:2|0:0,0:0:0:0:
272,12,219553,2,0,P|305:32|329:72,1,82.5000031471254,0|0,0:0|0:0,0:0:0:0:
264,158,219707,1,4,0:0:0:0:
396,28,219861,1,8,0:2:0:0:
344,149,220015,1,4,0:0:0:0:
337,189,220091,1,4,0:0:0:0:
313,222,220168,1,4,0:0:0:0:
224,78,220322,5,0,0:0:0:0:
292,320,220476,1,4,0:0:0:0:
353,311,220553,1,4,0:0:0:0:
400,265,220629,1,8,0:2:0:0:
209,299,220784,1,0,0:0:0:0:
176,274,220860,1,0,0:0:0:0:
156,238,220937,1,4,0:0:0:0:
151,197,221014,1,0,0:0:0:0:
162,158,221091,1,8,0:2:0:0:
349,86,221245,6,0,P|410:122|373:182,1,156.749995814324,2|0,0:0|0:0,0:0:0:0:
297,148,221399,6,0,B|209:138|259:86|152:68,1,165,2|0,0:0|0:0,0:0:0:0:
34,52,221553,6,0,B|78:22|78:22|72:89|58:204,1,165.000006294251,4|0,0:0|0:0,0:0:0:0:
42,279,221861,1,8,0:2:0:0:
162,158,222015,1,0,0:0:0:0:
155,163,222092,1,0,0:0:0:0:
155,154,222168,1,4,0:0:0:0:
124,308,222322,2,0,P|167:323|221:312,1,82.5000031471254,8|0,0:2|0:0,0:0:0:0:
348,248,222476,6,0,P|359:240|349:251,1,41.2500015735627,0|0,0:0|0:0,0:0:0:0:
347,237,222553,2,0,P|364:204|380:191,1,41.2500015735627,0|0,0:0|0:0,0:0:0:0:
362,223,222630,2,0,P|402:169|405:120,1,82.5000031471254,8|0,0:2|0:0,0:0:0:0:
337,56,222784,2,0,B|321:41|325:14|325:14|332:40|352:55,1,82.5000031471254,4|0,0:0|0:0,0:0:0:0:
286,183,222938,1,4,0:0:0:0:
402,0,223091,2,0,P|421:47|420:86,1,82.5000031471254,8|0,0:2|0:0,0:0:0:0:
209,180,223245,1,0,0:0:0:0:
211,163,223322,1,0,0:0:0:0:
217,148,223399,5,4,0:0:0:0:
243,199,223476,1,4,0:0:0:0:
238,256,223553,1,4,0:0:0:0:
36,152,223707,1,8,0:2:0:0:
32,160,223784,1,0,0:0:0:0:
22,159,223861,6,0,B|110:180|69:224|164:248,1,156.749995814324,2|0,0:0|0:0,0:0:0:0:
246,263,224015,6,0,P|316:243|347:250,1,82.5000031471254,4|0,0:0|0:0,0:0:0:0:
184,323,224168,1,4,0:0:0:0:
401,268,224322,1,8,0:2:0:0:
199,187,224476,1,0,0:0:0:0:
190,173,224552,1,0,0:0:0:0:
188,156,224629,1,4,0:0:0:0:
243,274,224784,1,8,0:2:0:0:
105,134,224938,1,0,0:0:0:0:
110,84,225015,1,0,0:0:0:0:
140,45,225091,6,0,B|245:20|245:20|343:65,1,214.49999018097,4|0,0:2|0:0,0:0:0:0:
494,132,225399,2,0,B|397:176|397:176|292:151,1,214.49999018097,4|0,0:2|0:0,0:0:0:0:
443,44,225707,5,4,0:0:0:0:
337,248,225861,1,4,0:0:0:0:
344,260,225938,1,4,0:0:0:0:
356,267,226015,1,4,0:0:0:0:
289,165,226168,6,0,L|220:182,1,71.4999967269899,2|0,0:0|0:0,0:0:0:0:
253,276,226322,2,0,L|184:260,1,71.4999967269899,2|0,0:0|0:0,0:0:0:0:
32,327,226476,6,0,B|44:162,1,165.000006294251,4|0,0:2|0:0,0:0:0:0:
112,313,226784,2,0,B|129:332|151:338|151:338|130:326|121:305,1,82.5000031471254,8|0,0:2|0:0,0:0:0:0:
124,119,226938,1,4,0:0:0:0:
128,125,227015,1,0,0:0:0:0:
120,126,227091,1,4,0:0:0:0:
183,259,227245,1,8,0:2:0:0:
197,76,227399,1,0,0:0:0:0:
216,61,227475,1,0,0:0:0:0:
240,55,227552,1,4,0:0:0:0:
270,256,227707,6,0,P|337:237|379:201,1,82.5000031471254,4|0,0:0|0:0,0:0:0:0:
325,49,227861,2,0,P|392:68|434:104,1,82.5000031471254,4|0,0:0|0:0,0:0:0:0:
418,190,228015,1,8,0:2:0:0:
175,162,228168,1,4,0:0:0:0:
178,152,228245,1,0,0:0:0:0:
168,156,228322,1,4,0:0:0:0:
225,165,228399,1,4,0:0:0:0:
282,175,228476,1,8,0:2:0:0:
127,234,228630,6,0,B|160:258|160:258|203:241,1,82.5000031471254,2|0,0:0|0:0,0:0:0:0:
219,82,228784,2,0,B|186:58|186:58|142:74,1,82.5000031471254,2|0,0:0|0:0,0:0:0:0:
215,253,228938,6,0,P|306:294|370:342,1,165.000006294251,4|0,0:2|0:0,0:0:0:0:
290,172,229245,2,0,P|347:179|398:200,1,82.5000031471254,8|0,0:2|0:0,0:0:0:0:
435,352,229399,1,4,0:0:0:0:
443,352,229476,1,0,0:0:0:0:
438,359,229553,1,4,0:0:0:0:
207,340,229707,1,8,0:2:0:0:
407,264,229861,5,4,0:0:0:0:
443,244,229938,1,4,0:0:0:0:
474,217,230014,1,4,0:0:0:0:
217,246,230168,1,0,0:0:0:0:
428,71,230322,1,4,0:0:0:0:
413,121,230398,1,4,0:0:0:0:
389,170,230475,1,8,0:2:0:0:
146,186,230630,2,0,P|199:157|238:163,1,82.5000031471254,2|0,0:0|0:0,0:0:0:0:
326,238,230784,6,0,P|321:220|327:235,1,82.5000031471254,6|0,0:0|0:0,0:0:0:0:
415,262,230938,6,0,P|443:277|461:303,1,41.2500015735627,6|0,0:0|0:0,0:0:0:0:
441,369,231091,6,0,P|341:301|323:105,1,313.499991628647,0|0,0:0|0:0,0:0:0:0:
400,66,231399,6,0,B|434:91|473:92|473:92|286:115,1,247.500009441376,4|0,0:0|0:0,0:0:0:0:
214,137,231707,2,0,B|228:176|261:198|261:198|91:116,1,247.500009441376,8|0,0:2|3:0,0:0:0:0:
28,153,232015,2,0,B|10:160|1:191|1:191|17:171|35:162,1,82.5000031471254,4|0,0:0|0:0,0:0:0:0:
155,53,232168,2,0,B|157:33|135:10|135:10|144:34|143:54,1,82.5000031471254,4|0,0:0|0:0,0:0:0:0:
91,226,232322,6,0,P|74:240|93:228,1,55,2|0,0:0|0:0,0:0:0:0:
174,260,232476,6,0,P|190:293|176:258,1,110,2|0,3:0|0:0,0:0:0:0:
264,201,232630,6,0,P|352:161|434:145,1,165.000006294251,4|4,0:0|0:0,0:0:0:0:
297,291,232938,1,8,0:2:0:0:
355,82,233091,5,0,0:0:0:0:
363,79,233168,1,0,0:0:0:0:
373,77,233245,5,4,0:0:0:0:
355,70,233322,1,4,0:0:0:0:
323,64,233399,1,0,1:0:0:0:
270,75,233476,1,0,1:0:0:0:
205,112,233553,1,0,1:0:0:0:
176,180,233630,1,0,1:0:0:0:
160,213,233707,1,0,1:0:0:0:
139,224,233784,1,0,1:0:0:0:
128,222,233861,6,0,P|208:240|282:276,1,165.000006294251,4|0,0:0|0:0,0:0:0:0:
450,321,234168,1,8,0:2:0:0:
288,269,234322,6,0,P|331:302|350:328,1,82.5000031471254,6|0,0:0|0:0,0:0:0:0:
381,384,234476,2,0,P|368:344|346:310,1,82.5000031471254,6|0,0:0|0:0,0:0:0:0:
457,314,234630,5,8,0:2:0:0:
483,196,234784,5,4,0:0:0:0:
371,64,234938,5,4,0:2:0:0:
371,64,236322,6,0,L|245:78,1,123.750004720688,4|0,0:0|0:0,0:0:0:0:
168,90,236630,1,2,0:2:0:0:
175,89,236938,1,4,0:0:0:0:
227,233,237091,1,4,0:0:0:0:
268,156,237245,2,0,P|323:164|362:181,1,82.5000031471254,2|0,0:2|0:0,0:0:0:0:
414,216,237553,2,0,P|447:260|462:300,1,82.5000031471254,4|0,0:0|0:0,0:0:0:0:
484,364,237861,1,2,0:2:0:0:
512,214,238168,1,4,0:0:0:0:
472,357,238322,1,4,0:0:0:0:
503,200,238476,6,0,P|490:138|482:74,1,123.750004720688,2|0,0:2|0:0,0:0:0:0:
486,6,238784,1,4,0:0:0:0:
416,32,239091,2,0,P|354:18|292:0,1,123.750004720688,2|0,0:2|0:0,0:0:0:0:
489,0,239399,1,4,0:0:0:0:
404,109,239553,1,4,0:0:0:0:
471,151,239707,2,0,P|414:148|331:173,1,123.750004720688,2|0,0:2|0:0,0:0:0:0:
281,200,240015,2,0,P|239:238|198:314,1,123.750004720688,4|0,0:0|0:0,0:0:0:0:
179,368,240322,1,2,0:2:0:0:
179,362,240630,1,4,0:0:0:0:
150,199,240784,1,4,0:0:0:0:
124,309,240938,6,0,P|76:278|-7:258,1,123.750004720688,2|0,0:2|0:0,0:0:0:0:
152,206,241245,1,4,0:0:0:0:
150,199,241553,2,0,P|153:156|171:112,1,82.5000031471254,2|0,0:2|0:0,0:0:0:0:
217,55,241861,1,4,0:0:0:0:
212,59,242015,1,4,0:0:0:0:
283,17,242168,2,0,P|325:10|372:17,1,82.5000031471254,2|0,0:2|3:0,0:0:0:0:
459,97,242476,2,0,P|409:44|344:21,1,123.750004720688,4|0,0:0|0:0,0:0:0:0:
283,17,242784,1,2,0:2:0:0:
378,115,243091,1,4,0:0:0:0:
321,296,243245,1,4,0:0:0:0:
331,210,243399,6,0,P|286:147|226:120,1,123.750004720688,2|0,0:2|0:0,0:0:0:0:
167,114,243707,2,0,P|93:134|47:181,1,123.750004720688,4|0,0:0|0:0,0:0:0:0:
14,231,244015,1,2,0:2:0:0:
21,236,244322,1,4,0:0:0:0:
91,104,244476,1,4,0:0:0:0:
23,58,244630,2,0,P|65:103|110:111,1,82.5000031471254,2|0,0:2|0:0,0:0:0:0:
289,40,244938,6,0,P|218:57|163:107,1,123.750004720688,4|0,0:0|0:0,0:0:0:0:
155,167,245245,2,0,P|193:229|196:303,1,123.750004720688,2|0,0:2|0:0,0:0:0:0:
182,357,245553,1,4,0:0:0:0:
185,350,245707,1,4,0:0:0:0:
240,144,245861,1,2,0:2:0:0:
177,365,246168,6,0,P|130:351|97:283,1,82.5000031471254,4|0,0:0|0:0,0:0:0:0:
280,308,246322,1,2,0:2:0:0:
272,310,246399,1,0,0:0:0:0:
263,312,246476,2,0,P|239:268|264:197,1,82.5000031471254,8|0,0:2|0:0,0:0:0:0:
50,280,246630,2,0,B|38:269|11:265|11:265|32:272|55:304,1,82.5000031471254,2|0,0:2|0:0,0:0:0:0:
275,166,246784,1,4,0:0:0:0:
310,144,246860,1,0,0:0:0:0:
351,143,246937,1,10,0:2:0:0:
509,300,247091,5,4,0:0:0:0:
447,300,247168,1,0,0:0:0:0:
408,278,247245,1,10,0:2:0:0:
385,252,247322,1,0,0:0:0:0:
376,230,247399,6,0,B|385:151|385:151|389:146|389:146|399:61,1,165.000006294251,4|2,0:0|0:2,0:0:0:0:
326,313,247707,2,0,P|290:259|230:233,1,82.5000031471254,8|0,0:2|0:0,0:0:0:0:
117,226,247861,1,2,0:2:0:0:
257,356,248015,1,4,0:0:0:0:
259,165,248168,1,2,0:2:0:0:
278,128,248244,1,0,0:0:0:0:
308,101,248321,1,8,0:2:0:0:
470,107,248476,5,2,0:2:0:0:
470,98,248553,1,0,0:0:0:0:
478,104,248630,2,0,P|379:82|270:108,1,165.000006294251,4|2,0:0|0:2,0:0:0:0:
181,217,248937,5,8,0:2:0:0:
194,225,249014,1,0,0:0:0:0:
206,237,249091,1,2,0:2:0:0:
216,250,249168,1,0,0:0:0:0:
223,265,249245,2,0,L|216:367,1,82.5000031471254,4|0,0:0|0:0,0:0:0:0:
347,223,249399,5,10,0:2:0:0:
323,190,249475,1,0,0:0:0:0:
283,180,249552,1,4,0:0:0:0:
276,183,249630,1,0,0:0:0:0:
271,188,249707,1,10,0:2:0:0:
405,305,249861,5,4,0:0:0:0:
446,265,249937,1,0,0:0:0:0:
469,213,250014,1,2,0:2:0:0:
468,155,250091,1,0,0:0:0:0:
445,103,250168,1,8,0:2:0:0:
322,306,250322,5,2,0:2:0:0:
311,103,250476,1,4,0:0:0:0:
312,87,250552,1,0,0:0:0:0:
328,82,250629,1,2,0:2:0:0:
339,93,250706,1,0,0:0:0:0:
334,107,250784,6,0,B|258:203|127:156|114:63|216:18|237:77,1,313.499991628647,8|0,0:2|0:0,0:0:0:0:
169,217,251091,6,0,P|135:276|130:314,1,82.5000031471254,4|0,0:2|0:0,0:0:0:0:
253,187,251245,2,0,B|262:165|257:146|257:146|257:164|235:193,1,82.5000031471254,2|0,0:2|0:0,0:0:0:0:
119,291,251399,2,0,P|123:358|140:393,1,82.5000031471254,8|0,0:2|0:0,0:0:0:0:
344,216,251553,2,0,P|369:199|339:206,1,82.5000031471254,2|0,0:2|0:0,0:0:0:0:
282,337,251707,5,4,0:0:0:0:
316,314,251783,1,0,0:0:0:0:
354,298,251860,1,10,0:2:0:0:
394,289,251937,1,0,0:0:0:0:
435,287,252014,5,4,0:0:0:0:
442,291,252091,1,0,0:0:0:0:
443,299,252168,1,10,0:2:0:0:
437,304,252245,1,0,0:0:0:0:
432,296,252322,6,0,P|505:324|521:337,1,82.5000031471254,4|0,0:0|0:0,0:0:0:0:
384,375,252476,1,2,0:2:0:0:
430,204,252630,6,0,B|435:119|435:119|437:118|437:118|442:38,1,165.000006294251,8|2,0:2|0:2,0:0:0:0:
350,166,252861,1,0,0:0:0:0:
362,250,252938,2,0,B|282:227|282:227|269:146,1,165.000006294251,4|2,0:0|0:2,0:0:0:0:
347,69,253245,6,0,B|228:34|228:34|156:134,1,247.500009441376,8|0,0:2|0:0,0:0:0:0:
261,145,253553,1,4,0:2:0:0:
70,80,253707,5,2,0:2:0:0:
72,148,253784,1,0,0:0:0:0:
87,182,253861,1,8,0:2:0:0:
101,200,253938,1,0,0:0:0:0:
110,206,254015,1,2,0:2:0:0:
134,321,254168,6,0,B|153:286|153:286|284:261,1,165.000006294251,4|10,0:0|0:2,0:0:0:0:
409,300,254399,1,0,0:0:0:0:
446,376,254476,2,0,B|497:309|497:309|463:230,1,165.000006294251,4|10,0:0|0:2,0:0:0:0:
446,70,254707,5,0,0:0:0:0:
453,58,254784,2,0,B|488:63|505:85|505:85|406:65|288:106,1,247.500009441376,4|0,0:2|0:0,0:0:0:0:
87,70,255091,6,0,P|164:82|200:104,1,82.5000031471254,8|0,0:2|0:0,0:0:0:0:
238,129,255245,2,0,P|283:191|293:232,1,82.5000031471254,2|0,0:2|0:0,0:0:0:0:
33,202,255399,6,0,P|128:194|211:218,1,165.000006294251,4|2,0:2|0:2,0:0:0:0:
284,293,255630,5,0,0:0:0:0:
293,300,255707,2,0,B|309:327|302:369|302:369|329:325|310:275,1,165,8|0,0:2|0:0,0:0:0:0:
208,293,256015,5,4,0:1:0:0:
256,192,256091,12,2,261284,2:0:0:0:
