osu file format v14

[General]
AudioFilename: Memorizing Test_H.mp3
AudioLeadIn: 0
PreviewTime: 78040
Countdown: 0
SampleSet: Soft
StackLeniency: 0.7
Mode: 3
LetterboxInBreaks: 0
SpecialStyle: 0
WidescreenStoryboard: 1

[Editor]
DistanceSpacing: 1
BeatDivisor: 4
GridSize: 4
TimelineZoom: 1.800006

[Metadata]
Title:Memorizing Test
TitleUnicode:Memorizing Test
Artist:DJ.Hamcheese
ArtistUnicode:DJ.Hamcheese
Creator:EZ2Radio
Version:Hard to Follow
Source:EZ2ON
Tags:
BeatmapID:1328582
BeatmapSetID:629071

[Difficulty]
HPDrainRate:10
CircleSize:4
OverallDifficulty:0
ApproachRate:5
SliderMultiplier:1.4
SliderTickRate:1

[Events]
//Background and Video events
0,0,"Sudden Death 1.png",0,0
//Break Periods
//Storyboard Layer 0 (Background)
//Storyboard Layer 1 (Fail)
//Storyboard Layer 2 (Pass)
//Storyboard Layer 3 (Foreground)
//Storyboard Sound Samples

[TimingPoints]
3206,468.75,4,2,1,30,1,0
3206,-100,4,2,1,30,0,0
27112,6,4,2,1,30,1,0
27112,-10,4,2,1,30,0,0
30862,468.75,4,2,1,30,1,0
30862,-100,4,2,1,30,0,0
34612,6,4,2,1,30,1,0
34612,-10,4,2,1,30,0,0
38362,468.75,4,2,1,30,1,0
38362,-100,4,2,1,30,0,0
42112,6,4,2,1,30,1,0
42112,-10,4,2,1,30,0,0
45862,468.75,4,2,1,30,1,0
45862,-100,4,2,1,30,0,0
49612,6,4,2,1,30,1,0
49612,-10,4,2,1,30,0,0
53362,468.75,4,2,1,30,1,0
53362,-100,4,2,1,30,0,0
57112,6,4,2,1,30,1,0
57112,-10,4,2,1,30,0,0
60862,468.75,4,2,1,30,1,0
60862,-100,4,2,1,30,0,0
64612,6,4,2,1,30,1,0
64612,-10,4,2,1,30,0,0
68362,468.75,4,2,1,30,1,0
68362,-100,4,2,1,30,0,0

[HitObjects]
64,192,8596,5,0,0:0:0:0:
64,192,8831,1,0,0:0:0:0:
64,192,9299,1,0,0:0:0:0:
64,192,9768,1,0,0:0:0:0:
64,192,10237,1,0,0:0:0:0:
64,192,10706,1,0,0:0:0:0:
64,192,11174,1,0,0:0:0:0:
64,192,11643,1,0,0:0:0:0:
64,192,12112,1,0,0:0:0:0:
64,192,12581,1,0,0:0:0:0:
64,192,13049,1,0,0:0:0:0:
64,192,13518,1,0,0:0:0:0:
64,192,13987,1,0,0:0:0:0:
64,192,14456,1,0,0:0:0:0:
64,192,14924,1,0,0:0:0:0:
64,192,15393,1,0,0:0:0:0:
64,192,15862,1,0,0:0:0:0:
64,192,16096,1,0,0:0:0:0:
64,192,16331,1,0,0:0:0:0:
64,192,16799,1,0,0:0:0:0:
64,192,17268,1,0,0:0:0:0:
64,192,17737,1,0,0:0:0:0:
64,192,18206,1,0,0:0:0:0:
64,192,18674,1,0,0:0:0:0:
64,192,19143,1,0,0:0:0:0:
64,192,19612,1,0,0:0:0:0:
64,192,20081,1,0,0:0:0:0:
64,192,20549,1,0,0:0:0:0:
64,192,21018,1,0,0:0:0:0:
64,192,21487,1,0,0:0:0:0:
64,192,21721,1,0,0:0:0:0:
192,192,23831,1,0,0:0:0:0:
448,192,24065,1,0,0:0:0:0:
64,192,24299,1,0,0:0:0:0:
320,192,24299,1,0,0:0:0:0:
448,192,24534,1,0,0:0:0:0:
192,192,24768,1,0,0:0:0:0:
448,192,25002,1,0,0:0:0:0:
320,192,25237,1,0,0:0:0:0:
64,192,25237,1,0,0:0:0:0:
320,192,25706,1,0,0:0:0:0:
64,192,25940,1,0,0:0:0:0:
192,192,26174,1,0,0:0:0:0:
448,192,26174,1,0,0:0:0:0:
64,192,26409,1,0,0:0:0:0:
320,192,26643,1,0,0:0:0:0:
64,192,26877,1,0,0:0:0:0:
192,192,27112,1,0,0:0:0:0:
448,192,27112,1,0,0:0:0:0:
192,192,27582,1,0,0:0:0:0:
448,192,27816,1,0,0:0:0:0:
320,192,28050,1,0,0:0:0:0:
64,192,28050,1,0,0:0:0:0:
448,192,28285,1,0,0:0:0:0:
192,192,28519,1,0,0:0:0:0:
448,192,28753,1,0,0:0:0:0:
320,192,28988,1,0,0:0:0:0:
64,192,28988,1,0,0:0:0:0:
320,192,29457,1,0,0:0:0:0:
64,192,29691,1,0,0:0:0:0:
192,192,29925,1,0,0:0:0:0:
448,192,29925,1,0,0:0:0:0:
64,192,30160,1,0,0:0:0:0:
320,192,30394,1,0,0:0:0:0:
64,192,30628,1,0,0:0:0:0:
192,192,30862,1,0,0:0:0:0:
448,192,30862,1,0,0:0:0:0:
64,192,31330,1,0,0:0:0:0:
192,192,31565,1,0,0:0:0:0:
448,192,31682,1,0,0:0:0:0:
320,192,31799,1,0,0:0:0:0:
64,192,31799,1,0,0:0:0:0:
448,192,32033,1,0,0:0:0:0:
64,192,32268,1,0,0:0:0:0:
192,192,32502,1,0,0:0:0:0:
448,192,32619,1,0,0:0:0:0:
64,192,32737,1,0,0:0:0:0:
320,192,32737,1,0,0:0:0:0:
64,192,33205,1,0,0:0:0:0:
192,192,33440,1,0,0:0:0:0:
448,192,33557,1,0,0:0:0:0:
64,192,33674,1,0,0:0:0:0:
320,192,33674,1,0,0:0:0:0:
448,192,33908,1,0,0:0:0:0:
64,192,34143,1,0,0:0:0:0:
192,192,34377,1,0,0:0:0:0:
448,192,34494,1,0,0:0:0:0:
320,192,34612,1,0,0:0:0:0:
64,192,34612,1,0,0:0:0:0:
64,192,35082,1,0,0:0:0:0:
192,192,35316,1,0,0:0:0:0:
448,192,35433,1,0,0:0:0:0:
320,192,35550,1,0,0:0:0:0:
64,192,35550,1,0,0:0:0:0:
448,192,35785,1,0,0:0:0:0:
64,192,36019,1,0,0:0:0:0:
192,192,36253,1,0,0:0:0:0:
448,192,36371,1,0,0:0:0:0:
320,192,36488,1,0,0:0:0:0:
64,192,36488,1,0,0:0:0:0:
64,192,36957,1,0,0:0:0:0:
192,192,37191,1,0,0:0:0:0:
448,192,37308,1,0,0:0:0:0:
320,192,37425,1,0,0:0:0:0:
64,192,37425,1,0,0:0:0:0:
448,192,37660,1,0,0:0:0:0:
64,192,37894,1,0,0:0:0:0:
192,192,38128,1,0,0:0:0:0:
448,192,38246,1,0,0:0:0:0:
320,192,38362,1,0,0:0:0:0:
64,192,38362,1,0,0:0:0:0:
448,192,38830,1,0,0:0:0:0:
64,192,39065,1,0,0:0:0:0:
320,192,39182,1,0,0:0:0:0:
448,192,39299,1,0,0:0:0:0:
192,192,39299,1,0,0:0:0:0:
64,192,39533,1,0,0:0:0:0:
448,192,39768,1,0,0:0:0:0:
64,192,40002,1,0,0:0:0:0:
320,192,40119,1,0,0:0:0:0:
448,192,40237,1,0,0:0:0:0:
192,192,40237,1,0,0:0:0:0:
448,192,40705,1,0,0:0:0:0:
64,192,40940,1,0,0:0:0:0:
320,192,41057,1,0,0:0:0:0:
448,192,41174,1,0,0:0:0:0:
192,192,41174,1,0,0:0:0:0:
64,192,41408,1,0,0:0:0:0:
448,192,41643,1,0,0:0:0:0:
64,192,41877,1,0,0:0:0:0:
320,192,41994,1,0,0:0:0:0:
448,192,42112,1,0,0:0:0:0:
192,192,42112,1,0,0:0:0:0:
448,192,42582,1,0,0:0:0:0:
64,192,42816,1,0,0:0:0:0:
320,192,42933,1,0,0:0:0:0:
448,192,43050,1,0,0:0:0:0:
192,192,43050,1,0,0:0:0:0:
64,192,43285,1,0,0:0:0:0:
448,192,43519,1,0,0:0:0:0:
64,192,43753,1,0,0:0:0:0:
320,192,43871,1,0,0:0:0:0:
448,192,43988,1,0,0:0:0:0:
192,192,43988,1,0,0:0:0:0:
448,192,44457,1,0,0:0:0:0:
64,192,44691,1,0,0:0:0:0:
320,192,44808,1,0,0:0:0:0:
448,192,44925,1,0,0:0:0:0:
192,192,44925,1,0,0:0:0:0:
64,192,45160,1,0,0:0:0:0:
448,192,45394,1,0,0:0:0:0:
64,192,45628,1,0,0:0:0:0:
320,192,45746,1,0,0:0:0:0:
448,192,45862,1,0,0:0:0:0:
192,192,45862,1,0,0:0:0:0:
192,192,46330,1,0,0:0:0:0:
320,192,46565,1,0,0:0:0:0:
64,192,46682,1,0,0:0:0:0:
448,192,46799,1,0,0:0:0:0:
192,192,46799,1,0,0:0:0:0:
64,192,47033,1,0,0:0:0:0:
192,192,47268,1,0,0:0:0:0:
320,192,47502,1,0,0:0:0:0:
64,192,47619,1,0,0:0:0:0:
192,192,47737,1,0,0:0:0:0:
448,192,47737,1,0,0:0:0:0:
192,192,48205,1,0,0:0:0:0:
320,192,48440,1,0,0:0:0:0:
448,192,48674,1,0,0:0:0:0:
64,192,48674,1,0,0:0:0:0:
320,192,48908,1,0,0:0:0:0:
192,192,49143,1,0,0:0:0:0:
320,192,49377,1,0,0:0:0:0:
448,192,49612,1,0,0:0:0:0:
64,192,49612,1,0,0:0:0:0:
192,192,50082,1,0,0:0:0:0:
320,192,50316,1,0,0:0:0:0:
64,192,50433,1,0,0:0:0:0:
192,192,50550,1,0,0:0:0:0:
448,192,50550,1,0,0:0:0:0:
64,192,50785,1,0,0:0:0:0:
192,192,51019,1,0,0:0:0:0:
320,192,51253,1,0,0:0:0:0:
64,192,51371,1,0,0:0:0:0:
192,192,51488,1,0,0:0:0:0:
448,192,51488,1,0,0:0:0:0:
192,192,51957,1,0,0:0:0:0:
320,192,52191,1,0,0:0:0:0:
448,192,52425,1,0,0:0:0:0:
64,192,52425,1,0,0:0:0:0:
320,192,52660,1,0,0:0:0:0:
192,192,52894,1,0,0:0:0:0:
320,192,53128,1,0,0:0:0:0:
448,192,53362,1,0,0:0:0:0:
64,192,53362,1,0,0:0:0:0:
64,192,53830,1,0,0:0:0:0:
320,192,53830,1,0,0:0:0:0:
448,192,54065,1,0,0:0:0:0:
320,192,54182,1,0,0:0:0:0:
64,192,54299,1,0,0:0:0:0:
192,192,54299,1,0,0:0:0:0:
448,192,54533,1,0,0:0:0:0:
192,192,54651,1,0,0:0:0:0:
64,192,54768,1,0,0:0:0:0:
320,192,54768,1,0,0:0:0:0:
448,192,55002,1,0,0:0:0:0:
320,192,55119,1,0,0:0:0:0:
64,192,55237,1,0,0:0:0:0:
192,192,55237,1,0,0:0:0:0:
448,192,55471,1,0,0:0:0:0:
192,192,55588,1,0,0:0:0:0:
64,192,55705,1,0,0:0:0:0:
320,192,55705,1,0,0:0:0:0:
448,192,55940,1,0,0:0:0:0:
320,192,56057,1,0,0:0:0:0:
64,192,56174,1,0,0:0:0:0:
192,192,56174,1,0,0:0:0:0:
448,192,56408,1,0,0:0:0:0:
192,192,56526,1,0,0:0:0:0:
64,192,56643,1,0,0:0:0:0:
320,192,56643,1,0,0:0:0:0:
448,192,56877,1,0,0:0:0:0:
320,192,56994,1,0,0:0:0:0:
64,192,57112,1,0,0:0:0:0:
192,192,57112,1,0,0:0:0:0:
64,192,57582,1,0,0:0:0:0:
320,192,57582,1,0,0:0:0:0:
448,192,57816,1,0,0:0:0:0:
320,192,57933,1,0,0:0:0:0:
64,192,58050,1,0,0:0:0:0:
192,192,58050,1,0,0:0:0:0:
448,192,58285,1,0,0:0:0:0:
192,192,58402,1,0,0:0:0:0:
64,192,58519,1,0,0:0:0:0:
320,192,58519,1,0,0:0:0:0:
448,192,58753,1,0,0:0:0:0:
320,192,58871,1,0,0:0:0:0:
64,192,58988,1,0,0:0:0:0:
192,192,58988,1,0,0:0:0:0:
448,192,59222,1,0,0:0:0:0:
192,192,59339,1,0,0:0:0:0:
64,192,59457,1,0,0:0:0:0:
320,192,59457,1,0,0:0:0:0:
448,192,59691,1,0,0:0:0:0:
320,192,59808,1,0,0:0:0:0:
64,192,59925,1,0,0:0:0:0:
192,192,59925,1,0,0:0:0:0:
448,192,60160,1,0,0:0:0:0:
192,192,60277,1,0,0:0:0:0:
64,192,60394,1,0,0:0:0:0:
320,192,60394,1,0,0:0:0:0:
448,192,60628,1,0,0:0:0:0:
320,192,60746,1,0,0:0:0:0:
64,192,60862,1,0,0:0:0:0:
192,192,60862,1,0,0:0:0:0:
448,192,61330,1,0,0:0:0:0:
192,192,61330,1,0,0:0:0:0:
192,192,61565,1,0,0:0:0:0:
448,192,61682,1,0,0:0:0:0:
64,192,61799,1,0,0:0:0:0:
320,192,61799,1,0,0:0:0:0:
320,192,62033,1,0,0:0:0:0:
64,192,62151,1,0,0:0:0:0:
448,192,62268,1,0,0:0:0:0:
192,192,62268,1,0,0:0:0:0:
192,192,62502,1,0,0:0:0:0:
448,192,62619,1,0,0:0:0:0:
64,192,62737,1,0,0:0:0:0:
320,192,62737,1,0,0:0:0:0:
320,192,62971,1,0,0:0:0:0:
64,192,63088,1,0,0:0:0:0:
192,192,63205,1,0,0:0:0:0:
448,192,63205,1,0,0:0:0:0:
192,192,63440,1,0,0:0:0:0:
448,192,63557,1,0,0:0:0:0:
64,192,63674,1,0,0:0:0:0:
320,192,63674,1,0,0:0:0:0:
320,192,63908,1,0,0:0:0:0:
64,192,64026,1,0,0:0:0:0:
448,192,64143,1,0,0:0:0:0:
192,192,64143,1,0,0:0:0:0:
192,192,64377,1,0,0:0:0:0:
448,192,64494,1,0,0:0:0:0:
64,192,64612,1,0,0:0:0:0:
320,192,64612,1,0,0:0:0:0:
448,192,65082,1,0,0:0:0:0:
192,192,65082,1,0,0:0:0:0:
192,192,65316,1,0,0:0:0:0:
448,192,65433,1,0,0:0:0:0:
64,192,65550,1,0,0:0:0:0:
320,192,65550,1,0,0:0:0:0:
320,192,65785,1,0,0:0:0:0:
64,192,65902,1,0,0:0:0:0:
448,192,66019,1,0,0:0:0:0:
192,192,66019,1,0,0:0:0:0:
192,192,66253,1,0,0:0:0:0:
448,192,66371,1,0,0:0:0:0:
64,192,66488,1,0,0:0:0:0:
320,192,66488,1,0,0:0:0:0:
320,192,66722,1,0,0:0:0:0:
64,192,66839,1,0,0:0:0:0:
192,192,66957,1,0,0:0:0:0:
448,192,66957,1,0,0:0:0:0:
192,192,67191,1,0,0:0:0:0:
448,192,67308,1,0,0:0:0:0:
64,192,67425,1,0,0:0:0:0:
320,192,67425,1,0,0:0:0:0:
320,192,67660,1,0,0:0:0:0:
64,192,67777,1,0,0:0:0:0:
448,192,67894,1,0,0:0:0:0:
192,192,67894,1,0,0:0:0:0:
192,192,68128,1,0,0:0:0:0:
448,192,68246,1,0,0:0:0:0:
64,192,68362,1,0,0:0:0:0:
320,192,68362,1,0,0:0:0:0:
64,192,68830,1,0,0:0:0:0:
64,192,69299,1,0,0:0:0:0:
64,192,69768,1,0,0:0:0:0:
64,192,70237,1,0,0:0:0:0:
64,192,70705,1,0,0:0:0:0:
64,192,71174,1,0,0:0:0:0:
64,192,71643,1,0,0:0:0:0:
64,192,72112,1,0,0:0:0:0:
64,192,72580,1,0,0:0:0:0:
64,192,73049,1,0,0:0:0:0:
64,192,73518,1,0,0:0:0:0:
64,192,73987,1,0,0:0:0:0:
64,192,74455,1,0,0:0:0:0:
64,192,74924,1,0,0:0:0:0:
64,192,75393,1,0,0:0:0:0:
64,192,75862,1,0,0:0:0:0:
64,192,76096,1,0,0:0:0:0:
