osu file format v14

[General]
AudioFilename: Memorizing Test_G.mp3
AudioLeadIn: 0
PreviewTime: 78040
Countdown: 0
SampleSet: Soft
StackLeniency: 0.7
Mode: 3
LetterboxInBreaks: 0
SpecialStyle: 0
WidescreenStoryboard: 0

[Editor]
DistanceSpacing: 1
BeatDivisor: 4
GridSize: 4
TimelineZoom: 1.800006

[Metadata]
Title:Memorizing Test
TitleUnicode:Memorizing Test
Artist:DJ.Hamcheese
ArtistUnicode:DJ.Hamcheese
Creator:EZ2Radio
Version:General to Follow
Source:EZ2ON
Tags:
BeatmapID:1327948
BeatmapSetID:629071

[Difficulty]
HPDrainRate:10
CircleSize:4
OverallDifficulty:0
ApproachRate:5
SliderMultiplier:1.4
SliderTickRate:1

[Events]
//Background and Video events
0,0,"Sudden Death 1.png",0,0
//Break Periods
//Storyboard Layer 0 (Background)
//Storyboard Layer 1 (Fail)
//Storyboard Layer 2 (Pass)
//Storyboard Layer 3 (Foreground)
//Storyboard Sound Samples

[TimingPoints]
3090,468.75,4,2,1,30,1,0
3090,-100,4,2,1,30,0,0
26996,6,4,2,1,30,1,0
26996,-10,4,2,1,30,0,0
30746,468.75,4,2,1,30,1,0
30746,-100,4,2,1,30,0,0
34496,6,4,2,1,30,1,0
34496,-10,4,2,1,30,0,0
38246,468.75,4,2,1,30,1,0
38246,-100,4,2,1,30,0,0
41996,6,4,2,1,30,1,0
41996,-10,4,2,1,30,0,0
45746,468.75,4,2,1,30,1,0
45746,-100,4,2,1,30,0,0
49496,6,4,2,1,30,1,0
49496,-10,4,2,1,30,0,0
53246,468.75,4,2,1,30,1,0
53246,-100,4,2,1,30,0,0
55121,6,4,2,1,30,1,0
55121,-10,4,2,1,30,0,0
56996,468.75,4,2,1,30,1,0
56996,-100,4,2,1,30,0,0
58871,6,4,2,1,30,1,0
58871,-10,4,2,1,30,0,0
60746,468.75,4,2,1,30,1,0
60746,-100,4,2,1,30,0,0
62621,6,4,2,1,30,1,0
62621,-10,4,2,1,30,0,0
64496,468.75,4,2,1,30,1,0
64496,-100,4,2,1,30,0,0
66371,6,4,2,1,30,1,0
66371,-10,4,2,1,30,0,0
68246,468.75,4,2,1,30,1,0
68246,-100,4,2,1,30,0,0

[HitObjects]
64,192,8480,5,0,0:0:0:0:
64,192,8715,1,0,0:0:0:0:
64,192,9183,1,0,0:0:0:0:
64,192,9652,1,0,0:0:0:0:
64,192,10121,1,0,0:0:0:0:
64,192,10590,1,0,0:0:0:0:
64,192,11058,1,0,0:0:0:0:
64,192,11527,1,0,0:0:0:0:
64,192,11996,1,0,0:0:0:0:
64,192,12465,1,0,0:0:0:0:
64,192,12933,1,0,0:0:0:0:
64,192,13402,1,0,0:0:0:0:
64,192,13871,1,0,0:0:0:0:
64,192,14340,1,0,0:0:0:0:
64,192,14808,1,0,0:0:0:0:
64,192,15277,1,0,0:0:0:0:
64,192,15746,1,0,0:0:0:0:
64,192,15980,1,0,0:0:0:0:
64,192,16215,1,0,0:0:0:0:
64,192,16683,1,0,0:0:0:0:
64,192,17152,1,0,0:0:0:0:
64,192,17621,1,0,0:0:0:0:
64,192,18090,1,0,0:0:0:0:
64,192,18558,1,0,0:0:0:0:
64,192,19027,1,0,0:0:0:0:
64,192,19496,1,0,0:0:0:0:
64,192,19965,1,0,0:0:0:0:
64,192,20433,1,0,0:0:0:0:
64,192,20902,1,0,0:0:0:0:
64,192,21371,1,0,0:0:0:0:
64,192,21605,1,0,0:0:0:0:
64,192,23715,1,0,0:0:0:0:
448,192,23949,1,0,0:0:0:0:
192,192,24183,1,0,0:0:0:0:
448,192,24418,1,0,0:0:0:0:
64,192,24652,1,0,0:0:0:0:
448,192,24886,1,0,0:0:0:0:
192,192,25121,1,0,0:0:0:0:
320,192,25121,1,0,0:0:0:0:
64,192,25590,1,0,0:0:0:0:
448,192,25824,1,0,0:0:0:0:
192,192,26058,1,0,0:0:0:0:
448,192,26293,1,0,0:0:0:0:
64,192,26527,1,0,0:0:0:0:
448,192,26761,1,0,0:0:0:0:
192,192,26996,1,0,0:0:0:0:
320,192,26996,1,0,0:0:0:0:
64,192,27465,1,0,0:0:0:0:
448,192,27699,1,0,0:0:0:0:
192,192,27933,1,0,0:0:0:0:
448,192,28168,1,0,0:0:0:0:
64,192,28402,1,0,0:0:0:0:
448,192,28636,1,0,0:0:0:0:
192,192,28871,1,0,0:0:0:0:
320,192,28871,1,0,0:0:0:0:
64,192,29340,1,0,0:0:0:0:
448,192,29574,1,0,0:0:0:0:
192,192,29808,1,0,0:0:0:0:
448,192,30043,1,0,0:0:0:0:
64,192,30277,1,0,0:0:0:0:
448,192,30511,1,0,0:0:0:0:
192,192,30746,1,0,0:0:0:0:
320,192,30746,1,0,0:0:0:0:
320,192,31214,1,0,0:0:0:0:
64,192,31449,1,0,0:0:0:0:
448,192,31683,1,0,0:0:0:0:
64,192,31917,1,0,0:0:0:0:
320,192,32152,1,0,0:0:0:0:
64,192,32386,1,0,0:0:0:0:
448,192,32621,1,0,0:0:0:0:
192,192,32621,1,0,0:0:0:0:
320,192,33089,1,0,0:0:0:0:
64,192,33324,1,0,0:0:0:0:
448,192,33558,1,0,0:0:0:0:
64,192,33792,1,0,0:0:0:0:
320,192,34027,1,0,0:0:0:0:
64,192,34261,1,0,0:0:0:0:
448,192,34496,1,0,0:0:0:0:
192,192,34496,1,0,0:0:0:0:
320,192,34965,1,0,0:0:0:0:
64,192,35199,1,0,0:0:0:0:
448,192,35433,1,0,0:0:0:0:
64,192,35668,1,0,0:0:0:0:
320,192,35902,1,0,0:0:0:0:
64,192,36136,1,0,0:0:0:0:
448,192,36371,1,0,0:0:0:0:
192,192,36371,1,0,0:0:0:0:
320,192,36840,1,0,0:0:0:0:
64,192,37074,1,0,0:0:0:0:
448,192,37308,1,0,0:0:0:0:
64,192,37543,1,0,0:0:0:0:
320,192,37777,1,0,0:0:0:0:
64,192,38011,1,0,0:0:0:0:
448,192,38246,1,0,0:0:0:0:
192,192,38246,1,0,0:0:0:0:
192,192,38714,1,0,0:0:0:0:
320,192,38949,1,0,0:0:0:0:
448,192,39183,1,0,0:0:0:0:
64,192,39183,1,0,0:0:0:0:
320,192,39417,1,0,0:0:0:0:
192,192,39652,1,0,0:0:0:0:
320,192,39886,1,0,0:0:0:0:
448,192,40121,1,0,0:0:0:0:
64,192,40121,1,0,0:0:0:0:
192,192,40589,1,0,0:0:0:0:
320,192,40824,1,0,0:0:0:0:
448,192,41058,1,0,0:0:0:0:
64,192,41058,1,0,0:0:0:0:
320,192,41292,1,0,0:0:0:0:
192,192,41527,1,0,0:0:0:0:
320,192,41761,1,0,0:0:0:0:
448,192,41996,1,0,0:0:0:0:
64,192,41996,1,0,0:0:0:0:
192,192,42465,1,0,0:0:0:0:
320,192,42699,1,0,0:0:0:0:
448,192,42933,1,0,0:0:0:0:
64,192,42933,1,0,0:0:0:0:
320,192,43168,1,0,0:0:0:0:
192,192,43402,1,0,0:0:0:0:
320,192,43636,1,0,0:0:0:0:
448,192,43871,1,0,0:0:0:0:
64,192,43871,1,0,0:0:0:0:
192,192,44340,1,0,0:0:0:0:
320,192,44574,1,0,0:0:0:0:
448,192,44808,1,0,0:0:0:0:
64,192,44808,1,0,0:0:0:0:
320,192,45043,1,0,0:0:0:0:
192,192,45277,1,0,0:0:0:0:
320,192,45511,1,0,0:0:0:0:
448,192,45746,1,0,0:0:0:0:
64,192,45746,1,0,0:0:0:0:
192,192,46214,1,0,0:0:0:0:
448,192,46449,1,0,0:0:0:0:
64,192,46683,1,0,0:0:0:0:
320,192,46683,1,0,0:0:0:0:
448,192,46917,1,0,0:0:0:0:
192,192,47152,1,0,0:0:0:0:
448,192,47386,1,0,0:0:0:0:
64,192,47621,1,0,0:0:0:0:
320,192,47621,1,0,0:0:0:0:
192,192,48089,1,0,0:0:0:0:
448,192,48324,1,0,0:0:0:0:
64,192,48558,1,0,0:0:0:0:
320,192,48558,1,0,0:0:0:0:
448,192,48792,1,0,0:0:0:0:
192,192,49027,1,0,0:0:0:0:
448,192,49261,1,0,0:0:0:0:
64,192,49496,1,0,0:0:0:0:
320,192,49496,1,0,0:0:0:0:
192,192,49965,1,0,0:0:0:0:
448,192,50199,1,0,0:0:0:0:
64,192,50433,1,0,0:0:0:0:
320,192,50433,1,0,0:0:0:0:
448,192,50668,1,0,0:0:0:0:
192,192,50902,1,0,0:0:0:0:
448,192,51136,1,0,0:0:0:0:
64,192,51371,1,0,0:0:0:0:
320,192,51371,1,0,0:0:0:0:
192,192,51840,1,0,0:0:0:0:
448,192,52074,1,0,0:0:0:0:
64,192,52308,1,0,0:0:0:0:
320,192,52308,1,0,0:0:0:0:
448,192,52543,1,0,0:0:0:0:
192,192,52777,1,0,0:0:0:0:
448,192,53011,1,0,0:0:0:0:
64,192,53246,1,0,0:0:0:0:
320,192,53246,1,0,0:0:0:0:
64,192,53714,1,0,0:0:0:0:
320,192,53714,1,0,0:0:0:0:
192,192,53949,1,0,0:0:0:0:
64,192,54183,1,0,0:0:0:0:
448,192,54183,1,0,0:0:0:0:
320,192,54417,1,0,0:0:0:0:
448,192,54652,1,0,0:0:0:0:
192,192,54652,1,0,0:0:0:0:
320,192,54886,1,0,0:0:0:0:
448,192,55121,1,0,0:0:0:0:
64,192,55121,1,0,0:0:0:0:
64,192,55590,1,0,0:0:0:0:
320,192,55590,1,0,0:0:0:0:
192,192,55824,1,0,0:0:0:0:
64,192,56058,1,0,0:0:0:0:
448,192,56058,1,0,0:0:0:0:
320,192,56293,1,0,0:0:0:0:
192,192,56527,1,0,0:0:0:0:
448,192,56527,1,0,0:0:0:0:
320,192,56761,1,0,0:0:0:0:
64,192,56996,1,0,0:0:0:0:
448,192,56996,1,0,0:0:0:0:
448,192,57464,1,0,0:0:0:0:
192,192,57464,1,0,0:0:0:0:
320,192,57699,1,0,0:0:0:0:
448,192,57933,1,0,0:0:0:0:
64,192,57933,1,0,0:0:0:0:
192,192,58167,1,0,0:0:0:0:
64,192,58402,1,0,0:0:0:0:
320,192,58402,1,0,0:0:0:0:
192,192,58636,1,0,0:0:0:0:
448,192,58871,1,0,0:0:0:0:
64,192,58871,1,0,0:0:0:0:
192,192,59340,1,0,0:0:0:0:
448,192,59340,1,0,0:0:0:0:
320,192,59574,1,0,0:0:0:0:
448,192,59808,1,0,0:0:0:0:
64,192,59808,1,0,0:0:0:0:
192,192,60043,1,0,0:0:0:0:
64,192,60277,1,0,0:0:0:0:
320,192,60277,1,0,0:0:0:0:
192,192,60511,1,0,0:0:0:0:
448,192,60746,1,0,0:0:0:0:
64,192,60746,1,0,0:0:0:0:
64,192,61214,1,0,0:0:0:0:
320,192,61214,1,0,0:0:0:0:
448,192,61449,1,0,0:0:0:0:
64,192,61683,1,0,0:0:0:0:
320,192,61683,1,0,0:0:0:0:
192,192,61917,1,0,0:0:0:0:
448,192,62152,1,0,0:0:0:0:
64,192,62152,1,0,0:0:0:0:
320,192,62386,1,0,0:0:0:0:
192,192,62621,1,0,0:0:0:0:
448,192,62621,1,0,0:0:0:0:
64,192,63090,1,0,0:0:0:0:
320,192,63090,1,0,0:0:0:0:
448,192,63324,1,0,0:0:0:0:
64,192,63558,1,0,0:0:0:0:
320,192,63558,1,0,0:0:0:0:
192,192,63793,1,0,0:0:0:0:
448,192,64027,1,0,0:0:0:0:
64,192,64027,1,0,0:0:0:0:
320,192,64261,1,0,0:0:0:0:
192,192,64496,1,0,0:0:0:0:
448,192,64496,1,0,0:0:0:0:
448,192,64964,1,0,0:0:0:0:
192,192,64964,1,0,0:0:0:0:
64,192,65199,1,0,0:0:0:0:
448,192,65433,1,0,0:0:0:0:
192,192,65433,1,0,0:0:0:0:
320,192,65667,1,0,0:0:0:0:
448,192,65902,1,0,0:0:0:0:
64,192,65902,1,0,0:0:0:0:
192,192,66136,1,0,0:0:0:0:
64,192,66371,1,0,0:0:0:0:
320,192,66371,1,0,0:0:0:0:
192,192,66840,1,0,0:0:0:0:
448,192,66840,1,0,0:0:0:0:
64,192,67074,1,0,0:0:0:0:
448,192,67308,1,0,0:0:0:0:
192,192,67308,1,0,0:0:0:0:
320,192,67543,1,0,0:0:0:0:
64,192,67777,1,0,0:0:0:0:
448,192,67777,1,0,0:0:0:0:
192,192,68011,1,0,0:0:0:0:
64,192,68246,1,0,0:0:0:0:
320,192,68246,1,0,0:0:0:0:
64,192,68714,1,0,0:0:0:0:
64,192,69183,1,0,0:0:0:0:
64,192,69652,1,0,0:0:0:0:
64,192,70121,1,0,0:0:0:0:
64,192,70589,1,0,0:0:0:0:
64,192,71058,1,0,0:0:0:0:
64,192,71527,1,0,0:0:0:0:
64,192,71996,1,0,0:0:0:0:
64,192,72464,1,0,0:0:0:0:
64,192,72933,1,0,0:0:0:0:
64,192,73402,1,0,0:0:0:0:
64,192,73871,1,0,0:0:0:0:
64,192,74339,1,0,0:0:0:0:
64,192,74808,1,0,0:0:0:0:
64,192,75277,1,0,0:0:0:0:
64,192,75746,1,0,0:0:0:0:
64,192,75980,1,0,0:0:0:0:
