osu file format v14

[General]
AudioFilename: Memorizing Test_EX.mp3
AudioLeadIn: 0
PreviewTime: 89557
Countdown: 0
SampleSet: Soft
StackLeniency: 0.7
Mode: 3
LetterboxInBreaks: 0
SpecialStyle: 0
WidescreenStoryboard: 0

[Editor]
DistanceSpacing: 1
BeatDivisor: 4
GridSize: 4
TimelineZoom: 1.500006

[Metadata]
Title:Memorizing Test
TitleUnicode:Memorizing Test
Artist:DJ.Hamcheese
ArtistUnicode:DJ.Hamcheese
Creator:EZ2Radio
Version:Extreme to Follow
Source:EZ2ON
Tags:ez2on sudden death ruby girl
BeatmapID:1522237
BeatmapSetID:629071

[Difficulty]
HPDrainRate:10
CircleSize:4
OverallDifficulty:0
ApproachRate:5
SliderMultiplier:1.4
SliderTickRate:1

[Events]
//Background and Video events
0,0,"Sudden Death 1.png",0,0
//Break Periods
//Storyboard Layer 0 (Background)
//Storyboard Layer 1 (Fail)
//Storyboard Layer 2 (Pass)
//Storyboard Layer 3 (Foreground)
Sprite,Foreground,Centre,"Sudden Death -1.png",320,240 S,0,23665,,0.6449031 F,0,23665,89758,1
Sprite,Foreground,Centre,"Sudden Death 1.png",320,240 M,0,0,,320,240 F,0,0,17571,1 S,0,0,19797,0.6449032,0.6531612 F,0,17571,21438,1 F,0,21438,21555,1 F,0,21555,21790,1
Sprite,Foreground,Centre,"Noise.png",320,240 M,0,1047,,320,240 S,0,1047,,0.6449032 F,0,1047,1340,1
Sprite,Foreground,Centre,"Noise.png",320,240 F,0,9778,9896,1 S,0,9836,,0.6449032
Sprite,Foreground,Centre,"Noise.png",320,240 S,0,14934,,0.6449032 F,0,14934,15520,1
Sprite,Foreground,Centre,"Noise.png",320,240 S,0,15813,,0.6449031 F,0,15813,16692,1
Sprite,Foreground,Centre,"Noise.png",320,240 S,0,17571,,0.6449031 F,0,17571,17747,1
Sprite,Foreground,Centre,"Noise.png",320,240 S,0,18332,,0.6449032 F,0,18332,18684,1
Sprite,Foreground,Centre,"Noise.png",320,240 S,0,19797,,0.6531613 F,0,19797,19915,1
Sprite,Foreground,Centre,"Noise.png",320,240 S,0,20618,,0.6531613 F,0,20618,21790,1
Sprite,Foreground,Centre,"Noise.png",320,240 M,0,26946,,320,240 S,0,26946,,0.6449032 F,0,26946,27412,1
Sprite,Foreground,Centre,"Noise.png",320,240 M,0,34446,,320,240 S,0,34446,,0.6449032 F,0,34446,34912,1
Sprite,Foreground,Centre,"Noise.png",320,240 M,0,41946,,320,240 S,0,41946,,0.6449032 F,0,41946,42412,1
Sprite,Foreground,Centre,"Noise.png",320,240 M,0,49446,,320,240 S,0,49446,,0.6449032 F,0,49446,49912,1
Sprite,Foreground,Centre,"Blank.png",320,240 F,0,21438,21555,0,1 F,0,21555,23665,1
Sprite,Foreground,Centre,"Blink.png",320,240 F,0,23665,25540,1,0 M,0,24133,,320,240 S,0,24133,,0.6449032
Sprite,Foreground,Centre,"Noise2.png",320,240 M,0,56946,,320,240 S,0,56946,,0.6449032 F,0,56946,57396,1
Sprite,Foreground,Centre,"Noise2.png",320,240 M,0,64446,,320,240 S,0,64446,,0.6449032 F,0,64446,64896,1
Sprite,Foreground,Centre,"Blank.png",320,240 M,0,89524,,320,240 F,0,89524,89758,0,1 F,0,89758,92102,1
//Storyboard Sound Samples

[TimingPoints]
3040,468.75,4,2,1,30,1,0
3041,-100,4,2,1,30,0,0
26946,6,4,2,1,30,1,0
26946,-10,4,2,1,30,0,0
30696,468.75,4,2,1,30,1,0
30696,-100,4,2,1,30,0,0
34446,6,4,2,1,30,1,0
34446,-10,4,2,1,30,0,0
38196,468.75,4,2,1,30,1,0
38196,-100,4,2,1,30,0,0
41946,6,4,2,1,30,1,0
41946,-10,4,2,1,30,0,0
45696,468.75,4,2,1,30,1,0
45696,-100,4,2,1,30,0,0
49446,6,4,2,1,30,1,0
49446,-10,4,2,1,30,0,0
53196,468.75,4,2,1,30,1,0
53196,-100,4,2,1,30,0,0
56946,6,4,2,1,30,1,0
56946,-10,4,2,1,30,0,0
60696,468.75,4,2,1,30,1,0
60696,-100,4,2,1,30,0,0
64446,6,4,2,1,30,1,0
64446,-10,4,2,1,30,0,0
68196,468.75,4,2,1,30,1,0
68196,-100,4,2,1,30,0,0

[HitObjects]
64,192,8430,5,0,0:0:0:0:
64,192,8665,1,0,0:0:0:0:
64,192,9133,1,0,0:0:0:0:
64,192,9602,1,0,0:0:0:0:
64,192,10071,1,0,0:0:0:0:
64,192,10540,1,0,0:0:0:0:
64,192,11008,1,0,0:0:0:0:
64,192,11477,1,0,0:0:0:0:
64,192,11946,1,0,0:0:0:0:
64,192,12415,1,0,0:0:0:0:
64,192,12883,1,0,0:0:0:0:
64,192,13352,1,0,0:0:0:0:
64,192,13821,1,0,0:0:0:0:
64,192,14290,1,0,0:0:0:0:
64,192,14758,1,0,0:0:0:0:
64,192,15227,1,0,0:0:0:0:
64,192,15696,1,0,0:0:0:0:
64,192,15930,1,0,0:0:0:0:
64,192,16165,1,0,0:0:0:0:
64,192,16633,1,0,0:0:0:0:
64,192,17102,1,0,0:0:0:0:
64,192,17571,1,0,0:0:0:0:
64,192,18040,1,0,0:0:0:0:
64,192,18508,1,0,0:0:0:0:
64,192,18977,1,0,0:0:0:0:
64,192,19446,1,0,0:0:0:0:
64,192,19915,1,0,0:0:0:0:
64,192,20383,1,0,0:0:0:0:
64,192,20852,1,0,0:0:0:0:
64,192,21321,1,0,0:0:0:0:
64,192,21555,1,0,0:0:0:0:
64,192,23665,1,0,0:0:0:0:
192,192,23665,1,0,0:0:0:0:
448,192,23899,1,0,0:0:0:0:
192,192,23899,1,0,0:0:0:0:
64,192,24133,1,0,0:0:0:0:
320,192,24133,1,0,0:0:0:0:
448,192,24368,1,0,0:0:0:0:
320,192,24368,1,0,0:0:0:0:
64,192,24602,1,0,0:0:0:0:
192,192,24602,1,0,0:0:0:0:
448,192,24836,1,0,0:0:0:0:
192,192,24836,1,0,0:0:0:0:
64,192,25071,1,0,0:0:0:0:
320,192,25071,1,0,0:0:0:0:
448,192,25305,1,0,0:0:0:0:
320,192,25305,1,0,0:0:0:0:
64,192,25540,1,0,0:0:0:0:
192,192,25540,1,0,0:0:0:0:
448,192,25774,1,0,0:0:0:0:
192,192,25774,1,0,0:0:0:0:
64,192,26008,1,0,0:0:0:0:
320,192,26008,1,0,0:0:0:0:
448,192,26243,1,0,0:0:0:0:
320,192,26243,1,0,0:0:0:0:
64,192,26477,1,0,0:0:0:0:
192,192,26477,1,0,0:0:0:0:
448,192,26711,1,0,0:0:0:0:
192,192,26711,1,0,0:0:0:0:
64,192,26946,1,0,0:0:0:0:
320,192,26946,1,0,0:0:0:0:
64,192,27415,1,0,0:0:0:0:
192,192,27415,1,0,0:0:0:0:
448,192,27649,1,0,0:0:0:0:
192,192,27649,1,0,0:0:0:0:
64,192,27883,1,0,0:0:0:0:
320,192,27883,1,0,0:0:0:0:
448,192,28118,1,0,0:0:0:0:
320,192,28118,1,0,0:0:0:0:
64,192,28352,1,0,0:0:0:0:
192,192,28352,1,0,0:0:0:0:
448,192,28586,1,0,0:0:0:0:
192,192,28586,1,0,0:0:0:0:
64,192,28821,1,0,0:0:0:0:
320,192,28821,1,0,0:0:0:0:
448,192,29055,1,0,0:0:0:0:
320,192,29055,1,0,0:0:0:0:
64,192,29290,1,0,0:0:0:0:
192,192,29290,1,0,0:0:0:0:
448,192,29524,1,0,0:0:0:0:
192,192,29524,1,0,0:0:0:0:
64,192,29758,1,0,0:0:0:0:
320,192,29758,1,0,0:0:0:0:
448,192,29993,1,0,0:0:0:0:
320,192,29993,1,0,0:0:0:0:
64,192,30227,1,0,0:0:0:0:
192,192,30227,1,0,0:0:0:0:
448,192,30461,1,0,0:0:0:0:
192,192,30461,1,0,0:0:0:0:
64,192,30696,1,0,0:0:0:0:
320,192,30696,1,0,0:0:0:0:
64,192,31164,1,0,0:0:0:0:
192,192,31281,1,0,0:0:0:0:
448,192,31399,1,0,0:0:0:0:
320,192,31516,1,0,0:0:0:0:
192,192,31633,1,0,0:0:0:0:
64,192,31633,1,0,0:0:0:0:
320,192,31867,1,0,0:0:0:0:
448,192,31867,1,0,0:0:0:0:
192,192,32102,1,0,0:0:0:0:
320,192,32219,1,0,0:0:0:0:
448,192,32336,1,0,0:0:0:0:
320,192,32453,1,0,0:0:0:0:
64,192,32571,1,0,0:0:0:0:
192,192,32571,1,0,0:0:0:0:
320,192,32805,1,0,0:0:0:0:
448,192,32805,1,0,0:0:0:0:
64,192,33039,1,0,0:0:0:0:
192,192,33156,1,0,0:0:0:0:
448,192,33274,1,0,0:0:0:0:
320,192,33391,1,0,0:0:0:0:
64,192,33508,1,0,0:0:0:0:
192,192,33508,1,0,0:0:0:0:
320,192,33742,1,0,0:0:0:0:
448,192,33742,1,0,0:0:0:0:
192,192,33977,1,0,0:0:0:0:
320,192,34094,1,0,0:0:0:0:
448,192,34211,1,0,0:0:0:0:
320,192,34328,1,0,0:0:0:0:
64,192,34446,1,0,0:0:0:0:
192,192,34446,1,0,0:0:0:0:
64,192,34914,1,0,0:0:0:0:
192,192,35031,1,0,0:0:0:0:
448,192,35149,1,0,0:0:0:0:
320,192,35266,1,0,0:0:0:0:
192,192,35383,1,0,0:0:0:0:
64,192,35383,1,0,0:0:0:0:
320,192,35617,1,0,0:0:0:0:
448,192,35617,1,0,0:0:0:0:
192,192,35852,1,0,0:0:0:0:
320,192,35969,1,0,0:0:0:0:
448,192,36086,1,0,0:0:0:0:
320,192,36203,1,0,0:0:0:0:
64,192,36321,1,0,0:0:0:0:
192,192,36321,1,0,0:0:0:0:
320,192,36555,1,0,0:0:0:0:
448,192,36555,1,0,0:0:0:0:
64,192,36789,1,0,0:0:0:0:
192,192,36906,1,0,0:0:0:0:
448,192,37024,1,0,0:0:0:0:
320,192,37141,1,0,0:0:0:0:
64,192,37258,1,0,0:0:0:0:
192,192,37258,1,0,0:0:0:0:
320,192,37492,1,0,0:0:0:0:
448,192,37492,1,0,0:0:0:0:
192,192,37727,1,0,0:0:0:0:
320,192,37844,1,0,0:0:0:0:
448,192,37961,1,0,0:0:0:0:
320,192,38078,1,0,0:0:0:0:
64,192,38196,1,0,0:0:0:0:
192,192,38196,1,0,0:0:0:0:
320,192,38664,1,0,0:0:0:0:
192,192,38781,1,0,0:0:0:0:
448,192,38899,1,0,0:0:0:0:
320,192,39016,1,0,0:0:0:0:
64,192,39133,1,0,0:0:0:0:
192,192,39133,1,0,0:0:0:0:
320,192,39367,1,0,0:0:0:0:
448,192,39367,1,0,0:0:0:0:
192,192,39602,1,0,0:0:0:0:
320,192,39719,1,0,0:0:0:0:
64,192,39836,1,0,0:0:0:0:
192,192,39953,1,0,0:0:0:0:
320,192,40071,1,0,0:0:0:0:
448,192,40071,1,0,0:0:0:0:
64,192,40305,1,0,0:0:0:0:
192,192,40305,1,0,0:0:0:0:
320,192,40539,1,0,0:0:0:0:
192,192,40656,1,0,0:0:0:0:
448,192,40774,1,0,0:0:0:0:
320,192,40891,1,0,0:0:0:0:
64,192,41008,1,0,0:0:0:0:
192,192,41008,1,0,0:0:0:0:
320,192,41242,1,0,0:0:0:0:
448,192,41242,1,0,0:0:0:0:
192,192,41477,1,0,0:0:0:0:
320,192,41594,1,0,0:0:0:0:
64,192,41711,1,0,0:0:0:0:
192,192,41828,1,0,0:0:0:0:
320,192,41946,1,0,0:0:0:0:
448,192,41946,1,0,0:0:0:0:
320,192,42414,1,0,0:0:0:0:
192,192,42531,1,0,0:0:0:0:
448,192,42649,1,0,0:0:0:0:
320,192,42766,1,0,0:0:0:0:
64,192,42883,1,0,0:0:0:0:
192,192,42883,1,0,0:0:0:0:
320,192,43117,1,0,0:0:0:0:
448,192,43117,1,0,0:0:0:0:
192,192,43352,1,0,0:0:0:0:
320,192,43469,1,0,0:0:0:0:
64,192,43586,1,0,0:0:0:0:
192,192,43703,1,0,0:0:0:0:
320,192,43821,1,0,0:0:0:0:
448,192,43821,1,0,0:0:0:0:
64,192,44055,1,0,0:0:0:0:
192,192,44055,1,0,0:0:0:0:
320,192,44289,1,0,0:0:0:0:
192,192,44406,1,0,0:0:0:0:
448,192,44524,1,0,0:0:0:0:
320,192,44641,1,0,0:0:0:0:
64,192,44758,1,0,0:0:0:0:
192,192,44758,1,0,0:0:0:0:
320,192,44992,1,0,0:0:0:0:
448,192,44992,1,0,0:0:0:0:
192,192,45227,1,0,0:0:0:0:
320,192,45344,1,0,0:0:0:0:
64,192,45461,1,0,0:0:0:0:
192,192,45578,1,0,0:0:0:0:
320,192,45696,1,0,0:0:0:0:
448,192,45696,1,0,0:0:0:0:
64,192,46164,1,0,0:0:0:0:
320,192,46281,1,0,0:0:0:0:
192,192,46399,1,0,0:0:0:0:
448,192,46516,1,0,0:0:0:0:
64,192,46633,1,0,0:0:0:0:
320,192,46633,1,0,0:0:0:0:
192,192,46867,1,0,0:0:0:0:
448,192,46867,1,0,0:0:0:0:
64,192,47102,1,0,0:0:0:0:
320,192,47219,1,0,0:0:0:0:
192,192,47336,1,0,0:0:0:0:
448,192,47453,1,0,0:0:0:0:
64,192,47571,1,0,0:0:0:0:
320,192,47571,1,0,0:0:0:0:
192,192,47805,1,0,0:0:0:0:
448,192,47805,1,0,0:0:0:0:
320,192,48039,1,0,0:0:0:0:
320,192,48508,1,0,0:0:0:0:
320,192,48977,1,0,0:0:0:0:
320,192,49446,1,0,0:0:0:0:
64,192,49914,1,0,0:0:0:0:
320,192,50031,1,0,0:0:0:0:
192,192,50149,1,0,0:0:0:0:
448,192,50266,1,0,0:0:0:0:
64,192,50383,1,0,0:0:0:0:
320,192,50383,1,0,0:0:0:0:
192,192,50617,1,0,0:0:0:0:
448,192,50617,1,0,0:0:0:0:
64,192,50852,1,0,0:0:0:0:
320,192,50969,1,0,0:0:0:0:
192,192,51086,1,0,0:0:0:0:
448,192,51203,1,0,0:0:0:0:
64,192,51321,1,0,0:0:0:0:
320,192,51321,1,0,0:0:0:0:
192,192,51555,1,0,0:0:0:0:
448,192,51555,1,0,0:0:0:0:
320,192,51789,1,0,0:0:0:0:
320,192,52258,1,0,0:0:0:0:
320,192,52727,5,0,0:0:0:0:
320,192,53196,1,0,0:0:0:0:
64,192,53664,5,0,0:0:0:0:
448,192,53664,1,0,0:0:0:0:
192,192,53781,1,0,0:0:0:0:
320,192,53899,1,0,0:0:0:0:
192,192,54016,1,0,0:0:0:0:
64,192,54133,1,0,0:0:0:0:
448,192,54133,1,0,0:0:0:0:
320,192,54250,1,0,0:0:0:0:
192,192,54367,1,0,0:0:0:0:
320,192,54485,1,0,0:0:0:0:
448,192,54602,1,0,0:0:0:0:
64,192,54602,1,0,0:0:0:0:
192,192,54719,1,0,0:0:0:0:
320,192,54836,1,0,0:0:0:0:
192,192,54953,1,0,0:0:0:0:
64,192,55071,1,0,0:0:0:0:
448,192,55071,1,0,0:0:0:0:
192,192,55539,1,0,0:0:0:0:
64,192,55539,1,0,0:0:0:0:
448,192,55656,1,0,0:0:0:0:
320,192,55774,1,0,0:0:0:0:
192,192,55891,1,0,0:0:0:0:
320,192,56008,1,0,0:0:0:0:
448,192,56008,1,0,0:0:0:0:
64,192,56125,1,0,0:0:0:0:
192,192,56242,1,0,0:0:0:0:
320,192,56360,1,0,0:0:0:0:
192,192,56477,1,0,0:0:0:0:
64,192,56477,1,0,0:0:0:0:
448,192,56594,1,0,0:0:0:0:
320,192,56711,1,0,0:0:0:0:
192,192,56828,1,0,0:0:0:0:
320,192,56946,1,0,0:0:0:0:
448,192,56946,1,0,0:0:0:0:
64,192,57414,5,0,0:0:0:0:
448,192,57414,1,0,0:0:0:0:
192,192,57531,1,0,0:0:0:0:
320,192,57649,1,0,0:0:0:0:
192,192,57766,1,0,0:0:0:0:
64,192,57883,1,0,0:0:0:0:
448,192,57883,1,0,0:0:0:0:
320,192,58000,1,0,0:0:0:0:
192,192,58117,1,0,0:0:0:0:
320,192,58235,1,0,0:0:0:0:
448,192,58352,1,0,0:0:0:0:
64,192,58352,1,0,0:0:0:0:
192,192,58469,1,0,0:0:0:0:
320,192,58586,1,0,0:0:0:0:
192,192,58703,1,0,0:0:0:0:
64,192,58821,1,0,0:0:0:0:
448,192,58821,1,0,0:0:0:0:
192,192,59289,1,0,0:0:0:0:
64,192,59289,1,0,0:0:0:0:
448,192,59406,1,0,0:0:0:0:
320,192,59524,1,0,0:0:0:0:
192,192,59641,1,0,0:0:0:0:
320,192,59758,1,0,0:0:0:0:
448,192,59758,1,0,0:0:0:0:
64,192,59875,1,0,0:0:0:0:
192,192,59992,1,0,0:0:0:0:
320,192,60110,1,0,0:0:0:0:
192,192,60227,1,0,0:0:0:0:
64,192,60227,1,0,0:0:0:0:
448,192,60344,1,0,0:0:0:0:
320,192,60461,1,0,0:0:0:0:
192,192,60578,1,0,0:0:0:0:
320,192,60696,1,0,0:0:0:0:
448,192,60696,1,0,0:0:0:0:
448,192,61164,1,0,0:0:0:0:
64,192,61164,1,0,0:0:0:0:
320,192,61281,1,0,0:0:0:0:
192,192,61399,1,0,0:0:0:0:
320,192,61516,1,0,0:0:0:0:
64,192,61633,1,0,0:0:0:0:
448,192,61633,1,0,0:0:0:0:
192,192,61750,1,0,0:0:0:0:
320,192,61867,1,0,0:0:0:0:
192,192,61985,1,0,0:0:0:0:
64,192,62102,1,0,0:0:0:0:
448,192,62102,1,0,0:0:0:0:
320,192,62219,1,0,0:0:0:0:
192,192,62336,1,0,0:0:0:0:
320,192,62453,1,0,0:0:0:0:
64,192,62571,1,0,0:0:0:0:
448,192,62571,1,0,0:0:0:0:
320,192,63039,1,0,0:0:0:0:
448,192,63039,1,0,0:0:0:0:
64,192,63156,1,0,0:0:0:0:
192,192,63274,1,0,0:0:0:0:
320,192,63391,1,0,0:0:0:0:
64,192,63508,1,0,0:0:0:0:
192,192,63508,1,0,0:0:0:0:
448,192,63625,1,0,0:0:0:0:
320,192,63742,5,0,0:0:0:0:
192,192,63860,1,0,0:0:0:0:
448,192,63977,1,0,0:0:0:0:
320,192,63977,1,0,0:0:0:0:
64,192,64094,1,0,0:0:0:0:
192,192,64211,1,0,0:0:0:0:
320,192,64328,1,0,0:0:0:0:
192,192,64446,1,0,0:0:0:0:
64,192,64446,1,0,0:0:0:0:
448,192,64914,1,0,0:0:0:0:
64,192,64914,1,0,0:0:0:0:
320,192,65031,1,0,0:0:0:0:
192,192,65149,1,0,0:0:0:0:
320,192,65266,1,0,0:0:0:0:
64,192,65383,1,0,0:0:0:0:
448,192,65383,1,0,0:0:0:0:
192,192,65500,1,0,0:0:0:0:
320,192,65617,1,0,0:0:0:0:
192,192,65735,1,0,0:0:0:0:
64,192,65852,1,0,0:0:0:0:
448,192,65852,1,0,0:0:0:0:
320,192,65969,1,0,0:0:0:0:
192,192,66086,1,0,0:0:0:0:
320,192,66203,1,0,0:0:0:0:
64,192,66321,1,0,0:0:0:0:
448,192,66321,1,0,0:0:0:0:
320,192,66789,1,0,0:0:0:0:
448,192,66789,1,0,0:0:0:0:
64,192,66906,1,0,0:0:0:0:
192,192,67024,1,0,0:0:0:0:
320,192,67141,1,0,0:0:0:0:
64,192,67258,1,0,0:0:0:0:
192,192,67258,1,0,0:0:0:0:
448,192,67375,1,0,0:0:0:0:
320,192,67492,5,0,0:0:0:0:
192,192,67610,1,0,0:0:0:0:
448,192,67727,1,0,0:0:0:0:
320,192,67727,1,0,0:0:0:0:
64,192,67844,1,0,0:0:0:0:
192,192,67961,1,0,0:0:0:0:
320,192,68078,1,0,0:0:0:0:
192,192,68196,1,0,0:0:0:0:
64,192,68196,1,0,0:0:0:0:
64,192,68664,5,0,0:0:0:0:
64,192,69133,1,0,0:0:0:0:
64,192,69602,1,0,0:0:0:0:
64,192,70071,1,0,0:0:0:0:
64,192,70539,1,0,0:0:0:0:
64,192,71008,1,0,0:0:0:0:
64,192,71477,1,0,0:0:0:0:
64,192,71946,1,0,0:0:0:0:
64,192,72414,1,0,0:0:0:0:
64,192,72883,1,0,0:0:0:0:
64,192,73352,1,0,0:0:0:0:
64,192,73821,1,0,0:0:0:0:
64,192,74289,1,0,0:0:0:0:
64,192,74758,1,0,0:0:0:0:
64,192,75227,1,0,0:0:0:0:
64,192,75696,1,0,0:0:0:0:
64,192,75930,1,0,0:0:0:0:
