osu file format v14

[General]
AudioFilename: Memorizing Test_E.mp3
AudioLeadIn: 0
PreviewTime: 78040
Countdown: 0
SampleSet: Soft
StackLeniency: 0.7
Mode: 3
LetterboxInBreaks: 0
SpecialStyle: 0
WidescreenStoryboard: 0

[Editor]
DistanceSpacing: 1
BeatDivisor: 4
GridSize: 4
TimelineZoom: 1.800006

[Metadata]
Title:Memorizing Test
TitleUnicode:Memorizing Test
Artist:DJ.Hamcheese
ArtistUnicode:DJ.Hamcheese
Creator:EZ2Radio
Version:Easy to Follow
Source:EZ2ON
Tags:
BeatmapID:1327883
BeatmapSetID:629071

[Difficulty]
HPDrainRate:10
CircleSize:4
OverallDifficulty:0
ApproachRate:5
SliderMultiplier:1.4
SliderTickRate:1

[Events]
//Background and Video events
0,0,"Sudden Death 1.png",0,0
//Break Periods
//Storyboard Layer 0 (Background)
//Storyboard Layer 1 (Fail)
//Storyboard Layer 2 (Pass)
//Storyboard Layer 3 (Foreground)
//Storyboard Sound Samples

[TimingPoints]
3150,468.75,4,2,1,30,1,0
3150,-100,4,2,1,30,0,0
27056,6,4,2,1,30,1,0
27056,-10,4,2,1,30,0,0
30806,468.75,4,2,1,30,1,0
30806,-100,4,2,1,30,0,0
34556,6,4,2,1,30,1,0
34556,-10,4,2,1,30,0,0
38306,468.75,4,2,1,30,1,0
38306,-100,4,2,1,30,0,0
42056,6,4,2,1,30,1,0
42056,-10,4,2,1,30,0,0
45806,468.75,4,2,1,30,1,0
45806,-100,4,2,1,30,0,0
49556,6,4,2,1,30,1,0
49556,-10,4,2,1,30,0,0
53306,468.75,4,2,1,30,1,0
53306,-100,4,2,1,30,0,0
55181,6,4,2,1,30,1,0
55181,-10,4,2,1,30,0,0
57056,468.75,4,2,1,30,1,0
57056,-100,4,2,1,30,0,0
58931,6,4,2,1,30,1,0
58931,-10,4,2,1,30,0,0
60806,468.75,4,2,1,30,1,0
60806,-100,4,2,1,30,0,0
62681,6,4,2,1,30,1,0
62681,-10,4,2,1,30,0,0
64556,468.75,4,2,1,30,1,0
64556,-100,4,2,1,30,0,0
66431,6,4,2,1,30,1,0
66431,-10,4,2,1,30,0,0
68306,468.75,4,2,1,30,1,0
68306,-100,4,2,1,30,0,0

[HitObjects]
64,192,8540,5,0,0:0:0:0:
64,192,8775,1,0,0:0:0:0:
64,192,9243,1,0,0:0:0:0:
64,192,9712,1,0,0:0:0:0:
64,192,10181,1,0,0:0:0:0:
64,192,10650,1,0,0:0:0:0:
64,192,11118,1,0,0:0:0:0:
64,192,11587,1,0,0:0:0:0:
64,192,12056,1,0,0:0:0:0:
64,192,12525,1,0,0:0:0:0:
64,192,12993,1,0,0:0:0:0:
64,192,13462,1,0,0:0:0:0:
64,192,13931,1,0,0:0:0:0:
64,192,14400,1,0,0:0:0:0:
64,192,14868,1,0,0:0:0:0:
64,192,15337,1,0,0:0:0:0:
64,192,15806,1,0,0:0:0:0:
64,192,16040,1,0,0:0:0:0:
64,192,16275,1,0,0:0:0:0:
64,192,16743,1,0,0:0:0:0:
64,192,17212,1,0,0:0:0:0:
64,192,17681,1,0,0:0:0:0:
64,192,18150,1,0,0:0:0:0:
64,192,18618,1,0,0:0:0:0:
64,192,19087,1,0,0:0:0:0:
64,192,19556,1,0,0:0:0:0:
64,192,20025,1,0,0:0:0:0:
64,192,20493,1,0,0:0:0:0:
64,192,20962,1,0,0:0:0:0:
64,192,21431,1,0,0:0:0:0:
64,192,21665,1,0,0:0:0:0:
192,192,23775,1,0,0:0:0:0:
192,192,24243,1,0,0:0:0:0:
192,192,24712,1,0,0:0:0:0:
192,192,25181,1,0,0:0:0:0:
192,192,25650,1,0,0:0:0:0:
192,192,26118,1,0,0:0:0:0:
192,192,26587,1,0,0:0:0:0:
192,192,27056,1,0,0:0:0:0:
192,192,27526,1,0,0:0:0:0:
192,192,27994,1,0,0:0:0:0:
192,192,28463,1,0,0:0:0:0:
192,192,28932,1,0,0:0:0:0:
192,192,29401,1,0,0:0:0:0:
192,192,29869,1,0,0:0:0:0:
192,192,30338,1,0,0:0:0:0:
192,192,30806,1,0,0:0:0:0:
320,192,31274,1,0,0:0:0:0:
320,192,31743,1,0,0:0:0:0:
320,192,32212,1,0,0:0:0:0:
320,192,32681,1,0,0:0:0:0:
320,192,33149,1,0,0:0:0:0:
320,192,33618,1,0,0:0:0:0:
320,192,34087,1,0,0:0:0:0:
320,192,34556,1,0,0:0:0:0:
320,192,35026,1,0,0:0:0:0:
320,192,35494,1,0,0:0:0:0:
320,192,35963,1,0,0:0:0:0:
320,192,36432,1,0,0:0:0:0:
320,192,36901,1,0,0:0:0:0:
320,192,37369,1,0,0:0:0:0:
320,192,37838,1,0,0:0:0:0:
320,192,38306,1,0,0:0:0:0:
448,192,38774,1,0,0:0:0:0:
448,192,39243,1,0,0:0:0:0:
448,192,39712,1,0,0:0:0:0:
448,192,40181,1,0,0:0:0:0:
448,192,40649,1,0,0:0:0:0:
448,192,41118,1,0,0:0:0:0:
448,192,41587,1,0,0:0:0:0:
448,192,42056,1,0,0:0:0:0:
448,192,42526,1,0,0:0:0:0:
448,192,42994,1,0,0:0:0:0:
448,192,43463,1,0,0:0:0:0:
448,192,43932,1,0,0:0:0:0:
448,192,44401,1,0,0:0:0:0:
448,192,44869,1,0,0:0:0:0:
448,192,45338,1,0,0:0:0:0:
448,192,45806,1,0,0:0:0:0:
320,192,46274,1,0,0:0:0:0:
320,192,46743,1,0,0:0:0:0:
320,192,47212,1,0,0:0:0:0:
320,192,47681,1,0,0:0:0:0:
192,192,48149,1,0,0:0:0:0:
192,192,48618,1,0,0:0:0:0:
192,192,49087,1,0,0:0:0:0:
192,192,49556,1,0,0:0:0:0:
320,192,50026,1,0,0:0:0:0:
320,192,50494,1,0,0:0:0:0:
320,192,50963,1,0,0:0:0:0:
320,192,51432,1,0,0:0:0:0:
192,192,51901,1,0,0:0:0:0:
192,192,52369,1,0,0:0:0:0:
192,192,52838,1,0,0:0:0:0:
192,192,53306,1,0,0:0:0:0:
64,192,53774,1,0,0:0:0:0:
320,192,53774,1,0,0:0:0:0:
64,192,54243,1,0,0:0:0:0:
320,192,54243,1,0,0:0:0:0:
64,192,54712,1,0,0:0:0:0:
320,192,54712,1,0,0:0:0:0:
64,192,55181,1,0,0:0:0:0:
320,192,55181,1,0,0:0:0:0:
64,192,55651,1,0,0:0:0:0:
320,192,55651,1,0,0:0:0:0:
64,192,56119,1,0,0:0:0:0:
320,192,56119,1,0,0:0:0:0:
320,192,56588,1,0,0:0:0:0:
64,192,56588,1,0,0:0:0:0:
320,192,57056,1,0,0:0:0:0:
64,192,57056,1,0,0:0:0:0:
192,192,57524,1,0,0:0:0:0:
448,192,57524,1,0,0:0:0:0:
192,192,57993,1,0,0:0:0:0:
448,192,57993,1,0,0:0:0:0:
192,192,58462,1,0,0:0:0:0:
448,192,58462,1,0,0:0:0:0:
192,192,58931,1,0,0:0:0:0:
448,192,58931,1,0,0:0:0:0:
192,192,59401,1,0,0:0:0:0:
448,192,59401,1,0,0:0:0:0:
192,192,59869,1,0,0:0:0:0:
448,192,59869,1,0,0:0:0:0:
192,192,60338,1,0,0:0:0:0:
448,192,60338,1,0,0:0:0:0:
192,192,60806,1,0,0:0:0:0:
448,192,60806,1,0,0:0:0:0:
64,192,61274,1,0,0:0:0:0:
320,192,61274,1,0,0:0:0:0:
64,192,61743,1,0,0:0:0:0:
320,192,61743,1,0,0:0:0:0:
192,192,62212,1,0,0:0:0:0:
448,192,62212,1,0,0:0:0:0:
192,192,62681,1,0,0:0:0:0:
448,192,62681,1,0,0:0:0:0:
64,192,63151,1,0,0:0:0:0:
320,192,63151,1,0,0:0:0:0:
64,192,63619,1,0,0:0:0:0:
320,192,63619,1,0,0:0:0:0:
192,192,64088,1,0,0:0:0:0:
448,192,64088,1,0,0:0:0:0:
192,192,64556,1,0,0:0:0:0:
448,192,64556,1,0,0:0:0:0:
320,192,65024,1,0,0:0:0:0:
448,192,65024,1,0,0:0:0:0:
320,192,65493,1,0,0:0:0:0:
448,192,65493,1,0,0:0:0:0:
64,192,65962,1,0,0:0:0:0:
192,192,65962,1,0,0:0:0:0:
64,192,66431,1,0,0:0:0:0:
192,192,66431,1,0,0:0:0:0:
320,192,66901,1,0,0:0:0:0:
448,192,66901,1,0,0:0:0:0:
320,192,67369,1,0,0:0:0:0:
448,192,67369,1,0,0:0:0:0:
64,192,67838,1,0,0:0:0:0:
192,192,67838,1,0,0:0:0:0:
64,192,68306,1,0,0:0:0:0:
192,192,68306,1,0,0:0:0:0:
64,192,68774,1,0,0:0:0:0:
64,192,69243,1,0,0:0:0:0:
64,192,69712,1,0,0:0:0:0:
64,192,70181,1,0,0:0:0:0:
64,192,70649,1,0,0:0:0:0:
64,192,71118,1,0,0:0:0:0:
64,192,71587,1,0,0:0:0:0:
64,192,72056,1,0,0:0:0:0:
64,192,72524,1,0,0:0:0:0:
64,192,72993,1,0,0:0:0:0:
64,192,73462,1,0,0:0:0:0:
64,192,73931,1,0,0:0:0:0:
64,192,74399,1,0,0:0:0:0:
64,192,74868,1,0,0:0:0:0:
64,192,75337,1,0,0:0:0:0:
64,192,75806,1,0,0:0:0:0:
64,192,76040,1,0,0:0:0:0:
