osu file format v14

[General]
AudioFilename: audio.mp3
AudioLeadIn: 0
PreviewTime: 214075
Countdown: 0
SampleSet: Soft
StackLeniency: 0.4
Mode: 0
LetterboxInBreaks: 0
WidescreenStoryboard: 1

[Editor]
Bookmarks: 4779,49779,64779,79779,94779,124779,154779,199779,214779,249935,270794,274779,280872,281575,289544
DistanceSpacing: 1.5
BeatDivisor: 4
GridSize: 4
TimelineZoom: 2

[Metadata]
Title:Hidamari no Uta
TitleUnicode:陽だまりの詩
Artist:DJ'TEKINA//SOMETHING
ArtistUnicode:DJ'TEKINA//SOMETHING
Creator:Remapper
Version:Uta
Source:
Tags:MOtOLOiD featured artist Yuyoyuppe ゆよゆっぺ Vocaloid Hatsune Miku 初音ミク Japanese Electronic Remix pop Ujimacha Karen Bellicose Suiyu
BeatmapID:2357967
BeatmapSetID:875916

[Difficulty]
HPDrainRate:6
CircleSize:4.5
OverallDifficulty:7.5
ApproachRate:8
SliderMultiplier:1.4
SliderTickRate:1

[Events]
//Background and Video events
0,0,"bg.png",0,0
//Break Periods
2,139979,151966
2,169979,183841
//Storyboard Layer 0 (Background)
//Storyboard Layer 1 (Fail)
//Storyboard Layer 2 (Pass)
//Storyboard Layer 3 (Foreground)
//Storyboard Layer 4 (Overlay)
//Storyboard Sound Samples

[TimingPoints]
1029,468.75,4,2,3,60,1,0
4544,-100,4,2,3,5,0,0
4779,-100,4,2,3,60,0,0
6654,-133.333333333333,4,2,3,40,0,0
8060,-100,4,2,3,50,0,0
8529,-100,4,2,3,60,0,0
10404,-133.333333333333,4,2,3,40,0,0
11341,-133.333333333333,4,2,3,50,0,0
11810,-100,4,2,3,60,0,0
12279,-100,4,2,3,80,0,0
12513,-100,4,2,3,60,0,0
14154,-133.333333333333,4,2,3,40,0,0
15091,-133.333333333333,4,2,3,80,0,0
15911,-133.333333333333,4,2,3,5,0,0
16029,-133.333333333333,4,2,3,80,0,0
16146,-133.333333333333,4,2,3,60,0,0
19779,-100,4,2,5,60,0,0
24466,-100,4,2,5,60,0,0
28216,-100,4,2,5,60,0,0
30091,-100,4,2,5,60,0,0
31029,-133.333333333333,4,2,5,60,0,0
31966,-133.333333333333,4,2,3,60,0,0
32904,-133.333333333333,4,2,3,60,0,0
33841,-133.333333333333,4,2,3,60,0,0
34310,-66.6666666666667,4,2,3,60,0,0
34661,-66.6666666666667,4,2,3,5,0,0
34779,-83.3333333333333,4,2,3,75,0,1
34896,-83.3333333333333,4,2,3,75,0,0
64779,-100,4,2,4,60,0,0
94310,-133.333333333333,4,2,3,60,0,0
94779,-76.9230769230769,4,2,3,80,0,1
124310,-200,4,2,3,80,0,1
124779,-83.3333333333333,4,2,3,75,0,1
124896,-83.3333333333333,4,2,3,75,0,0
154779,-100,4,2,4,75,0,0
168255,-100,4,2,80,75,0,0
168372,-100,4,2,81,75,0,0
168607,-100,4,2,4,75,0,0
168724,-100,4,2,82,75,0,0
168841,-100,4,2,3,75,0,0
169193,-100,4,2,4,75,0,0
184779,-100,4,2,5,75,0,0
199779,-100,4,2,4,75,0,0
214310,-133.333333333333,4,2,5,75,0,0
214779,-76.9230769230769,4,2,3,80,0,1
244310,-66.6666666666667,4,2,3,80,0,1
244779,-100,4,2,3,80,0,0
274779,-125,4,2,3,60,0,0
276654,-125,4,2,3,50,0,0
278529,-166.666666666667,4,2,3,55,0,0
280404,-166.666666666667,4,2,3,45,0,0
282279,-250,4,2,3,50,0,0
284154,-250,4,2,3,40,0,0
286029,-500,4,2,3,45,0,0
287904,-500,4,2,3,35,0,0
289075,-500,4,2,3,60,0,0
289779,-133.333333333333,4,2,3,60,0,0
290247,-133.333333333333,4,2,3,50,0,0
290716,-133.333333333333,4,2,3,40,0,0
291185,-133.333333333333,4,2,3,30,0,0
291654,-133.333333333333,4,2,3,20,0,0
292122,-133.333333333333,4,2,3,10,0,0
292591,-133.333333333333,4,2,3,5,0,0

[Colours]
Combo1 : 230,181,108
Combo2 : 2,225,175
Combo3 : 49,132,223
Combo4 : 181,215,219

[HitObjects]
256,192,1497,12,0,4544,0:0:0:0:
99,108,4779,5,6,0:0:0:0:
114,122,5482,5,0,0:0:0:0:
175,168,5716,2,0,P|215:172|246:162,1,70,2|0,0:0|0:0,0:0:0:0:
171,71,6185,2,0,P|204:62|239:66,1,70,2|0,0:0|0:0,0:0:0:0:
304,114,6654,6,0,P|320:148|320:172,1,52.5000020027161,2|0,0:0|0:0,0:0:0:0:
303,210,7122,2,0,P|316:187|320:162,1,52.5000020027161,2|0,0:0|0:0,0:0:0:0:
243,163,7591,1,2,0:0:0:0:
389,217,7825,1,0,0:0:0:0:
398,62,8060,2,0,P|433:40|474:33,1,70,2|0,0:0|0:0,0:0:0:0:
465,206,8529,6,0,L|468:137,1,70,2|0,0:0|0:0,0:0:0:0:
386,286,8997,2,0,L|388:216,1,70,2|0,0:0|0:0,0:0:0:0:
318,117,9466,2,0,L|316:187,1,70,2|0,0:0|0:0,0:0:0:0:
236,266,9934,2,0,L|238:196,1,70,2|0,0:0|0:0,0:0:0:0:
169,111,10404,6,0,L|106:121,1,52.5000020027161,2|0,0:0|0:0,0:0:0:0:
64,182,10872,2,0,L|74:245,1,52.5000020027161,2|0,0:0|0:0,0:0:0:0:
88,48,11341,6,0,L|185:32,1,78.7500030040742,2|0,0:0|0:0,0:0:0:0:
189,9,11810,6,0,P|186:68|221:113,1,105,2|0,0:0|0:0,0:0:0:0:
266,42,12279,5,2,0:0:0:0:
294,121,12513,1,0,0:0:0:0:
374,144,12747,1,2,0:0:0:0:
440,92,12982,1,0,0:0:0:0:
313,201,13216,2,0,L|320:291,1,70,2|0,0:0|0:0,0:0:0:0:
199,183,13685,2,0,L|192:93,1,70,2|0,0:0|0:0,0:0:0:0:
390,210,14154,6,0,L|394:265,1,52.5000020027161,2|0,0:0|0:0,0:0:0:0:
460,311,14622,2,0,L|515:307,1,52.5000020027161,2|0,0:0|0:0,0:0:0:0:
317,270,15091,6,0,L|129:284,1,183.750007009506,2|0,0:0|0:0,0:0:0:0:
104,270,16029,6,0,P|127:316|121:367,1,105.000004005432,2|2,0:0|0:0,0:0:0:0:
45,331,16732,1,0,0:0:0:0:
104,270,16966,2,0,L|111:203,1,52.5000020027161,2|0,0:0|0:0,0:0:0:0:
15,203,17435,2,0,L|22:270,1,52.5000020027161,2|0,0:0|0:0,0:0:0:0:
122,131,17904,6,0,L|1:121,3,105.000004005432,2|2|2|2,0:0|0:0|0:0|0:0,0:0:0:0:
256,144,19779,5,6,3:2:0:0:
390,131,20013,1,2,0:1:0:0:
407,129,20130,1,0,0:0:0:0:
424,127,20247,2,0,L|427:166,1,35,10|0,0:0|0:0,0:0:0:0:
256,144,20482,2,0,L|258:178,1,35,2|0,0:1|0:0,0:0:0:0:
353,272,20716,2,0,L|344:180,1,70,2|2,3:2|0:1,0:0:0:0:
332,66,21185,2,0,L|326:6,2,35,10|0|2,0:0|0:0|0:1,0:0:0:0:
346,202,21654,6,0,L|353:272,1,70,2|2,3:2|0:1,0:0:0:0:
355,289,22005,1,0,0:0:0:0:
356,306,22122,2,0,L|307:313,1,35,10|0,0:0|0:0,0:0:0:0:
441,293,22357,2,0,L|475:288,1,35,2|0,0:1|0:0,0:0:0:0:
374,377,22591,2,0,L|285:388,1,70,2|2,3:2|0:1,0:0:0:0:
138,377,23060,1,10,0:0:0:0:
155,379,23177,1,0,0:0:0:0:
172,381,23294,1,2,0:1:0:0:
190,383,23411,1,0,0:0:0:0:
207,385,23528,5,2,3:2:0:0:
184,302,23763,2,0,L|123:296,1,35,2|0,0:1|0:0,0:0:0:0:
64,329,23997,2,0,L|70:268,1,35,10|0,0:0|0:0,0:0:0:0:
191,224,24232,2,0,L|130:218,1,35,2|0,0:1|0:0,0:0:0:0:
4,210,24466,2,0,L|102:218,1,70,2|2,3:2|0:1,0:0:0:0:
80,135,24935,1,10,0:0:0:0:
62,133,25052,1,0,0:0:0:0:
44,131,25169,1,2,0:1:0:0:
162,139,25404,5,2,3:2:0:0:
138,7,25638,1,2,0:1:0:0:
155,4,25755,1,0,0:0:0:0:
172,2,25872,1,10,0:0:0:0:
190,0,25989,1,0,0:0:0:0:
210,0,26107,2,0,L|209:45,1,35,2|0,0:1|0:0,0:0:0:0:
276,106,26341,2,0,P|331:114|391:95,1,105,2|0,3:2|0:0,0:0:0:0:
391,90,26810,2,0,P|383:145|402:205,1,105,10|0,0:0|0:0,0:0:0:0:
405,206,27279,5,2,3:2:0:0:
307,204,27513,1,2,0:1:0:0:
307,204,27630,1,0,0:0:0:0:
307,204,27747,2,0,L|305:261,1,35,10|0,0:0|0:0,0:0:0:0:
225,242,27982,2,0,L|226:207,1,35,2|0,0:1|0:0,0:0:0:0:
146,228,28216,2,0,L|56:232,1,70,2|2,3:2|0:1,0:0:0:0:
79,316,28685,1,10,0:0:0:0:
96,314,28802,1,0,0:0:0:0:
113,312,28919,1,2,0:1:0:0:
110,147,29154,5,2,3:2:0:0:
256,96,29388,1,2,0:1:0:0:
256,113,29505,1,0,0:0:0:0:
256,131,29622,1,10,0:0:0:0:
256,148,29739,1,0,0:0:0:0:
256,166,29857,2,0,L|256:220,1,35,2|0,0:1|0:0,0:0:0:0:
152,288,30091,6,0,B|224:296|256:348|256:348|288:296|364:288,1,245,2|0,3:2|0:0,0:0:0:0:
372,300,31029,6,0,L|388:80,1,210.000008010865,2|2,0:0|0:0,0:0:0:0:
140,300,32904,6,0,L|124:80,1,210.000008010865,2|2,0:0|0:0,0:0:0:0:
256,40,34310,6,0,B|248:96|248:96|264:136|264:136|256:232,1,157.500006008148,10|0,0:0|0:0,0:0:0:0:
252,216,34779,6,0,P|296:232|352:224,1,83.9999974365235,6|2,1:2|0:1,0:0:0:0:
428,128,35247,2,0,L|420:220,1,83.9999974365235,10|2,1:2|0:1,0:0:0:0:
420,232,35599,1,0,3:0:0:0:
420,252,35716,2,0,L|412:344,1,83.9999974365235,2|2,1:2|0:1,0:0:0:0:
325,313,36185,2,0,L|332:229,1,83.9999974365235,10|2,1:2|0:1,0:0:0:0:
256,140,36654,5,2,1:2:0:0:
176,120,36888,1,2,0:1:0:0:
104,160,37122,2,0,L|96:212,2,41.9999987182618,10|0|2,1:2|0:0|0:1,0:0:0:0:
96,140,37474,1,0,3:0:0:0:
88,120,37591,2,0,L|95:36,1,83.9999974365235,2|2,1:2|0:1,0:0:0:0:
20,172,38060,2,0,L|13:256,1,83.9999974365235,10|2,1:2|0:1,0:0:0:0:
12,276,38411,1,0,3:0:0:0:
12,296,38529,5,2,1:2:0:0:
100,296,38763,2,0,L|92:348,2,41.9999987182618,2|0|10,0:1|0:0|1:2,0:0:0:0:
104,276,39114,1,0,3:0:0:0:
108,256,39232,1,2,0:1:0:0:
216,196,39466,2,0,B|256:188|256:188|296:202,1,83.9999974365235,2|2,1:2|0:1,0:0:0:0:
286,347,39935,2,0,B|246:355|246:355|205:340,1,83.9999974365235,10|2,1:2|0:1,0:0:0:0:
256,188,40404,6,0,L|251:273,1,83.9999974365235,2|2,1:2|0:1,0:0:0:0:
382,297,40872,1,10,1:2:0:0:
382,297,40989,2,0,L|429:279,2,41.9999987182618,0|2|0,3:0|0:1|0:0,0:0:0:0:
382,297,41341,2,0,L|386:213,1,83.9999974365235,2|2,1:2|0:1,0:0:0:0:
397,41,41810,2,0,L|392:124,1,83.9999974365235,10|2,1:2|0:1,0:0:0:0:
231,160,42279,6,0,L|314:164,1,83.9999974365235,2|2,1:2|0:1,0:0:0:0:
480,44,42747,2,0,L|388:40,1,83.9999974365235,10|2,1:2|0:1,0:0:0:0:
374,38,43099,1,0,3:0:0:0:
353,36,43216,1,2,1:2:0:0:
256,100,43450,1,2,0:1:0:0:
159,36,43685,2,0,L|75:39,1,83.9999974365235,10|2,1:2|0:1,0:0:0:0:
256,184,44154,6,0,L|256:88,1,83.9999974365235,2|2,1:2|0:1,0:0:0:0:
348,248,44622,1,10,1:2:0:0:
348,248,44739,2,0,L|396:264,2,41.9999987182618,0|2|0,3:0|0:1|0:0,0:0:0:0:
348,248,45091,2,0,L|348:332,1,83.9999974365235,2|2,1:2|0:1,0:0:0:0:
164,248,45560,2,0,L|164:332,1,83.9999974365235,10|2,1:2|0:1,0:0:0:0:
256,268,46029,6,0,L|256:172,1,83.9999974365235,2|2,1:2|0:1,0:0:0:0:
236,54,46497,2,0,L|222:6,2,41.9999987182618,10|0|2,1:2|0:0|0:1,0:0:0:0:
241,74,46849,1,0,3:0:0:0:
247,93,46966,2,0,L|163:99,1,83.9999974365235,2|2,1:2|0:1,0:0:0:0:
172,190,47435,2,0,L|268:182,1,83.9999974365235,10|2,1:2|0:1,0:0:0:0:
488,124,47904,6,0,L|404:130,1,83.9999974365235,2|2,1:2|0:1,0:0:0:0:
390,130,48216,2,0,L|348:133,2,27.9999991455078,2|2|10,0:0|0:0|1:2,0:0:0:0:
266,41,48607,2,0,L|269:94,1,41.9999987182618,2|0,0:1|0:0,0:0:0:0:
152,216,48841,2,0,B|191:202|191:202|233:207,1,83.9999974365235,2|2,1:2|0:1,0:0:0:0:
243,337,49310,2,0,B|204:351|204:351|161:345,1,83.9999974365235,10|2,1:2|0:1,0:0:0:0:
78,301,49661,1,0,1:0:0:0:
78,301,49779,6,0,B|83:251|83:251|70:223|70:223|81:171,1,125.999996154785,6|0,1:2|0:0,0:0:0:0:
96,88,50247,1,10,1:2:0:0:
207,14,50482,1,2,0:1:0:0:
218,32,50599,1,0,3:0:0:0:
227,51,50716,2,0,L|231:143,1,83.9999974365235,2|2,1:2|0:1,0:0:0:0:
279,303,51185,2,0,L|282:219,1,83.9999974365235,10|2,1:2|0:1,0:0:0:0:
472,87,51654,5,2,1:2:0:0:
361,13,51889,1,2,0:1:0:0:
350,31,52006,1,0,3:0:0:0:
341,50,52123,2,0,L|337:142,1,83.9999974365235,10|2,1:2|0:1,0:0:0:0:
488,272,52591,5,2,1:2:0:0:
415,163,52825,2,0,L|411:238,1,41.9999987182618,2|0,0:1|0:0,0:0:0:0:
335,216,53060,2,0,L|331:291,1,41.9999987182618,10|0,1:2|0:0,0:0:0:0:
255,269,53294,2,0,L|251:344,1,41.9999987182618,2|0,0:1|0:0,0:0:0:0:
162,372,53529,6,0,B|122:380|122:380|82:366,1,83.9999974365235,2|2,1:2|0:1,0:0:0:0:
0,246,53997,2,0,B|40:238|40:238|81:253,1,83.9999974365235,10|2,1:2|0:1,0:0:0:0:
98,264,54349,1,0,3:0:0:0:
115,276,54466,2,0,L|118:192,1,83.9999974365235,2|2,1:2|0:1,0:0:0:0:
213,42,54935,1,10,1:2:0:0:
365,180,55169,1,2,0:1:0:0:
345,188,55286,1,0,3:0:0:0:
326,197,55404,6,0,B|286:205|286:205|245:190,1,83.9999974365235,2|2,1:2|0:1,0:0:0:0:
228,179,55756,1,0,3:0:0:0:
211,167,55873,2,0,L|208:251,1,83.9999974365235,10|2,1:2|0:1,0:0:0:0:
343,360,56341,5,2,1:2:0:0:
447,274,56575,2,0,L|443:199,1,41.9999987182618,2|0,0:1|0:0,0:0:0:0:
367,221,56810,2,0,L|363:146,1,41.9999987182618,10|0,1:2|0:0,0:0:0:0:
287,168,57044,2,0,L|283:93,1,41.9999987182618,2|0,0:1|0:0,0:0:0:0:
194,144,57279,6,0,B|188:94|188:94|205:68|205:68|202:23,1,125.999996154785,2|0,1:2|0:0,0:0:0:0:
113,30,57747,1,10,1:2:0:0:
24,133,57982,1,2,0:1:0:0:
13,151,58099,1,0,3:0:0:0:
4,170,58216,2,0,L|0:262,1,83.9999974365235,2|2,1:2|0:1,0:0:0:0:
131,369,58685,2,0,L|134:285,1,83.9999974365235,10|2,1:2|0:1,0:0:0:0:
194,144,59154,5,2,1:2:0:0:
283,247,59389,1,2,0:1:0:0:
294,265,59506,1,0,3:0:0:0:
303,284,59623,2,0,L|307:376,1,83.9999974365235,10|2,1:2|0:1,0:0:0:0:
467,199,60091,5,2,1:2:0:0:
388,339,60325,2,0,L|385:297,1,41.9999987182618,2|0,0:1|0:0,0:0:0:0:
370,213,60560,2,0,L|374:138,1,41.9999987182618,10|0,1:2|0:0,0:0:0:0:
394,89,60794,2,0,L|390:14,1,41.9999987182618,2|0,0:1|0:0,0:0:0:0:
294,61,61029,6,0,B|302:101|302:101|288:141,1,83.9999974365235,2|2,1:2|0:1,0:0:0:0:
238,221,61497,2,0,B|230:261|230:261|245:302,1,83.9999974365235,10|2,1:2|0:1,0:0:0:0:
256,319,61849,1,0,3:0:0:0:
268,336,61966,2,0,L|184:339,1,83.9999974365235,2|2,1:2|0:1,0:0:0:0:
323,152,62435,1,10,1:2:0:0:
328,130,62552,1,0,3:0:0:0:
326,109,62669,1,2,0:1:0:0:
247,125,62904,6,0,L|173:129,1,55.9999982910157,2|0,1:2|0:0,0:0:0:0:
124,158,63138,2,0,L|75:155,2,27.9999991455078,2|2|2,0:1|0:0|1:2,0:0:0:0:
165,217,63372,1,10,1:2:0:0:
184,254,63489,1,2,0:0:0:0:
182,297,63606,1,2,0:1:0:0:
159,333,63723,1,2,1:2:0:0:
122,354,63841,5,2,1:2:0:0:
80,257,64075,2,0,L|77:215,1,41.9999987182618,2|0,1:1|0:0,0:0:0:0:
144,141,64310,2,0,L|147:99,1,41.9999987182618,10|0,1:2|0:0,0:0:0:0:
258,48,64544,1,2,0:1:0:0:
278,47,64661,1,0,1:0:0:0:
296,47,64779,6,0,L|393:44,1,70,6|2,1:2|0:1,0:0:0:0:
383,44,65130,1,0,3:0:0:0:
400,43,65247,2,0,L|400:88,1,35,10|0,1:2|0:0,0:0:0:0:
352,157,65482,2,0,L|352:202,1,35,2|0,0:1|0:0,0:0:0:0:
307,271,65716,2,0,L|206:275,1,70,0|2,1:0|0:1,0:0:0:0:
408,265,66185,2,0,L|477:262,1,70,10|2,1:2|0:1,0:0:0:0:
361,343,66654,5,0,1:0:0:0:
169,302,66888,1,2,0:1:0:0:
162,284,67005,1,0,3:0:0:0:
161,266,67122,2,0,L|164:218,1,35,10|0,1:2|0:0,0:0:0:0:
237,273,67357,2,0,L|285:276,1,35,2|0,0:1|0:0,0:0:0:0:
83,215,67591,2,0,L|79:296,1,70,0|2,1:0|0:1,0:0:0:0:
233,342,68060,2,0,L|237:261,1,70,10|2,1:2|0:1,0:0:0:0:
240,198,68411,1,0,3:0:0:0:
240,198,68529,6,0,L|240:101,1,70,0|2,1:0|0:1,0:0:0:0:
240,110,68880,1,0,3:0:0:0:
240,92,68997,2,0,L|241:42,1,35,10|0,1:2|0:0,0:0:0:0:
158,78,69232,2,0,L|108:77,1,35,2|0,0:1|0:0,0:0:0:0:
326,79,69466,2,0,L|402:79,1,70,0|2,1:0|0:1,0:0:0:0:
469,119,69935,2,0,P|479:78|470:38,1,70,10|2,1:2|0:1,0:0:0:0:
401,160,70404,6,0,L|401:236,1,70,0|2,1:0|0:1,0:0:0:0:
402,247,70755,1,0,3:0:0:0:
403,264,70872,2,0,L|405:305,1,35,10|0,1:2|0:0,0:0:0:0:
485,299,71107,2,0,L|483:258,1,35,2|0,0:1|0:0,0:0:0:0:
323,291,71341,2,0,L|247:291,1,70,0|2,1:0|0:1,0:0:0:0:
114,327,71810,1,10,1:2:0:0:
175,280,72044,1,2,0:1:0:0:
175,262,72161,1,0,3:0:0:0:
175,244,72279,5,0,1:0:0:0:
112,110,72513,1,2,0:1:0:0:
112,92,72630,1,0,3:0:0:0:
112,74,72747,2,0,L|164:70,1,35,10|0,1:2|0:0,0:0:0:0:
300,60,72982,2,0,L|265:62,1,35,2|0,0:1|0:0,0:0:0:0:
210,129,73216,2,0,L|217:221,1,70,0|2,1:0|0:1,0:0:0:0:
302,255,73685,2,0,L|295:163,1,70,10|2,1:2|0:1,0:0:0:0:
367,116,74154,6,0,P|400:106|435:104,1,70,0|2,1:0|0:1,0:0:0:0:
452,108,74505,1,0,3:0:0:0:
468,114,74622,2,0,L|469:159,1,35,10|0,1:2|0:0,0:0:0:0:
393,206,74857,2,0,L|392:251,1,35,2|0,0:1|0:0,0:0:0:0:
474,227,75091,1,0,1:0:0:0:
389,320,75325,1,2,0:1:0:0:
311,220,75560,1,10,1:2:0:0:
246,328,75794,2,0,L|243:286,1,35,2|0,0:1|0:0,0:0:0:0:
239,275,76029,6,0,P|186:283|150:268,1,70,0|2,1:0|0:1,0:0:0:0:
154,272,76380,1,0,3:0:0:0:
137,265,76497,2,0,L|136:228,1,35,10|0,1:2|0:0,0:0:0:0:
54,137,76732,2,0,L|55:174,1,35,2|0,0:1|0:0,0:0:0:0:
66,185,76966,2,0,L|62:92,1,70,0|2,1:0|0:1,0:0:0:0:
151,7,77435,2,0,L|155:100,1,70,10|2,1:2|0:1,0:0:0:0:
256,144,77904,6,0,L|325:147,1,70,2|2,0:0|0:1,0:0:0:0:
337,147,78216,2,0,L|369:148,2,23.3333333333333,2|2|8,0:0|0:0|0:0,0:0:0:0:
464,61,78607,2,0,L|468:141,1,70,2|2,0:1|0:0,0:0:0:0:
471,214,79075,1,2,0:1:0:0:
360,305,79310,2,0,L|303:304,1,46.6666666666667,2|2,1:2|0:0,0:0:0:0:
301,303,79544,1,2,0:1:0:0:
205,339,79700,1,0,1:0:0:0:
195,345,79779,6,0,L|200:260,1,70,6|2,1:2|0:1,0:0:0:0:
155,22,80247,2,0,L|94:36,1,35,10|0,1:2|0:0,0:0:0:0:
138,103,80482,2,0,L|172:95,1,35,2|0,0:1|0:0,0:0:0:0:
232,150,80716,6,0,P|272:137|320:136,1,70,0|2,1:0|0:1,0:0:0:0:
97,182,81185,2,0,P|57:195|9:196,1,70,10|2,1:2|0:1,0:0:0:0:
212,377,81654,5,0,1:0:0:0:
161,313,81888,1,2,0:1:0:0:
163,295,82005,1,0,3:0:0:0:
165,278,82122,1,10,1:2:0:0:
167,260,82239,1,0,3:0:0:0:
169,242,82357,2,0,L|174:186,1,35,2|0,3:1|3:0,3:0:0:0:
226,149,82591,1,0,1:0:0:0:
226,149,82825,1,2,0:1:0:0:
305,303,83060,6,0,L|399:289,1,70,10|2,1:2|0:1,0:0:0:0:
435,234,83411,1,0,3:0:0:0:
435,234,83529,2,0,P|436:191|442:145,1,70,0|2,1:0|0:1,0:0:0:0:
463,84,83880,1,0,3:0:0:0:
463,84,83997,2,0,L|402:81,1,35,10|0,1:2|0:0,0:0:0:0:
428,5,84232,2,0,L|462:6,1,35,2|0,0:1|0:0,0:0:0:0:
362,139,84466,2,0,P|320:133|283:108,1,70,0|2,1:0|0:1,0:0:0:0:
211,19,84935,6,0,P|222:71|227:102,1,70,10|2,1:2|0:1,0:0:0:0:
170,236,85404,2,0,P|159:288|154:319,1,70,0|2,1:0|0:1,0:0:0:0:
215,361,85755,1,0,3:0:0:0:
215,361,85872,2,0,L|266:352,1,35,10|0,1:2|0:0,0:0:0:0:
239,278,86107,2,0,L|290:269,1,35,2|0,0:1|0:0,0:0:0:0:
330,340,86341,2,0,B|365:348|365:348|408:307,1,70,0|2,1:0|0:1,0:0:0:0:
388,118,86810,1,10,1:2:0:0:
332,63,87044,1,2,0:1:0:0:
332,63,87161,1,0,3:0:0:0:
332,63,87279,5,0,1:0:0:0:
174,134,87513,1,2,0:1:0:0:
174,134,87630,1,0,3:0:0:0:
174,134,87747,2,0,L|118:125,1,35,10|0,1:2|0:0,0:0:0:0:
144,50,87982,2,0,L|178:55,1,35,2|0,0:1|0:0,0:0:0:0:
242,184,88216,6,0,P|231:221|222:278,1,70,0|2,1:0|0:1,0:0:0:0:
89,247,88685,2,0,P|82:212|71:179,1,70,10|2,1:2|0:1,0:0:0:0:
0,380,89154,6,0,L|76:369,1,70,0|2,1:0|0:1,0:0:0:0:
135,317,89505,1,0,3:0:0:0:
135,317,89622,2,0,L|174:332,1,35,10|0,1:2|0:0,0:0:0:0:
233,371,89857,2,0,L|265:358,1,35,2|0,0:1|0:0,0:0:0:0:
349,361,90091,1,0,1:0:0:0:
416,314,90325,1,2,0:1:0:0:
340,145,90560,1,10,1:2:0:0:
263,160,90950,5,0,1:0:0:0:
256,170,91029,2,0,L|154:157,1,70,0|2,1:0|0:1,0:0:0:0:
104,148,91380,1,0,3:0:0:0:
104,148,91497,1,10,1:2:0:0:
49,212,91732,1,2,0:1:0:0:
49,212,91849,1,0,3:0:0:0:
49,212,91966,1,2,3:2:0:0:
93,283,92200,1,2,0:1:0:0:
283,260,92435,1,10,0:2:0:0:
283,260,92669,1,2,0:1:0:0:
349,309,92904,6,0,L|371:164,2,140,2|8|2,0:1|0:0|0:0,0:0:0:0:
118,354,94310,6,0,P|86:331|48:321,1,78.7500030040742,2|0,1:2|0:0,0:0:0:0:
33,344,94779,6,0,L|30:225,1,90.9999958343508,6|2,1:2|0:1,0:0:0:0:
42,159,95130,1,0,3:0:0:0:
42,159,95247,2,0,P|86:180|103:182,1,45.4999979171754,10|0,1:2|0:0,0:0:0:0:
98,102,95482,1,2,0:1:0:0:
258,81,95716,1,2,1:2:0:0:
181,114,95950,1,2,0:1:0:0:
336,45,96185,1,10,1:2:0:0:
282,209,96419,2,0,L|280:155,1,45.4999979171754,2|0,0:1|0:0,0:0:0:0:
290,143,96654,6,0,L|295:273,1,90.9999958343508,2|2,1:2|0:1,0:0:0:0:
367,298,97005,1,0,3:0:0:0:
367,298,97122,2,0,P|409:295|428:303,1,45.4999979171754,10|0,1:2|0:0,0:0:0:0:
235,299,97357,2,0,P|193:302|174:294,1,45.4999979171754,2|0,0:1|0:0,0:0:0:0:
131,244,97591,1,2,1:2:0:0:
210,219,97825,1,2,0:1:0:0:
81,314,98060,2,0,L|75:161,1,136.499993751526,10|0,1:2|0:0,0:0:0:0:
60,160,98529,6,0,P|105:163|163:139,1,90.9999958343508,2|2,1:2|0:1,0:0:0:0:
125,0,98997,2,0,P|80:-3|22:21,1,90.9999958343508,10|2,1:2|0:1,0:0:0:0:
188,66,99349,1,0,3:0:0:0:
188,66,99466,2,0,L|306:49,1,90.9999958343508,2|2,1:2|0:1,0:0:0:0:
451,149,99935,2,0,L|360:136,1,90.9999958343508,10|2,1:2|0:1,0:0:0:0:
161,243,100404,6,0,P|226:239|256:250,1,90.9999958343508,2|2,1:2|0:1,0:0:0:0:
265,263,100755,1,0,3:0:0:0:
279,280,100872,2,0,L|278:333,1,45.4999979171754,10|0,1:2|0:0,0:0:0:0:
322,204,101107,1,2,0:1:0:0:
389,265,101341,1,2,1:2:0:0:
475,238,101575,1,2,0:1:0:0:
405,178,101810,1,10,1:2:0:0:
323,326,102044,2,0,L|270:325,1,45.4999979171754,2|0,0:1|0:0,0:0:0:0:
194,348,102279,6,0,P|142:331|95:341,1,90.9999958343508,2|2,1:2|0:1,0:0:0:0:
0,248,102747,1,10,1:2:0:0:
21,241,102864,1,0,3:0:0:0:
44,239,102981,1,2,0:1:0:0:
66,242,103098,1,0,3:0:0:0:
88,249,103215,1,2,1:2:0:0:
106,336,103450,1,2,0:1:0:0:
144,173,103685,1,10,1:2:0:0:
69,120,103919,1,2,0:1:0:0:
239,160,104154,6,0,P|290:150|337:154,1,90.9999958343508,2|2,1:2|0:1,0:0:0:0:
484,226,104622,1,10,1:2:0:0:
463,233,104739,1,0,3:0:0:0:
440,235,104856,1,2,0:1:0:0:
418,232,104973,1,0,3:0:0:0:
396,225,105090,1,2,1:2:0:0:
328,152,105325,1,2,0:1:0:0:
504,296,105560,2,0,L|512:135,1,136.499993751526,10|0,1:2|0:0,0:0:0:0:
499,139,106029,6,0,P|436:144|396:129,1,90.9999958343508,2|2,1:2|0:1,0:0:0:0:
275,112,106380,1,0,3:0:0:0:
275,112,106497,2,0,P|310:164|317:206,1,90.9999958343508,10|2,1:2|0:1,0:0:0:0:
365,318,106966,2,0,P|392:260|425:233,1,90.9999958343508,2|2,1:2|0:1,0:0:0:0:
262,281,107435,2,0,L|129:282,1,90.9999958343508,10|2,1:2|0:1,0:0:0:0:
365,318,107904,5,2,1:2:0:0:
464,351,108138,2,0,L|480:239,2,90.9999958343508,2|10|2,0:1|1:2|0:1,0:0:0:0:
283,376,108841,1,2,1:2:0:0:
365,318,109075,1,2,0:1:0:0:
262,281,109310,1,10,1:2:0:0:
173,359,109544,1,2,0:1:0:0:
173,359,109661,1,0,1:0:0:0:
173,359,109779,6,0,L|161:225,1,90.9999958343508,6|2,1:2|0:1,0:0:0:0:
119,159,110247,1,10,1:2:0:0:
141,160,110364,1,0,3:0:0:0:
163,161,110482,1,2,0:1:0:0:
185,163,110599,1,0,3:0:0:0:
207,165,110716,1,2,1:2:0:0:
324,173,110950,1,2,0:1:0:0:
207,165,111185,2,0,P|207:107|229:68,1,90.9999958343508,10|2,1:2|0:1,0:0:0:0:
445,191,111654,6,0,P|445:249|423:288,1,90.9999958343508,2|2,1:2|0:1,0:0:0:0:
441,298,112005,1,0,3:0:0:0:
419,289,112122,1,10,1:2:0:0:
396,287,112239,1,0,3:0:0:0:
374,296,112357,1,2,0:1:0:0:
286,344,112591,2,0,P|285:298|292:231,1,90.9999958343508,2|2,1:2|0:1,0:0:0:0:
351,29,113060,2,0,P|351:75|345:142,1,90.9999958343508,10|0,1:2|0:0,0:0:0:0:
203,235,113529,6,0,P|258:257|317:236,1,90.9999958343508,2|2,1:2|0:1,0:0:0:0:
353,205,113880,1,0,3:0:0:0:
353,205,113997,2,0,L|411:209,1,45.4999979171754,10|0,1:2|0:0,0:0:0:0:
392,315,114232,2,0,L|346:311,1,45.4999979171754,2|0,0:1|0:0,0:0:0:0:
465,266,114466,1,2,1:2:0:0:
348,119,114700,1,2,0:1:0:0:
203,235,114935,2,0,P|148:257|89:236,1,90.9999958343508,10|2,1:2|0:1,0:0:0:0:
208,325,115404,6,0,L|201:218,1,90.9999958343508,2|2,1:2|0:1,0:0:0:0:
160,84,115872,1,10,1:2:0:0:
160,84,115989,2,0,L|125:44,2,45.4999979171754,0|2|0,3:0|0:1|0:0,0:0:0:0:
178,97,116341,2,0,L|290:98,1,90.9999958343508,2|2,1:2|0:1,0:0:0:0:
474,268,116810,1,10,1:2:0:0:
389,185,117044,1,2,0:1:0:0:
197,306,117279,6,0,P|248:321|289:315,1,90.9999958343508,2|2,1:2|0:1,0:0:0:0:
304,304,117630,1,0,3:0:0:0:
326,300,117747,1,10,1:2:0:0:
348,300,117864,1,0,3:0:0:0:
370,303,117982,1,2,0:1:0:0:
389,185,118216,2,0,L|383:76,1,90.9999958343508,2|2,1:2|0:1,0:0:0:0:
478,138,118685,1,10,1:2:0:0:
295,150,118919,2,0,L|241:152,1,45.4999979171754,2|0,0:1|0:0,0:0:0:0:
186,100,119154,6,0,P|169:143|177:187,1,90.9999958343508,2|2,1:2|0:1,0:0:0:0:
187,205,119505,1,0,3:0:0:0:
184,227,119622,1,10,1:2:0:0:
191,248,119739,1,0,3:0:0:0:
191,270,119857,1,2,0:1:0:0:
46,312,120091,2,0,P|72:275|113:257,1,90.9999958343508,2|2,1:2|0:1,0:0:0:0:
275,232,120560,2,0,P|316:249|342:286,1,90.9999958343508,10|2,1:2|0:1,0:0:0:0:
447,329,121029,6,0,P|415:282|327:300,1,136.499993751526,2|0,1:2|0:0,0:0:0:0:
324,300,121497,2,0,B|365:318|365:318|399:287,1,90.9999958343508,10|2,1:2|0:1,0:0:0:0:
170,285,121966,2,0,P|157:328|165:373,1,90.9999958343508,2|2,1:2|0:1,0:0:0:0:
347,373,122435,2,0,P|354:328|341:285,1,90.9999958343508,10|2,1:2|0:1,0:0:0:0:
77,188,122904,6,0,L|182:188,1,90.9999958343508,2|2,1:2|0:1,0:0:0:0:
426,184,123294,5,2,1:0:0:0:
435,196,123372,2,0,L|344:196,1,90.9999958343508,10|2,1:2|0:1,0:0:0:0:
255,336,123763,5,2,1:0:0:0:
255,321,123841,1,2,1:2:0:0:
256,192,124075,1,2,1:1:0:0:
227,54,124310,6,0,P|255:48|284:54,1,58.3333333333333,8|2,1:2|1:0,0:0:0:0:
347,113,124779,6,0,P|391:129|447:121,1,83.9999974365235,6|2,1:2|0:1,0:0:0:0:
165,113,125247,2,0,P|121:129|65:121,1,83.9999974365235,10|2,1:2|0:1,0:0:0:0:
63,122,125599,1,0,3:0:0:0:
71,155,125716,2,0,P|76:196|79:238,1,83.9999974365235,2|2,1:2|0:1,0:0:0:0:
199,372,126185,2,0,P|201:330|207:288,1,83.9999974365235,10|2,1:2|0:1,0:0:0:0:
257,194,126654,5,2,1:2:0:0:
355,174,126888,1,2,0:1:0:0:
432,238,127122,2,0,L|424:290,2,41.9999987182618,10|0|2,1:2|0:0|0:1,0:0:0:0:
446,222,127474,1,0,3:0:0:0:
462,208,127591,2,0,P|463:164|455:124,1,83.9999974365235,2|2,1:2|0:1,0:0:0:0:
284,11,128060,2,0,P|282:54|291:95,1,83.9999974365235,10|2,1:2|0:1,0:0:0:0:
296,113,128411,1,0,3:0:0:0:
306,131,128529,5,2,1:2:0:0:
203,222,128763,2,0,L|203:274,2,41.9999987182618,2|0|10,0:1|0:0|1:2,0:0:0:0:
202,200,129114,1,0,3:0:0:0:
200,180,129232,1,2,0:1:0:0:
80,90,129466,2,0,B|40:82|40:82|0:96,1,83.9999974365235,2|2,1:2|0:1,0:0:0:0:
12,228,129935,2,0,B|52:236|52:236|92:222,1,83.9999974365235,10|2,1:2|0:1,0:0:0:0:
204,96,130404,6,0,L|199:181,1,83.9999974365235,2|2,1:2|0:1,0:0:0:0:
292,307,130872,1,10,1:2:0:0:
292,307,130989,2,0,L|339:289,2,41.9999987182618,0|2|0,3:0|0:1|0:0,0:0:0:0:
292,307,131341,2,0,L|296:223,1,83.9999974365235,2|2,1:2|0:1,0:0:0:0:
408,101,131810,2,0,L|403:184,1,83.9999974365235,10|2,1:2|0:1,0:0:0:0:
432,324,132279,6,0,P|476:340|532:332,1,83.9999974365235,2|2,1:2|0:1,0:0:0:0:
295,223,132747,2,0,P|253:222|214:237,1,83.9999974365235,10|2,1:2|0:1,0:0:0:0:
197,249,133099,1,0,3:0:0:0:
181,263,133216,1,2,1:2:0:0:
256,384,133450,1,2,0:1:0:0:
360,285,133685,2,0,P|381:249|388:207,1,83.9999974365235,10|2,1:2|0:1,0:0:0:0:
268,19,134154,2,0,P|274:60|296:95,1,83.9999974365235,2|2,1:2|0:1,0:0:0:0:
465,114,134622,1,10,1:2:0:0:
465,114,134739,2,0,L|513:98,2,41.9999987182618,0|2|0,3:0|0:1|0:0,0:0:0:0:
465,114,135091,2,0,L|465:30,1,83.9999974365235,2|2,1:2|0:1,0:0:0:0:
296,95,135560,2,0,L|296:179,1,83.9999974365235,10|2,1:2|0:1,0:0:0:0:
127,244,136029,6,0,L|127:148,1,83.9999974365235,2|2,1:2|0:1,0:0:0:0:
90,41,136497,2,0,L|97:0,2,41.9999987182618,10|0|2,1:2|0:0|0:1,0:0:0:0:
87,61,136848,1,0,3:0:0:0:
83,81,136966,2,0,L|-1:75,1,83.9999974365235,2|2,1:2|0:1,0:0:0:0:
127,160,137435,2,0,L|211:154,1,83.9999974365235,10|2,1:2|0:1,0:0:0:0:
355,312,137904,6,0,L|271:306,1,83.9999974365235,2|2,1:2|0:1,0:0:0:0:
257,306,138216,2,0,L|212:303,2,27.9999991455078,2|2|10,0:0|0:0|1:2,0:0:0:0:
102,239,138607,2,0,L|57:236,2,27.9999991455078,2|2|2,0:0|0:0|0:0,0:0:0:0:
118,241,138841,2,0,B|132:202|132:202|127:160,1,83.9999974365235,2|2,1:2|0:1,0:0:0:0:
21,41,139310,2,0,B|7:80|7:80|12:122,1,83.9999974365235,10|2,1:2|0:1,0:0:0:0:
22,154,139661,1,0,3:0:0:0:
33,185,139779,5,6,1:2:0:0:
256,192,152904,5,0,1:0:0:0:
434,93,153294,1,0,1:0:0:0:
427,105,153372,2,0,P|425:149|432:202,1,83.9999974365235,0|2,1:0|0:1,0:0:0:0:
462,294,153763,5,0,1:0:0:0:
458,307,153841,1,0,1:0:0:0:
355,379,154075,1,2,1:1:0:0:
260,296,154310,2,0,P|264:254|262:212,1,83.9999974365235,10|2,1:2|0:1,0:0:0:0:
187,198,154700,1,0,1:0:0:0:
179,206,154779,6,0,L|82:223,1,70,6|2,1:2|0:1,0:0:0:0:
63,73,155247,2,0,P|66:52|67:25,1,35,10|0,1:2|0:0,0:0:0:0:
149,36,155482,2,0,P|150:53|152:70,1,35,2|0,0:1|0:0,0:0:0:0:
227,123,155716,6,0,P|254:91|262:50,1,70,0|2,1:0|0:1,0:0:0:0:
339,186,156185,2,0,P|299:199|251:200,1,70,10|2,1:2|0:1,0:0:0:0:
149,157,156654,5,0,1:0:0:0:
280,279,156888,1,2,0:1:0:0:
284,295,157005,1,0,3:0:0:0:
295,307,157122,2,0,L|349:286,3,35,10|0|2|0,1:2|3:0|0:1|3:0,0:0:0:0:
397,249,157591,1,0,1:0:0:0:
512,362,157825,1,2,0:1:0:0:
397,249,158060,6,0,P|400:210|412:159,1,70,10|2,1:2|0:1,0:0:0:0:
474,139,158411,1,0,3:0:0:0:
474,139,158529,1,0,1:0:0:0:
369,18,158763,1,2,0:1:0:0:
369,18,158880,1,0,3:0:0:0:
369,18,158997,2,0,L|425:-3,1,35,10|0,1:2|0:0,0:0:0:0:
512,63,159232,2,0,L|456:42,1,35,2|0,0:1|0:0,0:0:0:0:
408,87,159466,2,0,L|343:111,1,70,0|2,1:0|0:1,0:0:0:0:
182,20,159935,6,0,P|215:35|243:81,1,70,10|2,1:2|0:1,0:0:0:0:
252,208,160404,2,0,P|259:169|265:139,1,70,0|2,1:0|0:1,0:0:0:0:
187,133,160755,1,0,3:0:0:0:
187,133,160872,2,0,L|140:139,1,35,10|0,1:2|0:0,0:0:0:0:
134,220,161107,2,0,L|185:211,1,35,2|0,0:1|0:0,0:0:0:0:
222,281,161341,1,0,1:0:0:0:
73,165,161575,1,2,0:1:0:0:
0,358,161810,1,10,1:2:0:0:
88,369,162044,1,2,0:1:0:0:
88,369,162161,1,0,3:0:0:0:
88,369,162279,6,0,P|86:326|79:285,1,70,0|2,1:0|0:1,0:0:0:0:
161,271,162630,1,0,3:0:0:0:
161,271,162747,2,0,L|195:276,1,35,10|0,1:2|0:0,0:0:0:0:
204,356,162982,2,0,L|170:351,1,35,2|0,0:1|0:0,0:0:0:0:
291,303,163216,2,0,P|286:337|285:372,1,70,0|2,1:0|0:1,0:0:0:0:
371,301,163685,1,10,1:2:0:0:
209,196,163919,1,2,0:1:0:0:
344,156,164154,6,0,L|329:241,1,70,0|2,1:0|0:1,0:0:0:0:
417,221,164505,1,0,3:0:0:0:
417,221,164622,2,0,L|456:236,1,35,10|0,1:2|0:0,0:0:0:0:
433,312,164857,2,0,L|400:299,1,35,2|0,0:1|0:0,0:0:0:0:
339,353,165091,1,0,1:0:0:0:
253,196,165325,1,2,0:1:0:0:
402,127,165560,1,10,1:2:0:0:
274,298,165794,1,2,0:1:0:0:
274,298,165911,1,0,3:0:0:0:
274,298,166029,6,0,P|218:296|187:308,1,70,0|2,1:0|0:1,0:0:0:0:
132,351,166380,1,0,3:0:0:0:
132,351,166497,2,0,L|122:301,1,35,10|0,1:2|0:0,0:0:0:0:
175,215,166732,2,0,L|165:165,1,35,2|0,0:1|3:0,0:0:0:0:
102,129,166966,1,0,1:0:0:0:
257,212,167200,1,2,0:1:0:0:
233,49,167435,1,10,1:2:0:0:
163,229,167669,1,2,0:1:0:0:
293,125,167904,6,0,P|326:98|373:98,1,70,0|2,1:0|0:1,0:0:0:0:
468,158,168255,1,8,0:0:0:0:
478,169,168372,2,0,P|438:161|422:118,1,70,8|0,0:0|1:0,0:0:0:0:
424,7,168724,1,8,0:0:0:0:
433,20,168841,6,0,L|425:70,1,35,0|0,1:0|0:0,0:0:0:0:
357,188,169075,2,0,L|349:238,1,35,8|8,1:2|0:0,0:0:0:0:
459,353,169310,2,0,P|469:309|440:261,1,70,2|2,1:2|0:1,0:0:0:0:
373,311,169700,1,0,1:0:0:0:
362,305,169779,5,6,1:2:0:0:
362,365,184779,5,4,0:3:0:0:
438,333,185013,1,2,0:1:0:0:
438,333,185130,1,0,0:0:0:0:
438,333,185247,2,0,L|426:240,1,70,10|2,0:0|0:1,0:0:0:0:
444,186,185599,1,0,0:0:0:0:
444,186,185716,2,0,P|403:163|355:163,1,70,0|2,3:0|0:1,0:0:0:0:
438,69,186185,2,0,P|390:69|349:93,1,70,10|2,0:0|0:1,0:0:0:0:
305,196,186654,5,0,3:0:0:0:
263,51,186888,1,2,0:1:0:0:
261,68,187005,1,0,0:0:0:0:
254,84,187122,1,10,0:0:0:0:
247,100,187239,1,0,0:0:0:0:
235,113,187357,1,2,0:1:0:0:
220,122,187474,1,0,0:0:0:0:
203,126,187591,2,0,L|128:111,1,70,0|2,3:0|0:1,0:0:0:0:
85,49,188060,1,10,0:0:0:0:
30,175,188294,1,2,0:1:0:0:
30,175,188411,1,0,0:0:0:0:
30,175,188529,6,0,L|32:262,1,70,0|2,3:0|0:1,0:0:0:0:
83,316,188880,1,0,0:0:0:0:
83,316,188997,2,0,L|116:298,3,35,10|0|2|0,0:0|0:0|0:1|0:0,0:0:0:0:
187,233,189466,1,0,3:0:0:0:
232,368,189700,1,2,0:1:0:0:
187,233,189935,2,0,P|150:221|115:222,1,70,10|2,0:0|0:1,0:0:0:0:
145,375,190404,5,0,3:0:0:0:
264,278,190638,1,2,0:1:0:0:
281,274,190755,1,0,0:0:0:0:
296,266,190872,1,10,0:0:0:0:
308,253,190989,1,0,0:0:0:0:
316,237,191107,1,2,0:1:0:0:
321,220,191224,1,0,0:0:0:0:
318,202,191341,2,0,P|307:168|303:120,1,70,0|2,3:0|0:1,0:0:0:0:
407,39,191810,1,10,0:0:0:0:
454,119,192044,1,2,0:1:0:0:
454,119,192161,1,0,0:0:0:0:
454,119,192279,6,0,P|416:137|356:135,1,70,0|2,3:0|0:1,0:0:0:0:
394,216,192630,1,0,0:0:0:0:
394,216,192747,2,0,P|415:221|446:225,3,35,10|0|2|0,0:0|0:0|0:1|0:0,0:0:0:0:
478,292,193216,1,0,3:0:0:0:
370,353,193450,1,2,0:1:0:0:
307,177,193685,2,0,P|304:140|288:82,1,70,10|2,0:0|0:1,0:0:0:0:
186,34,194154,6,0,B|146:33|146:33|111:82,1,70,0|2,3:0|0:1,0:0:0:0:
170,125,194505,1,0,0:0:0:0:
170,125,194622,2,0,L|171:178,1,35,10|0,0:0|0:0,0:0:0:0:
86,160,194857,2,0,L|85:125,1,35,2|0,0:1|0:0,0:0:0:0:
128,57,195091,2,0,B|110:32|110:32|70:33,1,70,0|2,3:0|0:1,0:0:0:0:
6,87,195560,1,10,0:0:0:0:
109,245,195794,1,2,0:1:0:0:
173,164,196029,5,0,3:0:0:0:
265,237,196263,1,2,0:1:0:0:
263,254,196380,1,0,0:0:0:0:
261,271,196497,1,10,0:0:0:0:
259,288,196614,1,0,0:0:0:0:
257,305,196732,1,2,0:1:0:0:
255,322,196849,1,0,0:0:0:0:
253,339,196966,2,0,L|344:325,1,70,0|2,3:0|0:1,0:0:0:0:
350,215,197435,1,10,0:0:0:0:
172,284,197669,1,2,0:1:0:0:
350,215,197904,6,0,P|354:167|338:138,1,70,0|2,3:0|0:1,0:0:0:0:
270,113,198255,1,0,0:0:0:0:
270,113,198372,2,0,L|227:126,1,35,10|0,0:0|0:0,0:0:0:0:
210,46,198607,2,0,L|243:35,1,35,2|0,0:1|0:0,0:0:0:0:
324,48,198841,1,0,3:0:0:0:
267,207,199075,1,2,0:1:0:0:
138,135,199310,2,0,L|234:150,1,70,10|2,0:0|0:1,0:0:0:0:
378,299,199779,6,0,L|308:288,1,70,6|2,1:2|0:1,0:0:0:0:
113,328,200247,2,0,L|127:389,1,35,10|0,1:2|0:0,0:0:0:0:
194,345,200482,2,0,L|186:311,1,35,2|0,0:1|0:0,0:0:0:0:
199,222,200716,6,0,P|239:209|287:208,1,70,0|2,1:0|0:1,0:0:0:0:
446,201,201185,2,0,P|406:214|358:215,1,70,10|2,1:2|0:1,0:0:0:0:
472,56,201654,5,0,1:0:0:0:
309,18,201888,1,2,0:1:0:0:
302,34,202006,1,0,3:0:0:0:
298,51,202123,1,10,1:2:0:0:
299,69,202240,1,0,3:0:0:0:
303,86,202357,1,2,0:1:0:0:
311,101,202474,1,0,3:0:0:0:
323,115,202591,1,0,1:0:0:0:
377,58,202825,1,2,0:1:0:0:
218,27,203060,6,0,P|216:61|222:96,1,70,10|2,1:2|0:1,0:0:0:0:
247,193,203411,1,0,3:0:0:0:
254,208,203529,2,0,P|253:242|250:277,1,70,0|2,1:0|0:1,0:0:0:0:
185,356,203880,1,0,3:0:0:0:
185,356,203997,2,0,L|124:353,1,35,10|0,1:2|0:0,0:0:0:0:
88,305,204232,2,0,L|54:306,1,35,2|0,0:1|0:0,0:0:0:0:
2,241,204466,6,0,P|0:207|6:172,1,70,0|2,1:0|0:1,0:0:0:0:
57,4,204935,2,0,P|68:56|73:87,1,70,10|2,1:2|0:1,0:0:0:0:
156,159,205404,2,0,P|149:193|151:228,1,70,0|2,1:0|0:1,0:0:0:0:
219,301,205755,1,0,3:0:0:0:
219,301,205872,2,0,L|270:292,1,35,10|0,1:2|0:0,0:0:0:0:
314,233,206107,2,0,L|360:234,1,35,2|0,0:1|0:0,0:0:0:0:
431,182,206341,2,0,P|436:143|427:92,1,70,0|2,1:0|0:1,0:0:0:0:
430,274,206810,2,0,P|431:313|449:361,1,70,10|2,1:2|0:1,0:0:0:0:
432,112,207279,5,0,1:0:0:0:
430,274,207513,1,2,1:1:0:0:
313,63,207747,5,2,1:2:0:0:
343,254,207982,1,2,1:1:0:0:
192,85,208216,5,0,1:0:0:0:
258,274,208450,1,2,1:1:0:0:
313,63,208685,5,2,1:2:0:0:
172,270,208919,1,2,1:1:0:0:
150,258,209036,1,0,3:0:0:0:
132,240,209154,6,0,P|123:215|121:170,1,70,0|2,1:0|1:1,0:0:0:0:
157,85,209505,1,0,3:0:0:0:
157,85,209622,2,0,L|205:84,1,35,2|0,1:2|0:0,0:0:0:0:
101,9,209857,2,0,L|48:6,1,35,2|0,1:1|0:0,0:0:0:0:
11,84,210091,1,0,1:0:0:0:
11,125,210208,1,0,1:0:0:0:
12,166,210325,1,2,1:1:0:0:
13,207,210442,1,0,1:0:0:0:
14,249,210560,2,0,L|15:271,7,17.5,2|0|0|0|2|0|0|0,1:2|1:0|1:0|1:0|1:1|1:0|1:0|1:0,0:0:0:0:
15,339,211029,5,4,0:0:0:0:
394,354,214310,6,0,P|426:331|464:321,1,78.7500030040742,4|0,0:0|0:0,0:0:0:0:
501,346,214779,6,0,P|478:314|468:248,1,90.9999958343508,6|2,1:2|0:1,0:0:0:0:
470,241,215130,1,0,3:0:0:0:
474,218,215247,2,0,L|481:159,1,45.4999979171754,10|0,1:2|0:0,0:0:0:0:
372,99,215482,1,2,0:1:0:0:
281,167,215716,2,0,B|322:175|322:175|332:181|332:181|381:190,1,90.9999958343508,2|2,1:2|0:1,0:0:0:0:
428,39,216185,2,0,P|383:18|330:30,1,90.9999958343508,10|2,1:2|0:1,0:0:0:0:
281,167,216654,5,2,1:2:0:0:
299,291,216888,2,0,L|291:221,1,45.4999979171754,2|0,0:1|0:0,0:0:0:0:
281,167,217122,1,10,1:2:0:0:
259,159,217239,1,0,3:0:0:0:
236,157,217357,1,2,0:1:0:0:
213,162,217474,1,0,3:0:0:0:
192,171,217591,2,0,P|126:182|90:171,1,90.9999958343508,2|2,1:2|0:1,0:0:0:0:
99,85,218060,2,0,P|165:74|201:85,1,90.9999958343508,10|2,1:2|0:1,0:0:0:0:
268,126,218411,1,0,3:0:0:0:
268,126,218529,5,2,1:2:0:0:
343,176,218763,1,2,0:1:0:0:
417,124,218997,2,0,P|405:108|383:96,1,45.4999979171754,10|0,1:2|0:0,0:0:0:0:
388,24,219232,2,0,P|366:21|343:27,1,45.4999979171754,2|0,0:1|0:0,0:0:0:0:
343,176,219466,2,0,L|342:281,1,90.9999958343508,2|2,1:2|0:1,0:0:0:0:
498,293,219935,2,0,L|407:239,1,90.9999958343508,10|2,1:2|0:1,0:0:0:0:
318,368,220404,2,0,L|409:316,1,90.9999958343508,2|2,1:2|0:1,0:0:0:0:
498,293,220755,5,0,3:0:0:0:
498,293,220872,2,0,L|458:269,1,45.4999979171754,10|0,1:2|0:0,0:0:0:0:
342,220,221107,2,0,L|342:266,1,45.4999979171754,2|0,0:1|0:0,0:0:0:0:
225,260,221341,2,0,L|147:307,1,90.9999958343508,2|2,1:2|0:1,0:0:0:0:
120,186,221810,1,10,1:2:0:0:
15,133,222044,2,0,L|16:85,1,45.4999979171754,2|0,0:1|0:0,0:0:0:0:
10,65,222279,6,0,P|61:80|117:62,1,90.9999958343508,2|2,1:2|0:1,0:0:0:0:
115,59,222630,1,0,3:0:0:0:
127,40,222747,2,0,L|187:71,1,45.4999979171754,10|0,1:2|0:0,0:0:0:0:
240,13,222982,2,0,L|260:77,1,45.4999979171754,2|0,0:1|0:0,0:0:0:0:
338,72,223216,2,0,L|307:132,2,45.4999979171754,2|0|2,1:2|0:0|0:1,0:0:0:0:
320,279,223685,1,10,1:2:0:0:
370,179,223919,1,2,0:1:0:0:
320,279,224154,6,0,P|261:299|209:293,1,90.9999958343508,2|2,1:2|0:1,0:0:0:0:
210,296,224505,1,0,3:0:0:0:
189,285,224622,2,0,L|188:337,1,45.4999979171754,10|0,1:2|0:0,0:0:0:0:
103,251,224857,2,0,L|103:205,1,45.4999979171754,2|0,0:1|0:0,0:0:0:0:
22,293,225091,1,2,1:2:0:0:
104,332,225325,1,2,0:1:0:0:
103,205,225560,2,0,L|103:159,2,45.4999979171754,10|0|2,1:2|0:0|0:1,0:0:0:0:
102,227,225911,1,0,3:0:0:0:
102,249,226029,5,2,1:2:0:0:
212,145,226263,2,0,L|161:124,1,45.4999979171754,2|0,0:1|0:0,0:0:0:0:
0,140,226497,2,0,L|51:119,1,45.4999979171754,10|0,1:2|0:0,0:0:0:0:
108,86,226732,1,2,0:1:0:0:
108,86,226849,1,0,3:0:0:0:
108,86,226966,2,0,P|109:23|183:-10,1,136.499993751526,2|0,1:2|0:0,0:0:0:0:
183,4,227435,2,0,L|279:12,1,90.9999958343508,10|2,1:2|0:1,0:0:0:0:
334,150,227904,5,2,1:2:0:0:
334,150,228138,2,0,L|354:212,1,45.4999979171754,2|0,0:1|0:0,0:0:0:0:
491,215,228372,2,0,L|535:166,1,45.4999979171754,10|0,1:2|0:0,0:0:0:0:
427,150,228607,1,2,0:1:0:0:
415,240,228841,2,0,L|428:143,1,90.9999958343508,2|2,1:2|0:1,0:0:0:0:
403,330,229310,2,0,L|415:232,1,90.9999958343508,10|2,1:2|0:1,0:0:0:0:
442,69,229661,1,0,1:0:0:0:
442,69,229779,5,6,1:2:0:0:
373,9,230013,1,2,0:1:0:0:
285,33,230247,2,0,L|298:93,1,45.4999979171754,10|0,1:2|0:0,0:0:0:0:
222,125,230482,2,0,L|273:158,1,45.4999979171754,2|0,0:1|0:0,0:0:0:0:
248,235,230716,2,0,L|308:221,2,45.4999979171754,2|0|2,1:2|0:0|0:1,0:0:0:0:
456,268,231185,1,10,1:2:0:0:
377,356,231419,1,2,0:1:0:0:
268,310,231654,6,0,L|153:338,1,90.9999958343508,2|2,1:2|0:1,0:0:0:0:
156,333,232005,1,0,3:0:0:0:
141,315,232122,1,10,1:2:0:0:
123,301,232239,1,0,3:0:0:0:
102,292,232356,1,2,0:1:0:0:
80,289,232473,1,0,3:0:0:0:
57,292,232590,1,2,1:2:0:0:
80,381,232825,1,2,0:1:0:0:
157,215,233060,2,0,B|170:206|179:189|179:189|239:211|286:177,1,136.499993751526,10|0,1:2|0:0,0:0:0:0:
241,101,233529,6,0,P|206:97|234:118,1,90.9999958343508,2|2,1:2|0:1,0:0:0:0:
317,113,233880,1,0,3:0:0:0:
317,113,233997,2,0,L|336:48,1,45.4999979171754,10|0,1:2|0:0,0:0:0:0:
359,183,234232,2,0,L|378:248,1,45.4999979171754,2|0,0:1|0:0,0:0:0:0:
277,182,234466,2,0,L|308:297,1,90.9999958343508,2|2,1:2|0:1,0:0:0:0:
193,182,234935,2,0,L|224:297,1,90.9999958343508,10|2,1:2|0:1,0:0:0:0:
173,103,235404,5,2,1:2:0:0:
173,103,235638,2,0,L|110:92,1,45.4999979171754,2|0,0:1|0:0,0:0:0:0:
57,46,235872,2,0,L|13:54,2,45.4999979171754,10|0|2,1:2|0:0|0:1,0:0:0:0:
257,120,236341,1,2,1:2:0:0:
332,69,236575,1,2,0:1:0:0:
419,95,236810,2,0,L|382:149,1,45.4999979171754,10|0,1:2|0:0,0:0:0:0:
465,181,237044,1,2,0:1:0:0:
445,354,237279,6,0,L|455:263,1,90.9999958343508,2|2,1:2|0:1,0:0:0:0:
353,226,237630,1,0,3:0:0:0:
353,226,237747,2,0,L|357:271,1,45.4999979171754,10|0,1:2|0:0,0:0:0:0:
253,354,237982,2,0,L|207:358,1,45.4999979171754,2|0,0:1|0:0,0:0:0:0:
273,210,238216,2,0,L|277:255,2,45.4999979171754,2|0|2,1:2|0:0|0:1,0:0:0:0:
259,73,238685,1,10,1:2:0:0:
259,73,238919,2,0,L|265:139,1,45.4999979171754,2|0,0:1|0:0,0:0:0:0:
351,157,239154,6,0,L|441:148,1,90.9999958343508,2|2,1:2|0:1,0:0:0:0:
407,71,239505,1,0,3:0:0:0:
407,71,239622,2,0,L|361:75,1,45.4999979171754,10|0,1:2|0:0,0:0:0:0:
259,73,239857,2,0,L|213:69,1,45.4999979171754,2|0,0:1|0:0,0:0:0:0:
26,81,240091,2,0,L|119:73,1,90.9999958343508,2|2,1:2|0:1,0:0:0:0:
326,204,240560,2,0,L|187:192,1,136.499993751526,10|0,1:2|0:0,0:0:0:0:
173,208,241029,6,0,L|173:299,1,90.9999958343508,2|0,1:2|0:0,0:0:0:0:
174,370,241380,1,0,3:0:0:0:
174,370,241497,2,0,L|128:370,2,45.4999979171754,10|0|2,1:2|0:0|0:1,0:0:0:0:
347,287,241966,2,0,B|391:273|408:227|408:227|407:249|430:277,1,136.499993751526,2|0,1:2|0:0,0:0:0:0:
440,287,242435,2,0,P|463:312|518:327,1,90.9999958343508,10|2,1:2|0:1,0:0:0:0:
326,204,242904,6,0,L|220:194,1,90.9999958343508,2|2,1:2|0:1,0:0:0:0:
220,193,243216,2,0,L|176:189,2,30.3333319447836,2|2|10,0:0|0:0|1:2,0:0:0:0:
416,167,243607,2,0,L|408:231,1,60.6666638895672,2|0,0:1|1:0,0:0:0:0:
407,242,243841,1,2,1:2:0:0:
493,90,244075,1,2,1:1:0:0:
240,59,244310,2,0,B|212:24|235:-1|235:-1|278:30|344:0,1,175.00000667572,10|0,1:2|1:0,0:0:0:0:
347,9,244779,5,6,1:2:0:0:
256,192,244896,12,2,247591,1:2:0:0:
356,269,247825,6,0,P|394:281|450:272,2,70,2|10|2,0:1|1:2|0:1,0:0:0:0:
303,212,248529,1,2,1:2:0:0:
180,228,248763,2,0,L|188:278,1,35,2|0,0:1|0:0,0:0:0:0:
199,340,248997,2,0,L|207:390,2,35,10|0|2,1:2|0:0|0:1,0:0:0:0:
112,286,249466,2,0,B|93:253|93:253|104:222,1,70,2|2,1:2|0:1,0:0:0:0:
256,204,249935,2,0,B|274:236|274:236|263:267,1,70,10|2,1:2|0:1,0:0:0:0:
175,173,250404,6,0,L|164:71,1,70,2|2,1:2|0:1,0:0:0:0:
166,85,250755,1,0,3:0:0:0:
167,84,250872,2,0,L|162:37,2,35,10|0|2,1:2|0:0|0:1,0:0:0:0:
327,158,251341,1,2,1:2:0:0:
396,54,251575,2,0,P|392:71|386:87,1,35,2|0,0:1|0:0,0:0:0:0:
436,154,251810,2,0,P|421:163|405:171,1,35,10|0,1:2|0:0,0:0:0:0:
395,251,252044,2,0,P|377:247|361:241,1,35,2|0,0:1|0:0,0:0:0:0:
257,156,252279,6,0,L|327:158,1,70,2|2,1:2|0:1,0:0:0:0:
188,194,252747,1,10,1:2:0:0:
178,171,252864,1,0,3:0:0:0:
177,147,252981,1,2,0:1:0:0:
183,123,253098,1,0,3:0:0:0:
196,102,253215,1,2,1:2:0:0:
257,156,253450,1,2,0:1:0:0:
96,141,253685,2,0,L|26:139,1,70,10|2,1:2|0:1,0:0:0:0:
277,78,254154,6,0,L|347:80,1,70,2|2,1:2|0:1,0:0:0:0:
364,81,254505,1,0,3:0:0:0:
364,81,254622,2,0,L|369:40,3,35,10|0|2|0,1:2|0:0|0:1|0:0,0:0:0:0:
353,159,255091,5,2,1:2:0:0:
491,125,255325,1,2,0:1:0:0:
486,209,255560,1,10,1:2:0:0:
353,159,255794,2,0,L|355:193,1,35,2|0,0:1|0:0,0:0:0:0:
360,243,256029,6,0,P|301:240|273:249,1,70,2|2,1:2|0:1,0:0:0:0:
279,255,256380,1,0,3:0:0:0:
263,247,256497,1,10,1:2:0:0:
249,258,256614,1,0,3:0:0:0:
232,251,256732,1,2,0:1:0:0:
127,246,256966,2,0,L|100:282,2,35,2|0|2,1:2|0:0|0:1,0:0:0:0:
183,157,257435,2,0,P|186:98|177:70,1,70,10|2,1:2|0:1,0:0:0:0:
291,119,257904,6,0,P|350:122|378:113,1,70,2|2,1:2|0:1,0:0:0:0:
379,105,258216,2,0,L|398:83,2,23.3333333333333,2|2|10,0:0|0:0|1:2,0:0:0:0:
492,37,258607,2,0,L|490:86,1,35,2|0,0:1|0:0,0:0:0:0:
379,105,258841,2,0,L|385:200,1,70,2|2,1:2|0:1,0:0:0:0:
489,227,259310,2,0,L|483:322,1,70,10|2,1:2|0:1,0:0:0:0:
356,292,259661,1,0,1:0:0:0:
356,292,259779,6,0,L|278:297,1,70,6|2,1:2|0:1,0:0:0:0:
196,350,260247,2,0,P|183:317|183:282,1,70,10|2,1:2|0:1,0:0:0:0:
247,199,260716,2,0,P|246:164|233:131,1,70,2|2,1:2|0:1,0:0:0:0:
130,114,261185,2,0,P|130:148|143:181,1,70,10|2,1:2|0:1,0:0:0:0:
233,131,261654,5,2,1:2:0:0:
289,42,261888,1,2,0:1:0:0:
351,126,262122,1,10,1:2:0:0:
351,126,262239,2,0,L|395:87,2,35,0|2|0,3:0|0:1|0:0,0:0:0:0:
351,126,262591,2,0,L|359:226,1,70,2|2,1:2|0:1,0:0:0:0:
235,288,263060,2,0,P|273:244|306:236,1,70,10|2,1:2|0:1,0:0:0:0:
437,228,263529,6,0,P|466:246|484:275,1,70,2|2,1:2|0:1,0:0:0:0:
314,313,263997,1,10,1:2:0:0:
333,299,264114,1,0,3:0:0:0:
357,292,264231,1,2,0:1:0:0:
381,293,264348,1,0,3:0:0:0:
404,303,264465,1,2,1:2:0:0:
367,379,264700,1,2,0:1:0:0:
234,291,264935,2,0,P|232:325|246:361,1,70,10|2,1:2|0:1,0:0:0:0:
356,195,265404,6,0,L|350:125,1,70,2|2,1:2|0:1,0:0:0:0:
265,65,265872,1,10,1:2:0:0:
265,65,265989,2,0,L|280:19,2,35,0|2|0,3:0|0:1|0:0,0:0:0:0:
242,141,266341,1,2,1:2:0:0:
172,102,266575,2,0,L|165:50,1,35,2|0,0:1|0:0,0:0:0:0:
174,181,266810,2,0,L|169:215,1,35,10|0,1:2|0:0,0:0:0:0:
105,144,267044,2,0,L|70:147,1,35,2|0,0:1|0:0,0:0:0:0:
242,141,267279,5,2,1:2:0:0:
320,210,267513,2,0,L|310:256,1,35,2|0,0:1|0:0,0:0:0:0:
432,177,267747,1,10,1:2:0:0:
432,177,267864,1,0,3:0:0:0:
432,177,267982,1,2,0:1:0:0:
432,177,268099,1,0,3:0:0:0:
432,177,268216,2,0,B|435:212|435:212|457:260,1,70,2|2,1:2|0:1,0:0:0:0:
321,268,268685,2,0,B|355:271|355:271|387:286,1,70,10|2,1:2|0:1,0:0:0:0:
512,192,269154,5,2,1:2:0:0:
335,349,269388,1,2,0:1:0:0:
387,286,269622,1,10,1:2:0:0:
372,276,269739,1,0,3:0:0:0:
356,270,269857,1,2,0:1:0:0:
338,267,269974,1,0,3:0:0:0:
321,268,270091,1,2,1:2:0:0:
324,382,270325,6,0,L|338:338,1,35,2|0,0:1|0:0,0:0:0:0:
396,170,270560,2,0,L|382:214,1,35,10|0,1:2|0:0,0:0:0:0:
387,286,270794,2,0,L|343:272,1,35,2|0,0:1|0:0,0:0:0:0:
216,240,271029,6,0,P|171:229|138:236,1,70,2|2,1:2|0:1,0:0:0:0:
71,255,271497,1,10,1:2:0:0:
67,235,271614,1,0,3:0:0:0:
69,214,271731,1,2,0:1:0:0:
76,194,271848,1,0,3:0:0:0:
88,177,271965,1,2,1:2:0:0:
171,312,272200,1,2,0:1:0:0:
216,240,272435,2,0,P|227:195|220:162,1,70,10|2,1:2|0:1,0:0:0:0:
138,27,272904,6,0,P|127:72|134:105,1,70,2|2,1:2|0:1,0:0:0:0:
137,103,273216,2,0,L|112:126,2,23.3333333333333,2|2|10,0:0|0:0|1:2,0:0:0:0:
223,172,273607,2,0,L|271:167,1,35,2|0,0:1|0:0,0:0:0:0:
341,162,273841,1,2,1:2:0:0:
478,261,274075,1,2,0:1:0:0:
430,180,274310,1,10,1:2:0:0:
479,98,274544,2,0,L|483:57,1,35,2|0,0:1|1:0,0:0:0:0:
485,36,274779,6,0,P|459:30|428:37,1,56,6|0,1:2|0:0,0:0:0:0:
358,12,275247,2,0,P|335:26|318:53,1,56,2|0,0:0|0:0,0:0:0:0:
246,75,275716,2,0,P|240:100|247:131,1,56,2|0,0:0|0:0,0:0:0:0:
201,192,276185,2,0,P|215:214|242:231,1,56,2|0,0:0|0:0,0:0:0:0:
422,230,276654,6,0,L|428:302,1,56,2|0,0:0|0:0,0:0:0:0:
329,310,277122,2,0,L|333:252,1,56,2|0,0:0|0:0,0:0:0:0:
239,230,277591,2,0,L|245:302,1,56,2|0,0:0|0:0,0:0:0:0:
151,315,278060,2,0,L|155:257,1,56,2|0,0:0|0:0,0:0:0:0:
117,112,278529,6,0,P|111:134|117:160,1,41.9999987182618,2|0,0:0|0:0,0:0:0:0:
97,219,278997,2,0,P|108:238|131:253,1,41.9999987182618,2|0,0:0|0:0,0:0:0:0:
151,315,279466,2,0,P|172:320|198:314,1,41.9999987182618,2|0,0:0|0:0,0:0:0:0:
250,353,279935,2,0,P|268:341|283:318,1,41.9999987182618,2|0,0:0|0:0,0:0:0:0:
355,235,280404,6,0,L|340:275,1,41.9999987182618,2|0,0:0|0:0,0:0:0:0:
299,264,280872,2,0,L|316:302,1,41.9999987182618,2|0,0:0|0:0,0:0:0:0:
279,324,281341,2,0,L|317:338,1,41.9999987182618,2|0,0:0|0:0,0:0:0:0:
307,380,281810,2,0,L|345:363,1,41.9999987182618,2|0,0:0|0:0,0:0:0:0:
450,351,282279,6,0,P|454:334|450:315,1,28,2|0,0:0|0:0,0:0:0:0:
463,274,282747,2,0,P|454:260|438:249,1,28,2|0,0:0|0:0,0:0:0:0:
425,205,283216,2,0,P|409:201|390:205,1,28,2|0,0:0|0:0,0:0:0:0:
353,178,283685,2,0,P|340:186|329:203,1,28,2|0,0:0|0:0,0:0:0:0:
239,258,284154,6,0,L|242:285,3,28,2|0|2|0,0:0|0:0|0:0|0:0,0:0:0:0:
219,288,285091,2,0,L|222:315,3,28,2|0|2|0,0:0|0:0|0:0|0:0,0:0:0:0:
295,349,286029,6,0,P|303:351|312:349,1,14,2|0,0:0|0:0,0:0:0:0:
333,355,286497,2,0,P|339:350|345:342,1,14,2|0,0:0|0:0,0:0:0:0:
367,336,286966,2,0,P|368:328|366:318,1,14,2|0,0:0|0:0,0:0:0:0:
381,300,287435,2,0,P|376:293|368:288,1,14,2|0,0:0|0:0,0:0:0:0:
306,260,287904,6,0,L|301:243,4,14,2|0|2|0|2,0:0|0:0|0:0|0:0|0:0,0:0:0:0:
256,192,289075,5,2,0:0:0:0:
256,192,289310,1,2,0:0:0:0:
256,192,289544,1,2,0:0:0:0:
256,192,289779,12,0,293529,0:0:0:0:
