osu file format v14

[General]
AudioFilename: audio.mp3
AudioLeadIn: 0
PreviewTime: -1
Countdown: 1
SampleSet: None
StackLeniency: 0.7
Mode: 0
LetterboxInBreaks: 0
WidescreenStoryboard: 0

[Editor]
DistanceSpacing: 0.9
BeatDivisor: 8
GridSize: 4
TimelineZoom: 1

[Metadata]
Title:Pacific girls
TitleUnicode:Pacific girls
Artist:DJ sharpnel
ArtistUnicode:DJ sharpnel
Creator:72094681
Version:Insane
Source:
Tags:
BeatmapID:1279664
BeatmapSetID:605687

[Difficulty]
HPDrainRate:6
CircleSize:5
OverallDifficulty:6
ApproachRate:6
SliderMultiplier:2
SliderTickRate:2

[Events]
//Background and Video events
0,0,"Microsoft Edge 28_4_2017 11_00_29.png",0,0
//Break Periods
2,20492,29089
2,40186,48783
2,59880,68478
2,98884,107866
2,158352,166949
2,197817,206183
2,237129,245726
2,251822,255573
2,286287,294961
//Storyboard Layer 0 (Background)
//Storyboard Layer 1 (Fail)
//Storyboard Layer 2 (Pass)
//Storyboard Layer 3 (Foreground)
//Storyboard Sound Samples

[TimingPoints]
3367.77551020408,615.444897959184,4,1,0,100,1,0

[HitObjects]
260,184,604,5,0,0:0:0:0:
316,116,912,1,0,0:0:0:0:
356,196,1220,1,0,0:0:0:0:
284,252,1527,1,0,0:0:0:0:
164,152,3066,5,0,0:0:0:0:
84,112,3369,1,0,0:0:0:0:
92,200,3675,1,0,0:0:0:0:
176,228,3983,1,0,0:0:0:0:
340,332,5521,5,0,0:0:0:0:
384,252,5829,1,0,0:0:0:0:
292,252,6137,1,0,0:0:0:0:
336,172,6445,1,0,0:0:0:0:
80,316,7983,5,0,0:0:0:0:
64,228,8291,1,0,0:0:0:0:
152,248,8599,1,0,0:0:0:0:
172,336,8906,1,0,0:0:0:0:
204,108,10445,5,0,0:0:0:0:
296,112,10753,1,0,0:0:0:0:
380,140,11060,1,0,0:0:0:0:
384,228,11368,1,0,0:0:0:0:
336,304,11676,1,0,0:0:0:0:
248,324,11984,1,0,0:0:0:0:
168,284,12291,1,0,0:0:0:0:
116,212,12599,1,0,0:0:0:0:
116,68,12907,6,0,L|220:68,1,100
308,72,13522,2,0,L|408:76,1,100
408,168,14138,2,0,L|408:272,1,100
316,272,14753,2,0,L|200:272,1,100
132,236,15368,5,0,0:0:0:0:
220,212,15676,1,0,0:0:0:0:
264,196,15830,1,0,0:0:0:0:
308,180,15984,1,0,0:0:0:0:
392,148,16292,1,0,0:0:0:0:
432,228,16599,5,0,0:0:0:0:
356,272,16907,1,0,0:0:0:0:
316,296,17061,1,0,0:0:0:0:
276,320,17215,1,0,0:0:0:0:
200,368,17523,1,0,0:0:0:0:
148,292,17830,5,0,0:0:0:0:
124,252,17984,1,0,0:0:0:0:
108,208,18138,1,0,0:0:0:0:
184,164,18446,5,0,0:0:0:0:
224,144,18600,1,0,0:0:0:0:
268,144,18753,1,0,0:0:0:0:
356,160,19061,5,0,0:0:0:0:
388,128,19215,1,0,0:0:0:0:
404,88,19369,1,0,0:0:0:0:
336,32,19677,5,0,0:0:0:0:
292,16,19830,1,0,0:0:0:0:
248,24,19984,1,0,0:0:0:0:
256,192,20292,5,0,0:0:0:0:
120,104,30139,6,0,P|428:104|420:104,1,300
424,196,31370,2,0,L|120:196,1,300
128,104,32601,5,0,0:0:0:0:
216,108,32909,1,0,0:0:0:0:
260,112,33062,1,0,0:0:0:0:
304,116,33216,1,0,0:0:0:0:
348,124,33370,1,0,0:0:0:0:
392,132,33524,1,0,0:0:0:0:
380,220,33832,5,0,0:0:0:0:
292,196,34140,1,0,0:0:0:0:
248,180,34293,1,0,0:0:0:0:
204,164,34447,1,0,0:0:0:0:
160,148,34601,1,0,0:0:0:0:
116,132,34755,1,0,0:0:0:0:
36,88,35063,5,0,0:0:0:0:
120,248,35678,1,0,0:0:0:0:
272,152,36294,1,0,0:0:0:0:
152,20,36909,1,0,0:0:0:0:
240,28,37217,1,0,0:0:0:0:
332,28,37524,5,0,0:0:0:0:
424,32,37832,1,0,0:0:0:0:
428,120,38140,1,0,0:0:0:0:
336,120,38448,1,0,0:0:0:0:
336,232,38755,5,0,0:0:0:0:
336,276,38909,1,0,0:0:0:0:
292,276,39063,1,0,0:0:0:0:
292,232,39217,1,0,0:0:0:0:
248,232,39371,1,0,0:0:0:0:
248,276,39525,1,0,0:0:0:0:
204,276,39679,5,0,0:0:0:0:
180,276,39755,1,0,0:0:0:0:
156,276,39832,1,0,0:0:0:0:
132,276,39909,1,0,0:0:0:0:
108,276,39986,1,0,0:0:0:0:
100,96,49833,6,0,P|200:96|212:96,1,100
292,96,50449,2,0,L|396:96,1,100
396,188,51064,2,0,L|396:292,1,100
304,288,51680,2,0,L|200:288,1,100
112,288,52295,6,0,L|112:236,1,50
112,192,52603,2,0,L|112:136,1,50
156,140,52911,2,0,L|212:140,1,50
252,140,53218,2,0,L|304:140,1,50
304,184,53526,2,0,L|304:252,1,50
348,236,53834,2,0,L|416:236,1,50
400,192,54141,2,0,L|400:132,1,50
400,96,54449,2,0,L|400:28,1,50
356,44,54757,5,0,0:0:0:0:
324,76,54911,1,0,0:0:0:0:
292,108,55065,1,0,0:0:0:0:
260,136,55219,1,0,0:0:0:0:
228,164,55372,1,0,0:0:0:0:
196,192,55526,1,0,0:0:0:0:
164,220,55680,1,0,0:0:0:0:
132,248,55834,1,0,0:0:0:0:
156,288,55988,5,0,0:0:0:0:
164,308,56065,1,0,0:0:0:0:
172,328,56142,1,0,0:0:0:0:
216,328,56296,5,0,0:0:0:0:
316,328,56603,5,0,0:0:0:0:
328,308,56680,1,0,0:0:0:0:
340,288,56757,1,0,0:0:0:0:
304,260,56911,5,0,0:0:0:0:
360,192,57219,5,0,0:0:0:0:
360,104,57526,1,0,0:0:0:0:
284,56,57834,1,0,0:0:0:0:
192,52,58142,1,0,0:0:0:0:
112,96,58450,1,0,0:0:0:0:
108,184,58757,1,0,0:0:0:0:
164,256,59065,1,0,0:0:0:0:
252,280,59373,5,0,0:0:0:0:
252,256,59450,1,0,0:0:0:0:
252,232,59527,1,0,0:0:0:0:
252,208,59604,1,0,0:0:0:0:
252,184,59680,1,0,0:0:0:0:
256,180,69528,5,0,0:0:0:0:
256,180,71989,5,0,0:0:0:0:
256,180,74451,5,0,0:0:0:0:
256,180,75067,1,0,0:0:0:0:
256,180,75682,1,0,0:0:0:0:
256,180,76297,1,0,0:0:0:0:
256,180,76913,5,0,0:0:0:0:
256,180,77067,1,0,0:0:0:0:
256,180,77221,1,0,0:0:0:0:
256,180,77375,1,0,0:0:0:0:
256,180,77528,1,0,0:0:0:0:
256,180,77682,1,0,0:0:0:0:
256,180,77836,1,0,0:0:0:0:
256,180,77990,1,0,0:0:0:0:
256,180,78144,5,0,0:0:0:0:
256,180,78221,1,0,0:0:0:0:
256,180,78298,1,0,0:0:0:0:
256,180,78452,1,0,0:0:0:0:
256,180,78528,1,0,0:0:0:0:
256,180,78605,1,0,0:0:0:0:
256,180,78759,1,0,0:0:0:0:
256,180,78836,1,0,0:0:0:0:
256,180,78913,1,0,0:0:0:0:
256,180,79067,5,0,0:0:0:0:
256,44,79375,1,0,0:0:0:0:
336,84,79682,1,0,0:0:0:0:
396,152,79990,1,0,0:0:0:0:
392,240,80298,5,0,0:0:0:0:
388,284,80452,1,0,0:0:0:0:
368,324,80606,5,0,0:0:0:0:
280,348,80913,1,0,0:0:0:0:
192,324,81221,1,0,0:0:0:0:
140,248,81529,5,0,0:0:0:0:
128,204,81683,1,0,0:0:0:0:
124,160,81837,6,0,B|160:72|240:52|356:64|400:116,1,300
384,188,83067,2,0,B|336:288|244:296|168:256|144:200,1,300
144,96,84298,5,0,1:1:0:0:
236,96,84606,1,0,1:1:0:0:
328,96,84914,1,0,1:1:0:0:
416,96,85221,1,0,1:1:0:0:
416,188,85529,5,0,1:1:0:0:
372,188,85683,1,0,1:1:0:0:
328,188,85837,1,0,1:1:0:0:
284,188,85991,1,0,1:1:0:0:
240,188,86145,1,0,1:1:0:0:
196,188,86298,1,0,1:1:0:0:
152,188,86452,1,0,1:1:0:0:
148,280,86760,5,0,1:1:0:0:
236,284,87068,1,0,1:1:0:0:
280,284,87222,1,0,1:1:0:0:
368,288,87529,1,0,1:1:0:0:
412,288,87683,1,0,1:1:0:0:
412,196,87991,5,0,1:1:0:0:
320,196,88299,1,0,1:1:0:0:
276,196,88453,1,0,1:1:0:0:
188,196,88760,1,0,1:1:0:0:
144,196,88914,1,0,1:1:0:0:
92,124,89222,6,0,L|144:96,1,50
176,80,89530,1,0,1:1:0:0:
148,164,89837,2,0,L|204:132,1,50
232,116,90145,1,0,1:1:0:0:
204,204,90453,2,0,L|260:168,1,50
284,152,90760,1,0,1:1:0:0:
260,240,91068,2,0,L|312:208,1,50
340,188,91376,1,0,1:1:0:0:
292,112,91684,5,0,0:0:0:0:
164,200,91991,1,0,0:0:0:0:
296,296,92299,1,0,0:0:0:0:
424,200,92607,1,0,0:0:0:0:
424,44,92915,1,0,0:0:0:0:
216,48,93222,1,0,0:0:0:0:
216,236,93530,1,0,0:0:0:0:
432,236,93838,1,0,0:0:0:0:
428,148,94145,6,0,P|352:60|348:56,1,100
348,56,94530,1,0,0:0:0:0:
332,40,94607,1,0,0:0:0:0:
264,100,94761,6,0,L|180:164,1,100
168,176,95145,1,0,0:0:0:0:
152,192,95222,1,0,0:0:0:0:
168,280,95376,6,0,L|256:336,1,100
276,336,95761,1,0,0:0:0:0:
300,332,95838,1,0,0:0:0:0:
384,280,95992,6,0,B|476:192|472:196,1,100
468,192,96376,1,0,0:0:0:0:
476,172,96453,1,0,0:0:0:0:
440,112,96607,5,0,0:0:0:0:
348,156,96915,1,0,0:0:0:0:
376,252,97223,1,0,0:0:0:0:
312,328,97530,1,0,0:0:0:0:
252,324,97838,5,0,0:0:0:0:
232,312,97915,1,0,0:0:0:0:
216,296,97992,1,0,0:0:0:0:
212,272,98069,1,0,0:0:0:0:
220,252,98146,1,0,0:0:0:0:
236,236,98223,1,0,0:0:0:0:
248,216,98300,1,0,0:0:0:0:
252,192,98377,1,0,0:0:0:0:
248,168,98454,1,0,0:0:0:0:
236,152,98530,1,0,0:0:0:0:
220,136,98607,1,0,0:0:0:0:
212,116,98684,1,0,0:0:0:0:
112,68,108916,5,0,0:0:0:0:
164,72,109224,1,0,0:0:0:0:
208,84,109532,1,0,0:0:0:0:
252,112,109839,1,0,0:0:0:0:
272,160,110147,1,0,0:0:0:0:
272,208,110455,1,0,0:0:0:0:
304,252,110762,1,0,0:0:0:0:
348,276,111070,1,0,0:0:0:0:
408,196,111378,5,0,0:0:0:0:
396,96,111686,1,0,0:0:0:0:
288,48,111993,1,0,0:0:0:0:
172,56,112301,1,0,0:0:0:0:
80,132,112609,1,0,0:0:0:0:
80,248,112916,1,0,0:0:0:0:
164,336,113224,1,0,0:0:0:0:
280,348,113532,1,0,0:0:0:0:
448,192,113840,5,0,0:0:0:0:
256,24,114455,1,0,0:0:0:0:
40,188,115071,1,0,0:0:0:0:
256,360,115686,1,0,0:0:0:0:
256,292,116301,5,0,0:0:0:0:
180,244,116609,1,0,0:0:0:0:
252,192,116917,1,0,0:0:0:0:
324,244,117225,1,0,0:0:0:0:
364,224,117532,5,0,0:0:0:0:
384,184,117686,1,0,0:0:0:0:
388,140,117840,1,0,0:0:0:0:
376,96,117994,1,0,0:0:0:0:
336,76,118148,5,0,0:0:0:0:
316,64,118225,1,0,0:0:0:0:
296,56,118302,1,0,0:0:0:0:
272,52,118379,1,0,0:0:0:0:
252,60,118455,1,0,0:0:0:0:
232,72,118532,1,0,0:0:0:0:
216,88,118609,1,0,0:0:0:0:
204,108,118686,2,0,B|168:176|184:252|272:284|304:280,1,225
464,304,119994,5,0,0:0:0:0:
500,224,120302,1,0,0:0:0:0:
472,140,120610,1,0,0:0:0:0:
408,76,120917,1,0,0:0:0:0:
364,68,121071,1,0,0:0:0:0:
320,76,121225,2,0,B|256:84|192:204|252:244,1,200
108,356,122456,5,0,0:0:0:0:
52,288,122764,1,0,0:0:0:0:
36,200,123071,1,0,0:0:0:0:
64,112,123379,1,0,0:0:0:0:
96,80,123533,1,0,0:0:0:0:
140,72,123687,2,0,B|192:64|272:100|304:180,1,200
312,352,124918,5,0,0:0:0:0:
224,352,125225,1,0,0:0:0:0:
180,344,125379,1,0,0:0:0:0:
144,320,125533,1,0,0:0:0:0:
124,280,125687,1,0,0:0:0:0:
128,236,125841,1,0,0:0:0:0:
168,156,126149,5,0,0:0:0:0:
224,228,126456,1,0,0:0:0:0:
260,256,126610,1,0,0:0:0:0:
304,264,126764,1,0,0:0:0:0:
348,252,126918,1,0,0:0:0:0:
380,220,127072,1,0,0:0:0:0:
388,200,127149,1,0,0:0:0:0:
396,180,127226,1,0,0:0:0:0:
384,92,127379,5,0,0:0:0:0:
324,60,127687,1,0,0:0:0:0:
280,48,127841,1,0,0:0:0:0:
236,48,127995,1,0,0:0:0:0:
192,60,128149,1,0,0:0:0:0:
156,88,128303,1,0,0:0:0:0:
144,108,128380,1,0,0:0:0:0:
140,132,128456,1,0,0:0:0:0:
136,200,128610,1,0,0:0:0:0:
144,288,128918,5,0,0:0:0:0:
228,324,129226,1,0,0:0:0:0:
316,312,129533,1,0,0:0:0:0:
388,256,129841,1,0,0:0:0:0:
392,168,130149,1,0,0:0:0:0:
352,88,130457,5,0,0:0:0:0:
288,24,130764,1,0,0:0:0:0:
200,16,131072,1,0,0:0:0:0:
116,52,131380,5,0,0:0:0:0:
60,120,131688,1,0,0:0:0:0:
48,164,131841,1,0,0:0:0:0:
76,248,132149,1,0,0:0:0:0:
92,264,132226,1,0,0:0:0:0:
112,276,132303,1,0,0:0:0:0:
200,288,132611,5,0,0:0:0:0:
288,276,132918,1,0,0:0:0:0:
328,252,133072,1,0,0:0:0:0:
388,184,133380,1,0,0:0:0:0:
396,164,133457,1,0,0:0:0:0:
396,140,133534,1,0,0:0:0:0:
256,192,133765,12,0,137842,0:0:0:0:
136,68,138457,5,0,0:0:0:0:
224,84,138765,1,0,0:0:0:0:
312,88,139073,1,0,0:0:0:0:
400,72,139381,1,0,0:0:0:0:
428,156,139688,1,0,0:0:0:0:
428,248,139996,1,0,0:0:0:0:
376,320,140304,1,0,0:0:0:0:
288,308,140611,5,0,0:0:0:0:
252,284,140765,1,0,0:0:0:0:
292,260,140919,1,0,0:0:0:0:
300,172,141227,5,0,0:0:0:0:
264,144,141381,1,0,0:0:0:0:
304,128,141535,1,0,0:0:0:0:
244,60,141842,5,0,0:0:0:0:
208,32,141996,1,0,0:0:0:0:
200,76,142150,1,0,0:0:0:0:
128,128,142458,5,0,0:0:0:0:
84,124,142612,1,0,0:0:0:0:
100,168,142766,1,0,0:0:0:0:
120,256,143073,5,0,0:0:0:0:
132,300,143227,1,0,0:0:0:0:
172,280,143381,1,0,0:0:0:0:
260,292,143689,5,0,0:0:0:0:
276,280,143766,1,0,0:0:0:0:
296,268,143843,1,0,0:0:0:0:
328,240,143996,1,0,0:0:0:0:
376,164,144304,1,0,0:0:0:0:
376,140,144381,1,0,0:0:0:0:
376,116,144458,1,0,0:0:0:0:
372,72,144612,1,0,0:0:0:0:
288,44,144920,1,0,0:0:0:0:
264,40,144997,1,0,0:0:0:0:
240,40,145073,1,0,0:0:0:0:
196,52,145227,1,0,0:0:0:0:
144,96,145535,1,0,0:0:0:0:
128,112,145612,1,0,0:0:0:0:
124,132,145689,1,0,0:0:0:0:
124,176,145843,1,0,0:0:0:0:
128,264,146150,1,0,0:0:0:0:
140,284,146227,1,0,0:0:0:0:
156,300,146304,1,0,0:0:0:0:
196,316,146458,1,0,0:0:0:0:
288,320,146766,1,0,0:0:0:0:
312,316,146843,1,0,0:0:0:0:
332,304,146920,1,0,0:0:0:0:
364,272,147074,1,0,0:0:0:0:
376,184,147381,5,0,0:0:0:0:
372,160,147458,1,0,0:0:0:0:
356,144,147535,1,0,0:0:0:0:
336,132,147612,1,0,0:0:0:0:
312,128,147689,1,0,0:0:0:0:
288,128,147766,1,0,0:0:0:0:
268,140,147843,1,0,0:0:0:0:
256,160,147920,1,0,0:0:0:0:
252,184,147997,1,0,0:0:0:0:
256,208,148074,1,0,0:0:0:0:
268,228,148151,1,0,0:0:0:0:
288,240,148228,1,0,0:0:0:0:
384,300,148612,5,0,0:0:0:0:
312,356,148920,1,0,0:0:0:0:
220,360,149228,1,0,0:0:0:0:
148,308,149535,1,0,0:0:0:0:
116,224,149843,1,0,0:0:0:0:
140,136,150151,1,0,0:0:0:0:
200,68,150459,1,0,0:0:0:0:
288,48,150766,1,0,0:0:0:0:
376,64,151074,5,0,0:0:0:0:
412,92,151228,1,0,0:0:0:0:
420,136,151382,1,0,0:0:0:0:
408,180,151536,1,0,0:0:0:0:
372,208,151689,1,0,0:0:0:0:
328,204,151843,1,0,0:0:0:0:
288,184,151997,1,0,0:0:0:0:
248,104,152305,5,0,0:0:0:0:
224,64,152459,1,0,0:0:0:0:
188,40,152613,1,0,0:0:0:0:
144,32,152767,1,0,0:0:0:0:
100,36,152920,1,0,0:0:0:0:
60,60,153074,1,0,0:0:0:0:
32,96,153228,1,0,0:0:0:0:
32,188,153536,5,0,0:0:0:0:
36,208,153613,1,0,0:0:0:0:
48,228,153690,1,0,0:0:0:0:
76,264,153844,1,0,0:0:0:0:
148,316,154151,5,0,0:0:0:0:
168,324,154228,1,0,0:0:0:0:
188,332,154305,1,0,0:0:0:0:
232,340,154459,1,0,0:0:0:0:
324,312,154767,5,0,0:0:0:0:
344,304,154844,1,0,0:0:0:0:
364,292,154921,1,0,0:0:0:0:
404,268,155074,1,0,0:0:0:0:
448,188,155382,5,0,0:0:0:0:
460,168,155459,1,0,0:0:0:0:
464,144,155536,1,0,0:0:0:0:
456,100,155690,1,0,0:0:0:0:
376,44,155998,5,0,0:0:0:0:
352,48,156075,1,0,0:0:0:0:
332,56,156151,1,0,0:0:0:0:
312,68,156228,1,0,0:0:0:0:
296,84,156305,1,0,0:0:0:0:
284,104,156382,1,0,0:0:0:0:
280,124,156459,1,0,0:0:0:0:
276,144,156536,1,0,0:0:0:0:
268,164,156613,1,0,0:0:0:0:
256,184,156690,1,0,0:0:0:0:
240,200,156767,1,0,0:0:0:0:
220,212,156844,1,0,0:0:0:0:
220,212,156921,1,0,0:0:0:0:
196,216,156998,1,0,0:0:0:0:
172,216,157075,1,0,0:0:0:0:
148,216,157152,1,0,0:0:0:0:
128,208,157229,1,0,0:0:0:0:
112,196,157305,1,0,0:0:0:0:
104,176,157382,1,0,0:0:0:0:
108,152,157459,1,0,0:0:0:0:
120,136,157536,1,0,0:0:0:0:
140,124,157613,1,0,0:0:0:0:
164,120,157690,1,0,0:0:0:0:
188,124,157767,1,0,0:0:0:0:
256,188,158152,5,0,0:0:0:0:
256,188,167999,5,0,0:0:0:0:
384,60,168614,1,0,0:0:0:0:
380,240,169230,1,0,0:0:0:0:
248,360,169845,1,0,0:0:0:0:
124,228,170461,1,0,0:0:0:0:
124,48,171076,1,0,0:0:0:0:
252,172,171691,1,0,0:0:0:0:
392,60,172307,1,0,0:0:0:0:
400,324,172922,5,0,0:0:0:0:
112,324,173538,1,0,0:0:0:0:
108,72,174153,1,0,0:0:0:0:
384,64,174769,1,0,0:0:0:0:
48,128,175384,1,0,0:0:0:0:
440,176,176000,1,0,0:0:0:0:
56,248,176615,1,0,0:0:0:0:
428,304,177230,1,0,0:0:0:0:
64,40,177846,5,0,0:0:0:0:
440,340,178461,1,0,0:0:0:0:
436,28,179077,1,0,0:0:0:0:
96,328,179692,1,0,0:0:0:0:
436,40,180308,1,0,0:0:0:0:
440,332,180923,1,0,0:0:0:0:
84,48,181539,1,0,0:0:0:0:
256,188,182154,1,0,0:0:0:0:
216,140,182769,5,0,0:0:0:0:
296,140,183077,1,0,0:0:0:0:
176,208,183385,1,0,0:0:0:0:
328,208,183693,1,0,0:0:0:0:
136,276,184000,1,0,0:0:0:0:
364,280,184308,1,0,0:0:0:0:
88,340,184616,1,0,0:0:0:0:
408,348,184924,1,0,0:0:0:0:
384,240,185231,5,0,0:0:0:0:
352,152,185539,1,0,0:0:0:0:
340,316,185847,1,0,0:0:0:0:
288,48,186154,1,0,0:0:0:0:
284,372,186462,1,0,0:0:0:0:
224,112,186770,1,0,0:0:0:0:
176,304,187078,1,0,0:0:0:0:
136,196,187385,1,0,0:0:0:0:
108,196,187539,5,0,0:0:0:0:
84,196,187616,1,0,0:0:0:0:
60,196,187693,1,0,0:0:0:0:
256,60,188308,1,0,0:0:0:0:
432,100,188924,1,0,0:0:0:0:
344,256,189539,1,0,0:0:0:0:
260,224,189847,1,0,0:0:0:0:
188,172,190155,1,0,0:0:0:0:
28,92,190770,1,0,0:0:0:0:
64,64,190924,1,0,0:0:0:0:
104,48,191078,1,0,0:0:0:0:
108,140,191386,1,0,0:0:0:0:
128,320,192001,1,0,0:0:0:0:
172,312,192155,1,0,0:0:0:0:
200,280,192309,1,0,0:0:0:0:
124,228,192617,1,0,0:0:0:0:
164,148,192924,5,0,0:0:0:0:
224,80,193232,1,0,0:0:0:0:
316,80,193540,1,0,0:0:0:0:
380,140,193847,1,0,0:0:0:0:
368,228,194155,1,0,0:0:0:0:
348,268,194309,1,0,0:0:0:0:
308,292,194463,1,0,0:0:0:0:
220,296,194771,1,0,0:0:0:0:
176,284,194925,1,0,0:0:0:0:
144,252,195078,1,0,0:0:0:0:
132,164,195386,5,0,0:0:0:0:
144,120,195540,1,0,0:0:0:0:
164,80,195694,1,0,0:0:0:0:
196,48,195848,1,0,0:0:0:0:
240,32,196002,1,0,0:0:0:0:
284,40,196155,1,0,0:0:0:0:
316,72,196309,1,0,0:0:0:0:
328,116,196463,1,0,0:0:0:0:
332,156,196771,5,0,0:0:0:0:
332,180,196848,1,0,0:0:0:0:
324,200,196925,1,0,0:0:0:0:
312,220,197002,1,0,0:0:0:0:
296,236,197079,1,0,0:0:0:0:
276,248,197155,1,0,0:0:0:0:
256,252,197232,1,0,0:0:0:0:
232,256,197309,1,0,0:0:0:0:
208,256,197386,1,0,0:0:0:0:
184,252,197463,1,0,0:0:0:0:
164,244,197540,1,0,0:0:0:0:
144,232,197617,1,0,0:0:0:0:
256,180,207233,5,0,0:0:0:0:
256,180,207310,1,0,0:0:0:0:
256,180,207387,1,0,0:0:0:0:
256,180,209695,5,0,0:0:0:0:
256,180,209772,1,0,0:0:0:0:
256,180,209849,1,0,0:0:0:0:
256,180,212157,5,0,0:0:0:0:
256,180,212234,1,0,0:0:0:0:
256,180,212311,1,0,0:0:0:0:
256,180,213388,5,0,0:0:0:0:
256,180,213465,1,0,0:0:0:0:
256,180,213542,1,0,0:0:0:0:
256,180,214619,5,0,0:0:0:0:
256,180,214696,1,0,0:0:0:0:
256,180,214773,1,0,0:0:0:0:
256,180,215234,5,0,0:0:0:0:
256,180,215311,1,0,0:0:0:0:
256,180,215388,1,0,0:0:0:0:
256,180,215850,1,0,0:0:0:0:
256,180,215927,1,0,0:0:0:0:
256,180,216003,1,0,0:0:0:0:
256,180,216157,5,0,0:0:0:0:
256,180,216234,1,0,0:0:0:0:
256,180,216311,1,0,0:0:0:0:
256,180,216465,5,0,0:0:0:0:
256,180,216542,1,0,0:0:0:0:
256,180,216619,1,0,0:0:0:0:
88,112,217234,6,0,P|100:52|144:44,1,100
204,96,217850,2,0,P|232:140|292:132,1,100
356,100,218465,2,0,P|412:92|424:144,1,100
384,204,219081,2,0,P|348:252|368:296,1,100
288,340,219696,6,0,L|240:316,1,50
212,284,220004,2,0,L|188:236,1,50
148,224,220312,2,0,L|88:244,1,50
88,196,220619,2,0,L|76:144,1,50
104,108,220927,2,0,L|152:80,1,50
184,112,221235,2,0,L|220:152,1,50
256,124,221542,2,0,L|292:80,1,50
328,104,221850,2,0,L|372:136,1,50
384,176,222158,5,0,0:0:0:0:
376,264,222466,1,0,0:0:0:0:
304,316,222773,1,0,0:0:0:0:
216,324,223081,1,0,0:0:0:0:
152,260,223389,1,0,0:0:0:0:
140,216,223543,1,0,0:0:0:0:
152,172,223697,1,0,0:0:0:0:
184,140,223850,1,0,0:0:0:0:
228,132,224004,1,0,0:0:0:0:
268,152,224158,1,0,0:0:0:0:
296,188,224312,1,0,0:0:0:0:
324,224,224466,1,0,0:0:0:0:
364,244,224620,1,0,0:0:0:0:
408,240,224774,1,0,0:0:0:0:
440,208,224927,1,0,0:0:0:0:
452,164,225081,1,0,0:0:0:0:
432,124,225235,1,0,0:0:0:0:
396,96,225389,1,0,0:0:0:0:
352,84,225543,1,0,0:0:0:0:
308,88,225697,1,0,0:0:0:0:
268,108,225851,1,0,0:0:0:0:
224,124,226004,1,0,0:0:0:0:
180,120,226158,1,0,0:0:0:0:
136,104,226312,1,0,0:0:0:0:
112,68,226466,1,0,0:0:0:0:
120,48,226543,1,0,0:0:0:0:
136,32,226620,1,0,0:0:0:0:
156,20,226697,1,0,0:0:0:0:
180,16,226774,1,0,0:0:0:0:
200,20,226851,1,0,0:0:0:0:
252,60,227081,5,0,0:0:0:0:
332,96,227389,1,0,0:0:0:0:
376,176,227697,1,0,0:0:0:0:
380,200,227774,1,0,0:0:0:0:
376,220,227851,1,0,0:0:0:0:
348,256,228005,1,0,0:0:0:0:
336,276,228082,1,0,0:0:0:0:
340,300,228159,1,0,0:0:0:0:
320,340,228312,5,0,0:0:0:0:
232,356,228620,1,0,0:0:0:0:
148,324,228928,1,0,0:0:0:0:
128,312,229005,1,0,0:0:0:0:
120,292,229082,1,0,0:0:0:0:
100,252,229236,1,0,0:0:0:0:
80,240,229312,1,0,0:0:0:0:
72,220,229389,1,0,0:0:0:0:
76,176,229543,5,0,0:0:0:0:
88,132,229697,1,0,0:0:0:0:
116,96,229851,1,0,0:0:0:0:
152,68,230005,1,0,0:0:0:0:
192,52,230159,1,0,0:0:0:0:
236,48,230313,1,0,0:0:0:0:
280,56,230466,1,0,0:0:0:0:
300,68,230543,1,0,0:0:0:0:
316,84,230620,1,0,0:0:0:0:
392,200,230774,5,0,0:0:0:0:
384,244,230928,1,0,0:0:0:0:
364,284,231082,1,0,0:0:0:0:
332,316,231236,1,0,0:0:0:0:
292,332,231390,1,0,0:0:0:0:
248,332,231543,1,0,0:0:0:0:
204,324,231697,1,0,0:0:0:0:
188,308,231774,1,0,0:0:0:0:
180,288,231851,1,0,0:0:0:0:
176,244,232005,5,0,0:0:0:0:
176,152,232313,1,0,0:0:0:0:
268,148,232621,1,0,0:0:0:0:
272,60,232928,1,0,0:0:0:0:
364,60,233236,1,0,0:0:0:0:
364,152,233544,1,0,0:0:0:0:
364,240,233851,1,0,0:0:0:0:
272,244,234159,1,0,0:0:0:0:
180,248,234467,6,0,L|124:200,1,50
136,172,234775,2,0,L|136:116,1,50
168,92,235082,2,0,L|224:48,1,50
248,80,235390,2,0,L|292:116,1,50
292,156,235698,2,0,L|292:224,1,50
320,240,236005,2,0,L|364:284,1,50
328,312,236313,2,0,L|288:352,1,50
248,352,236621,5,0,0:0:0:0:
232,336,236698,1,0,0:0:0:0:
248,320,236775,1,0,0:0:0:0:
232,304,236852,1,0,0:0:0:0:
248,288,236929,1,0,0:0:0:0:
256,188,246776,5,0,0:0:0:0:
256,188,247083,1,0,0:0:0:0:
256,188,247391,1,0,0:0:0:0:
256,188,247699,1,0,0:0:0:0:
256,188,248007,1,0,0:0:0:0:
256,188,248314,1,0,0:0:0:0:
256,188,248622,1,0,0:0:0:0:
256,188,248930,1,0,0:0:0:0:
256,188,249238,5,0,0:0:0:0:
256,188,249391,1,0,0:0:0:0:
256,188,249545,1,0,0:0:0:0:
256,188,249699,1,0,0:0:0:0:
256,188,249853,1,0,0:0:0:0:
256,188,250007,1,0,0:0:0:0:
256,188,250161,1,0,0:0:0:0:
256,188,250315,1,0,0:0:0:0:
256,188,250468,5,0,0:0:0:0:
256,188,250545,1,0,0:0:0:0:
256,188,250622,1,0,0:0:0:0:
256,188,250699,1,0,0:0:0:0:
256,188,250776,1,0,0:0:0:0:
256,188,250853,1,0,0:0:0:0:
256,188,250930,1,0,0:0:0:0:
256,188,251007,1,0,0:0:0:0:
256,188,251084,1,0,0:0:0:0:
256,188,251161,1,0,0:0:0:0:
256,188,251238,1,0,0:0:0:0:
256,188,251315,1,0,0:0:0:0:
256,188,251392,1,0,0:0:0:0:
256,188,251469,1,0,0:0:0:0:
256,188,251545,1,0,0:0:0:0:
256,188,251622,1,0,0:0:0:0:
400,288,256623,6,0,L|360:320,1,50
304,172,256931,2,0,L|232:160,1,50
216,292,257238,2,0,L|156:284,1,50
72,160,257546,2,0,L|104:112,1,50
220,28,257854,2,0,L|280:32,1,50
380,160,258161,2,0,L|400:216,1,50
304,344,258469,2,0,L|236:348,1,50
232,120,258777,2,0,L|296:116,1,50
420,124,259085,5,0,0:0:0:0:
416,188,259238,1,0,0:0:0:0:
388,248,259392,1,0,0:0:0:0:
344,296,259546,1,0,0:0:0:0:
284,320,259700,1,0,0:0:0:0:
220,320,259854,1,0,0:0:0:0:
160,296,260008,1,0,0:0:0:0:
112,252,260162,1,0,0:0:0:0:
84,196,260316,1,0,0:0:0:0:
88,132,260469,1,0,0:0:0:0:
120,76,260623,1,0,0:0:0:0:
180,56,260777,1,0,0:0:0:0:
240,76,260931,1,0,0:0:0:0:
280,128,261085,1,0,0:0:0:0:
284,192,261239,1,0,0:0:0:0:
260,252,261393,1,0,0:0:0:0:
212,304,261546,6,0,L|164:340,1,50
60,180,261854,2,0,L|116:140,1,50
240,52,262162,2,0,L|296:16,1,50
408,192,262470,2,0,L|360:228,1,50
252,304,262777,5,0,0:0:0:0:
184,280,262931,1,0,0:0:0:0:
128,224,263085,1,0,0:0:0:0:
116,152,263239,1,0,0:0:0:0:
140,84,263393,1,0,0:0:0:0:
200,40,263547,1,0,0:0:0:0:
272,24,263700,1,0,0:0:0:0:
344,44,263854,1,0,0:0:0:0:
408,84,264008,6,0,L|448:136,1,50
384,352,264316,2,0,L|312:352,1,50
80,312,264624,2,0,L|68:256,1,50
88,24,264931,2,0,L|140:24,1,50
256,188,265239,5,0,0:0:0:0:
256,188,265393,1,0,0:0:0:0:
256,188,265547,1,0,0:0:0:0:
256,188,265701,1,0,0:0:0:0:
256,188,265855,1,0,0:0:0:0:
256,188,266008,1,0,0:0:0:0:
256,188,266162,1,0,0:0:0:0:
256,188,266316,1,0,0:0:0:0:
304,280,266470,5,0,0:0:0:0:
348,264,266624,1,0,0:0:0:0:
388,240,266778,1,0,0:0:0:0:
400,220,266855,1,0,0:0:0:0:
404,196,266932,1,0,0:0:0:0:
392,152,267085,1,0,0:0:0:0:
368,112,267239,1,0,0:0:0:0:
328,92,267393,1,0,0:0:0:0:
240,80,267701,5,0,0:0:0:0:
196,88,267855,1,0,0:0:0:0:
160,116,268009,1,0,0:0:0:0:
152,136,268086,1,0,0:0:0:0:
156,160,268162,1,0,0:0:0:0:
148,204,268316,1,0,0:0:0:0:
124,244,268470,1,0,0:0:0:0:
84,224,268624,1,0,0:0:0:0:
68,176,268932,5,0,0:0:0:0:
132,176,269086,1,0,0:0:0:0:
196,176,269239,1,0,0:0:0:0:
260,176,269393,1,0,0:0:0:0:
324,176,269547,1,0,0:0:0:0:
388,180,269701,1,0,0:0:0:0:
392,248,269855,2,0,L|392:312,1,50
328,300,270163,1,0,0:0:0:0:
300,300,270240,1,0,0:0:0:0:
272,300,270317,1,0,0:0:0:0:
132,304,270470,5,0,0:0:0:0:
88,256,270624,1,0,0:0:0:0:
64,196,270778,1,0,0:0:0:0:
72,132,270932,1,0,0:0:0:0:
104,76,271086,1,0,0:0:0:0:
156,40,271240,1,0,0:0:0:0:
216,20,271394,1,0,0:0:0:0:
280,28,271547,1,0,0:0:0:0:
304,40,271624,1,0,0:0:0:0:
320,68,271701,1,0,0:0:0:0:
300,136,271855,1,0,0:0:0:0:
232,168,272009,1,0,0:0:0:0:
168,196,272163,1,0,0:0:0:0:
128,252,272317,1,0,0:0:0:0:
144,316,272471,1,0,0:0:0:0:
208,328,272624,1,0,0:0:0:0:
264,296,272778,1,0,0:0:0:0:
272,232,272932,1,0,0:0:0:0:
288,208,273009,1,0,0:0:0:0:
312,208,273086,1,0,0:0:0:0:
376,232,273240,5,0,0:0:0:0:
444,248,273394,1,0,0:0:0:0:
488,192,273548,1,0,0:0:0:0:
476,128,273701,1,0,0:0:0:0:
436,80,273855,1,0,0:0:0:0:
376,64,274009,1,0,0:0:0:0:
316,80,274163,1,0,0:0:0:0:
272,128,274317,1,0,0:0:0:0:
280,148,274394,1,0,0:0:0:0:
268,168,274471,1,0,0:0:0:0:
224,216,274625,1,0,0:0:0:0:
200,276,274778,1,0,0:0:0:0:
160,324,274932,1,0,0:0:0:0:
96,324,275086,1,0,0:0:0:0:
48,284,275240,1,0,0:0:0:0:
48,220,275394,1,0,0:0:0:0:
88,168,275548,1,0,0:0:0:0:
148,152,275702,1,0,0:0:0:0:
176,156,275779,1,0,0:0:0:0:
196,128,275856,1,0,0:0:0:0:
232,64,276009,5,0,0:0:0:0:
288,36,276163,1,0,0:0:0:0:
356,52,276317,1,0,0:0:0:0:
416,136,276625,1,0,0:0:0:0:
420,288,276933,1,0,0:0:0:0:
256,368,277240,1,0,0:0:0:0:
60,280,277548,1,0,0:0:0:0:
52,52,277856,1,0,0:0:0:0:
60,280,278163,1,0,0:0:0:0:
256,364,278471,1,0,0:0:0:0:
420,288,278779,1,0,0:0:0:0:
416,136,279087,1,0,0:0:0:0:
356,52,279394,1,0,0:0:0:0:
288,36,279548,1,0,0:0:0:0:
228,56,279702,1,0,0:0:0:0:
256,188,280010,1,0,0:0:0:0:
392,200,280317,1,0,0:0:0:0:
496,168,280625,1,0,0:0:0:0:
480,80,280933,1,0,0:0:0:0:
436,12,281241,1,0,0:0:0:0:
412,36,281318,1,0,0:0:0:0:
388,64,281395,1,0,0:0:0:0:
368,88,281471,1,0,0:0:0:0:
352,108,281548,1,0,0:0:0:0:
416,356,281856,5,0,0:0:0:0:
400,328,281933,1,0,0:0:0:0:
380,300,282010,1,0,0:0:0:0:
356,280,282087,1,0,0:0:0:0:
328,256,282164,1,0,0:0:0:0:
44,288,282472,5,0,0:0:0:0:
64,272,282548,1,0,0:0:0:0:
88,252,282625,1,0,0:0:0:0:
104,236,282702,1,0,0:0:0:0:
128,216,282779,1,0,0:0:0:0:
108,0,283087,5,0,0:0:0:0:
132,12,283164,1,0,0:0:0:0:
164,32,283241,1,0,0:0:0:0:
184,48,283318,1,0,0:0:0:0:
200,68,283395,1,0,0:0:0:0:
256,136,283702,5,0,0:0:0:0:
256,260,283856,1,0,0:0:0:0:
300,156,284010,1,0,0:0:0:0:
208,240,284164,1,0,0:0:0:0:
316,200,284318,1,0,0:0:0:0:
192,192,284472,1,0,0:0:0:0:
296,240,284626,1,0,0:0:0:0:
216,152,284779,1,0,0:0:0:0:
252,196,284933,5,0,0:0:0:0:
272,184,285010,1,0,0:0:0:0:
288,168,285087,1,0,0:0:0:0:
288,144,285164,1,0,0:0:0:0:
280,124,285241,1,0,0:0:0:0:
264,108,285318,1,0,0:0:0:0:
244,100,285395,1,0,0:0:0:0:
220,96,285472,1,0,0:0:0:0:
200,104,285549,1,0,0:0:0:0:
184,120,285626,1,0,0:0:0:0:
172,152,285703,1,0,0:0:0:0:
168,188,285780,1,0,0:0:0:0:
156,228,285856,1,0,0:0:0:0:
120,264,285933,1,0,0:0:0:0:
64,240,286010,1,0,0:0:0:0:
48,176,286087,1,0,0:0:0:0:
176,84,296011,5,0,0:0:0:0:
328,88,296627,1,0,0:0:0:0:
344,192,297242,1,0,0:0:0:0:
256,272,297858,1,0,0:0:0:0:
344,196,298473,1,0,0:0:0:0:
292,84,299089,1,0,0:0:0:0:
240,200,299704,1,0,0:0:0:0:
180,88,300319,1,0,0:0:0:0:
84,136,300935,5,0,0:0:0:0:
92,168,301089,1,0,0:0:0:0:
116,204,301243,1,0,0:0:0:0:
152,232,301396,1,0,0:0:0:0:
204,248,301550,1,0,0:0:0:0:
264,248,301704,1,0,0:0:0:0:
324,224,301858,1,0,0:0:0:0:
364,172,302012,1,0,0:0:0:0:
372,100,302166,6,0,L|352:36,1,50
304,28,302473,2,0,L|240:16,1,50
160,80,302781,2,0,L|140:140,1,50
176,304,303089,2,0,L|228:304,1,50
460,268,303397,2,0,L|440:208,1,50
328,16,303704,2,0,L|264:28,1,50
288,356,304012,2,0,L|228:352,1,50
64,16,304320,2,0,L|120:20,1,50
188,24,304628,5,0,0:0:0:0:
296,56,304935,1,0,0:0:0:0:
396,116,305243,1,0,0:0:0:0:
428,208,305551,1,0,0:0:0:0:
372,308,305858,5,0,0:0:0:0:
284,328,306166,1,0,0:0:0:0:
204,280,306474,1,0,0:0:0:0:
140,276,306628,1,0,0:0:0:0:
176,224,306782,1,0,0:0:0:0:
320,136,307089,5,0,0:0:0:0:
424,84,307397,1,0,0:0:0:0:
400,192,307705,1,0,0:0:0:0:
452,232,307859,1,0,0:0:0:0:
392,256,308013,1,0,0:0:0:0:
256,352,308320,5,0,0:0:0:0:
32,192,308628,1,0,0:0:0:0:
256,24,308936,1,0,0:0:0:0:
484,192,309243,1,0,0:0:0:0:
392,196,309551,5,0,0:0:0:0:
344,260,309705,1,0,0:0:0:0:
304,144,309859,1,0,0:0:0:0:
296,320,310013,1,0,0:0:0:0:
212,96,310167,1,0,0:0:0:0:
244,380,310320,1,0,0:0:0:0:
124,56,310474,1,0,0:0:0:0:
92,240,310628,1,0,0:0:0:0:
196,216,310782,6,0,L|300:216,1,100
360,216,311397,2,0,L|464:216,1,100
460,148,312013,2,0,L|436:96,1,50
380,76,312321,2,0,L|328:68,1,50
268,84,312628,2,0,L|252:124,1,25
240,152,312782,2,0,L|216:172,1,25
180,176,312936,2,0,L|152:164,1,25
128,128,313090,2,0,L|120:104,1,25
128,68,313244,5,0,0:0:0:0:
344,40,313859,1,0,0:0:0:0:
376,192,314475,1,0,0:0:0:0:
344,248,314782,1,0,0:0:0:0:
244,272,315090,1,0,0:0:0:0:
204,256,315244,1,0,0:0:0:0:
156,160,315398,5,0,0:0:0:0:
172,144,315475,1,0,0:0:0:0:
196,140,315552,1,0,0:0:0:0:
216,148,315629,1,0,0:0:0:0:
232,164,315706,1,0,0:0:0:0:
252,176,315782,1,0,0:0:0:0:
