osu file format v14

[General]
AudioFilename: audio.ogg
AudioLeadIn: 0
PreviewTime: 53028
Countdown: 0
SampleSet: Soft
StackLeniency: 0.7
Mode: 3
LetterboxInBreaks: 0
SpecialStyle: 0
WidescreenStoryboard: 0

[Editor]
Bookmarks: 15178,22562,36409,67779,75164
DistanceSpacing: 0.8
BeatDivisor: 4
GridSize: 32
TimelineZoom: 1.7

[Metadata]
Title:20,november
TitleUnicode:20,november
Artist:DJ nagureo
ArtistUnicode:DJ nagureo
Creator:shizehao
Version:Collab Another
Source:beatmania
Tags:Video Game Electronic English Vocal HOUSE piano original 南雲玲生 Nagumo Reo chappy KONAMI BEMANI KMCA-2 beatmania IIDX Original Soundtracks DanceDanceRevolution 2ndMIX CLUB VERSiON pop'n music 16 PARTY♪ bm2dx ddr popn pnm MJH MJHs 20 november single mix n.a.r.d
BeatmapID:4120933
BeatmapSetID:1913811

[Difficulty]
HPDrainRate:8
CircleSize:5
OverallDifficulty:8
ApproachRate:5
SliderMultiplier:1.4
SliderTickRate:1

[Events]
//Background and Video events
0,0,"bg.jpg",0,0
//Break Periods
//Storyboard Layer 0 (Background)
//Storyboard Layer 1 (Fail)
//Storyboard Layer 2 (Pass)
//Storyboard Layer 3 (Foreground)
//Storyboard Layer 4 (Overlay)
//Storyboard Sound Samples

[TimingPoints]
413,461.538461538462,4,2,1,45,1,0
4098,461.538461538462,4,2,1,45,1,0
36405,463.320463320463,4,2,1,45,1,0
36405,-99.009900990099,4,2,1,45,0,0
38259,447.127207690588,4,2,1,45,1,8
38259,-103.092783505155,4,2,1,45,0,8
38706,454.545454545455,4,2,1,45,1,8
38706,-102.040816326531,4,2,1,45,0,8
39614,519.480519480519,4,2,1,45,1,8
39614,-88.4955752212389,4,2,1,45,0,8
39874,461.538461538462,4,2,1,45,1,8
40105,447.127207690588,4,2,1,45,1,8
40105,-103.092783505155,4,2,1,45,0,8
40552,454.545454545455,4,2,1,45,1,8
40552,-102.040816326531,4,2,1,45,0,8
41006,458.715596330275,4,2,1,45,1,8
41006,-101.010101010101,4,2,1,45,0,8
41464,511.945392491468,4,2,1,45,1,8
41464,-90.0900900900901,4,2,1,45,0,8
41720,461.538461538462,4,2,1,45,1,8
41950,447.127207690588,4,2,1,45,1,8
41950,-103.092783505155,4,2,1,45,0,8
42397,454.545454545455,4,2,1,45,1,8
42397,-102.040816326531,4,2,1,45,0,8
43305,519.480519480519,4,2,1,45,1,8
43305,-88.4955752212389,4,2,1,45,0,8
43565,461.538461538462,4,2,1,45,1,8
43795,447.127207690588,4,2,1,45,1,8
43795,-103.092783505155,4,2,1,45,0,8
44242,454.545454545455,4,2,1,45,1,8
44242,-102.040816326531,4,2,1,45,0,8
44696,457.317073170732,4,2,1,45,1,8
44696,-101.010101010101,4,2,1,45,0,8
45153,500,4,2,1,45,1,8
45153,-92.5925925925926,4,2,1,45,0,8
45403,451.807228915663,4,2,1,45,1,8
45403,-102.040816326531,4,2,1,45,0,8
45628,461.538461538462,4,2,1,45,1,0
51166,458.015267175573,4,2,1,45,1,8
51166,-101.010101010101,4,2,1,45,0,8
51624,454.545454545455,4,2,1,45,1,8
51624,-101.010101010101,4,2,1,45,0,8
51725,480,4,2,1,45,1,8
51725,-96.1538461538461,4,2,1,45,0,8
52085,468.75,4,2,1,45,1,8
52085,-98.0392156862745,4,2,1,45,0,8
52558,461.538461538462,4,2,1,45,1,8
53028,461.538461538462,4,2,1,45,1,8

[HitObjects]
51,192,4098,5,0,0:0:0:0:
459,192,4098,1,0,0:0:0:0:
357,192,4098,1,0,0:0:0:0:
51,192,4559,1,0,0:0:0:0:
357,192,4790,1,0,0:0:0:0:
255,192,4790,1,0,0:0:0:0:
153,192,4790,1,0,0:0:0:0:
51,192,5021,1,0,0:0:0:0:
51,192,5482,1,0,0:0:0:0:
255,192,5771,1,0,0:0:0:0:
357,192,5857,1,0,0:0:0:0:
459,192,5944,1,0,0:0:0:0:
255,192,5944,1,0,0:0:0:0:
51,192,5944,1,0,0:0:0:0:
357,192,6174,1,0,0:0:0:0:
153,192,6174,1,0,0:0:0:0:
255,192,6405,1,0,0:0:0:0:
51,192,6405,1,0,0:0:0:0:
459,192,6636,1,0,0:0:0:0:
357,192,6636,1,0,0:0:0:0:
153,192,6636,1,0,0:0:0:0:
51,192,6867,1,0,0:0:0:0:
51,192,7328,1,0,0:0:0:0:
255,192,7790,1,0,0:0:0:0:
153,192,7790,1,0,0:0:0:0:
51,192,7790,128,0,8136:0:0:0:0:
357,192,8021,128,0,8136:0:0:0:0:
459,192,8251,1,0,0:0:0:0:
51,192,8251,1,0,0:0:0:0:
459,192,8482,1,0,0:0:0:0:
357,192,8636,1,0,0:0:0:0:
153,192,8713,1,0,0:0:0:0:
51,192,8713,1,0,0:0:0:0:
459,192,8828,1,0,0:0:0:0:
459,192,8944,1,0,0:0:0:0:
255,192,8944,1,0,0:0:0:0:
459,192,9174,1,0,0:0:0:0:
153,192,9174,1,0,0:0:0:0:
357,192,9328,1,0,0:0:0:0:
51,192,9405,1,0,0:0:0:0:
357,192,9521,1,0,0:0:0:0:
357,192,9636,1,0,0:0:0:0:
153,192,9636,1,0,0:0:0:0:
51,192,9636,128,0,9982:0:0:0:0:
255,192,9867,128,0,9982:0:0:0:0:
459,192,10098,1,0,0:0:0:0:
51,192,10098,1,0,0:0:0:0:
459,192,10328,1,0,0:0:0:0:
357,192,10482,1,0,0:0:0:0:
153,192,10559,1,0,0:0:0:0:
51,192,10559,1,0,0:0:0:0:
459,192,10674,1,0,0:0:0:0:
459,192,10790,1,0,0:0:0:0:
255,192,10790,1,0,0:0:0:0:
459,192,11021,1,0,0:0:0:0:
153,192,11021,1,0,0:0:0:0:
357,192,11174,1,0,0:0:0:0:
255,192,11251,1,0,0:0:0:0:
51,192,11251,1,0,0:0:0:0:
357,192,11367,1,0,0:0:0:0:
255,192,11482,1,0,0:0:0:0:
153,192,11482,1,0,0:0:0:0:
51,192,11482,128,0,11828:0:0:0:0:
357,192,11713,128,0,11828:0:0:0:0:
459,192,11944,1,0,0:0:0:0:
51,192,11944,1,0,0:0:0:0:
459,192,12174,1,0,0:0:0:0:
357,192,12328,1,0,0:0:0:0:
153,192,12405,1,0,0:0:0:0:
51,192,12405,1,0,0:0:0:0:
459,192,12521,1,0,0:0:0:0:
459,192,12636,1,0,0:0:0:0:
255,192,12636,1,0,0:0:0:0:
459,192,12867,1,0,0:0:0:0:
153,192,12867,1,0,0:0:0:0:
357,192,12999,1,0,0:0:0:0:
51,192,13098,1,0,0:0:0:0:
357,192,13213,1,0,0:0:0:0:
153,192,13328,1,0,0:0:0:0:
51,192,13328,128,0,13674:0:0:0:0:
357,192,13328,1,0,0:0:0:0:
255,192,13559,128,0,13674:0:0:0:0:
459,192,13790,1,0,0:0:0:0:
51,192,13790,1,0,0:0:0:0:
459,192,14021,1,0,0:0:0:0:
358,192,14174,1,0,0:0:0:0:
153,192,14251,1,0,0:0:0:0:
51,192,14251,1,0,0:0:0:0:
459,192,14367,1,0,0:0:0:0:
459,192,14482,1,0,0:0:0:0:
255,192,14482,1,0,0:0:0:0:
459,192,14713,128,0,14799:0:0:0:0:
153,192,14713,1,0,0:0:0:0:
357,192,14944,128,0,15030:0:0:0:0:
51,192,14944,1,0,0:0:0:0:
51,192,15059,1,0,0:0:0:0:
459,192,15174,128,0,15261:0:0:0:0:
255,192,15174,1,0,0:0:0:0:
459,192,15636,1,0,0:0:0:0:
255,192,15636,1,0,0:0:0:0:
153,192,16098,1,0,0:0:0:0:
51,192,16098,1,0,0:0:0:0:
357,192,16213,1,0,0:0:0:0:
255,192,16213,1,0,0:0:0:0:
357,192,16444,1,0,0:0:0:0:
255,192,16444,1,0,0:0:0:0:
153,192,16559,1,0,0:0:0:0:
51,192,16559,1,0,0:0:0:0:
357,192,16790,1,0,0:0:0:0:
255,192,16790,1,0,0:0:0:0:
357,192,17021,1,0,0:0:0:0:
51,192,17021,1,0,0:0:0:0:
459,192,17251,1,0,0:0:0:0:
255,192,17251,1,0,0:0:0:0:
357,192,17482,1,0,0:0:0:0:
51,192,17482,1,0,0:0:0:0:
459,192,17598,1,0,0:0:0:0:
255,192,17598,1,0,0:0:0:0:
357,192,17828,1,0,0:0:0:0:
153,192,17828,1,0,0:0:0:0:
459,192,17944,1,0,0:0:0:0:
255,192,17944,1,0,0:0:0:0:
459,192,18174,1,0,0:0:0:0:
255,192,18174,1,0,0:0:0:0:
357,192,18290,1,0,0:0:0:0:
153,192,18290,1,0,0:0:0:0:
459,192,18405,1,0,0:0:0:0:
255,192,18405,1,0,0:0:0:0:
357,192,18636,1,0,0:0:0:0:
153,192,18636,1,0,0:0:0:0:
153,192,18867,1,0,0:0:0:0:
51,192,18867,1,0,0:0:0:0:
459,192,19098,1,0,0:0:0:0:
357,192,19098,1,0,0:0:0:0:
153,192,19328,1,0,0:0:0:0:
51,192,19328,1,0,0:0:0:0:
459,192,19444,1,0,0:0:0:0:
357,192,19444,1,0,0:0:0:0:
255,192,19674,1,0,0:0:0:0:
51,192,19674,1,0,0:0:0:0:
357,192,19790,1,0,0:0:0:0:
153,192,19790,1,0,0:0:0:0:
357,192,20021,1,0,0:0:0:0:
153,192,20021,1,0,0:0:0:0:
255,192,20136,1,0,0:0:0:0:
51,192,20136,1,0,0:0:0:0:
357,192,20251,1,0,0:0:0:0:
153,192,20251,1,0,0:0:0:0:
255,192,20482,1,0,0:0:0:0:
51,192,20482,1,0,0:0:0:0:
459,192,20713,1,0,0:0:0:0:
153,192,20713,1,0,0:0:0:0:
51,192,20713,1,0,0:0:0:0:
153,192,20944,1,8,0:0:0:0:
256,192,20944,1,0,0:0:0:0:
358,192,21059,1,8,0:0:0:0:
459,192,21174,1,0,0:0:0:0:
153,192,21174,1,0,0:0:0:0:
460,192,21290,1,0,0:0:0:0:
153,192,21405,1,8,0:0:0:0:
256,192,21405,1,0,0:0:0:0:
357,192,21521,1,8,0:0:0:0:
357,192,21636,1,8,0:0:0:0:
51,192,21636,1,0,0:0:0:0:
153,192,21751,1,8,0:0:0:0:
357,192,21867,1,8,0:0:0:0:
153,192,21982,1,8,0:0:0:0:
357,192,22098,1,8,0:0:0:0:
153,192,22213,1,8,0:0:0:0:
357,192,22328,1,8,0:0:0:0:
153,192,22444,1,8,0:0:0:0:
459,192,22559,1,0,0:0:0:0:
255,192,22559,1,0,0:0:0:0:
51,192,22559,1,0,0:0:0:0:
357,192,22674,1,0,0:0:0:0:
357,192,22905,1,0,0:0:0:0:
255,192,22905,1,0,0:0:0:0:
459,192,23021,1,0,0:0:0:0:
153,192,23021,1,0,0:0:0:0:
51,192,23021,1,0,0:0:0:0:
255,192,23136,1,0,0:0:0:0:
357,192,23251,1,0,0:0:0:0:
153,192,23367,1,0,0:0:0:0:
51,192,23367,1,0,0:0:0:0:
459,192,23482,1,0,0:0:0:0:
357,192,23482,1,0,0:0:0:0:
153,192,23598,1,0,0:0:0:0:
153,192,23828,1,0,0:0:0:0:
459,192,23944,1,0,0:0:0:0:
357,192,23944,1,0,0:0:0:0:
51,192,23944,1,0,0:0:0:0:
459,192,24174,1,0,0:0:0:0:
357,192,24174,1,0,0:0:0:0:
153,192,24290,1,0,0:0:0:0:
255,192,24405,1,0,0:0:0:0:
51,192,24405,1,0,0:0:0:0:
357,192,24521,1,0,0:0:0:0:
357,192,24751,1,0,0:0:0:0:
255,192,24751,1,0,0:0:0:0:
459,192,24867,1,0,0:0:0:0:
153,192,24867,1,0,0:0:0:0:
51,192,24867,1,0,0:0:0:0:
255,192,24982,1,0,0:0:0:0:
357,192,25098,1,0,0:0:0:0:
153,192,25213,1,0,0:0:0:0:
51,192,25213,1,0,0:0:0:0:
459,192,25328,1,0,0:0:0:0:
357,192,25328,1,0,0:0:0:0:
51,192,25444,1,0,0:0:0:0:
51,192,25674,1,0,0:0:0:0:
459,192,25790,1,0,0:0:0:0:
255,192,25790,1,0,0:0:0:0:
153,192,25790,1,0,0:0:0:0:
459,192,26021,1,0,0:0:0:0:
255,192,26021,1,0,0:0:0:0:
153,192,26136,1,0,0:0:0:0:
255,192,26251,1,0,0:0:0:0:
51,192,26251,1,0,0:0:0:0:
357,192,26367,1,0,0:0:0:0:
357,192,26598,1,0,0:0:0:0:
255,192,26598,1,0,0:0:0:0:
459,192,26713,1,0,0:0:0:0:
153,192,26713,1,0,0:0:0:0:
51,192,26713,1,0,0:0:0:0:
255,192,26828,1,0,0:0:0:0:
357,192,26944,1,0,0:0:0:0:
153,192,27059,1,0,0:0:0:0:
51,192,27059,1,0,0:0:0:0:
459,192,27174,1,0,0:0:0:0:
357,192,27174,1,0,0:0:0:0:
153,192,27290,1,0,0:0:0:0:
153,192,27521,1,0,0:0:0:0:
459,192,27636,1,0,0:0:0:0:
357,192,27636,1,0,0:0:0:0:
51,192,27636,1,0,0:0:0:0:
459,192,27867,1,0,0:0:0:0:
357,192,27867,1,0,0:0:0:0:
51,192,27982,1,0,0:0:0:0:
256,192,28098,1,0,0:0:0:0:
357,192,28098,1,8,0:0:0:0:
153,192,28213,1,8,0:0:0:0:
357,192,28328,1,8,0:0:0:0:
153,192,28444,1,8,0:0:0:0:
357,192,28559,1,8,0:0:0:0:
153,192,28674,1,8,0:0:0:0:
357,192,28790,1,8,0:0:0:0:
153,192,28905,1,8,0:0:0:0:
459,192,29021,1,0,0:0:0:0:
153,192,29021,1,8,0:0:0:0:
357,192,29136,1,8,0:0:0:0:
153,192,29251,1,8,0:0:0:0:
357,192,29367,1,8,0:0:0:0:
153,192,29482,1,8,0:0:0:0:
357,192,29598,1,8,0:0:0:0:
153,192,29713,1,8,0:0:0:0:
357,192,29828,1,8,0:0:0:0:
459,192,29944,1,0,0:0:0:0:
255,192,29944,1,0,0:0:0:0:
51,192,29944,1,0,0:0:0:0:
153,192,30059,1,0,0:0:0:0:
255,192,30290,1,0,0:0:0:0:
153,192,30290,1,0,0:0:0:0:
357,192,30405,1,0,0:0:0:0:
51,192,30405,1,0,0:0:0:0:
459,192,30405,1,0,0:0:0:0:
255,192,30521,1,0,0:0:0:0:
153,192,30636,1,0,0:0:0:0:
459,192,30751,1,0,0:0:0:0:
357,192,30751,1,0,0:0:0:0:
153,192,30867,1,0,0:0:0:0:
51,192,30867,1,0,0:0:0:0:
357,192,30982,1,0,0:0:0:0:
357,192,31213,1,0,0:0:0:0:
459,192,31328,1,0,0:0:0:0:
153,192,31328,1,0,0:0:0:0:
51,192,31328,1,0,0:0:0:0:
153,192,31559,1,0,0:0:0:0:
51,192,31559,1,0,0:0:0:0:
357,192,31674,1,0,0:0:0:0:
459,192,31790,1,0,0:0:0:0:
255,192,31790,1,0,0:0:0:0:
153,192,31905,1,0,0:0:0:0:
255,192,32136,1,0,0:0:0:0:
153,192,32136,1,0,0:0:0:0:
459,192,32251,1,0,0:0:0:0:
357,192,32251,1,0,0:0:0:0:
51,192,32251,1,0,0:0:0:0:
255,192,32367,1,0,0:0:0:0:
153,192,32482,1,0,0:0:0:0:
459,192,32598,1,0,0:0:0:0:
357,192,32598,1,0,0:0:0:0:
153,192,32713,1,0,0:0:0:0:
51,192,32713,1,0,0:0:0:0:
459,192,32828,1,0,0:0:0:0:
459,192,33059,1,0,0:0:0:0:
357,192,33174,1,0,0:0:0:0:
255,192,33174,1,0,0:0:0:0:
51,192,33174,1,0,0:0:0:0:
255,192,33405,1,0,0:0:0:0:
51,192,33405,1,0,0:0:0:0:
357,192,33521,1,0,0:0:0:0:
459,192,33636,1,0,0:0:0:0:
255,192,33636,1,0,0:0:0:0:
153,192,33751,1,0,0:0:0:0:
255,192,33982,1,0,0:0:0:0:
153,192,33982,1,0,0:0:0:0:
459,192,34098,1,0,0:0:0:0:
357,192,34098,1,0,0:0:0:0:
51,192,34098,1,0,0:0:0:0:
255,192,34213,1,0,0:0:0:0:
153,192,34328,1,0,0:0:0:0:
459,192,34444,1,0,0:0:0:0:
357,192,34444,1,0,0:0:0:0:
153,192,34559,1,0,0:0:0:0:
51,192,34559,1,0,0:0:0:0:
357,192,34674,1,0,0:0:0:0:
357,192,34905,1,0,0:0:0:0:
459,192,35021,1,0,0:0:0:0:
153,192,35021,1,0,0:0:0:0:
51,192,35021,1,0,0:0:0:0:
153,192,35251,1,0,0:0:0:0:
51,192,35251,1,0,0:0:0:0:
256,192,35367,1,0,0:0:0:0:
357,192,35482,1,8,0:0:0:0:
460,192,35482,1,0,0:0:0:0:
51,192,35598,1,8,0:0:0:0:
357,192,35713,1,8,0:0:0:0:
51,192,35828,1,8,0:0:0:0:
357,192,35944,1,8,0:0:0:0:
51,192,36059,1,8,0:0:0:0:
357,192,36174,1,8,0:0:0:0:
51,192,36290,1,8,0:0:0:0:
51,192,36405,1,8,0:0:0:0:
153,192,36405,1,0,0:0:0:0:
358,192,36520,1,8,0:0:0:0:
51,192,36636,1,8,0:0:0:0:
153,192,36636,1,0,0:0:0:0:
358,192,36752,1,0,0:0:0:0:
460,192,36752,1,8,0:0:0:0:
256,192,36868,1,0,0:0:0:0:
51,192,36868,1,8,0:0:0:0:
358,192,36984,1,8,0:0:0:0:
153,192,37099,1,8,0:0:0:0:
460,192,37099,1,0,0:0:0:0:
357,192,37215,1,0,0:0:0:0:
51,192,37215,1,8,0:0:0:0:
459,192,37331,1,0,0:0:0:0:
255,192,37331,1,0,0:0:0:0:
153,192,37447,1,0,0:0:0:0:
51,192,37447,1,0,0:0:0:0:
459,192,37563,1,0,0:0:0:0:
357,192,37563,1,0,0:0:0:0:
153,192,37679,1,0,0:0:0:0:
256,192,37679,1,0,0:0:0:0:
357,192,37794,1,0,0:0:0:0:
460,192,37794,1,0,0:0:0:0:
256,192,37910,1,0,0:0:0:0:
51,192,37910,1,0,0:0:0:0:
460,192,38026,1,0,0:0:0:0:
153,192,38026,1,0,0:0:0:0:
357,192,38142,1,0,0:0:0:0:
51,192,38142,1,0,0:0:0:0:
153,192,38258,1,0,0:0:0:0:
459,192,38258,1,0,0:0:0:0:
255,192,38258,1,0,0:0:0:0:
153,192,38622,1,0,0:0:0:0:
51,192,38622,1,0,0:0:0:0:
357,192,38622,1,0,0:0:0:0:
459,192,38933,1,0,0:0:0:0:
255,192,38933,1,0,0:0:0:0:
153,192,38933,1,0,0:0:0:0:
357,192,39290,1,0,0:0:0:0:
153,192,39290,1,0,0:0:0:0:
51,192,39290,1,0,0:0:0:0:
459,192,39614,1,0,0:0:0:0:
255,192,39614,1,0,0:0:0:0:
153,192,39614,1,0,0:0:0:0:
459,192,39874,1,0,0:0:0:0:
255,192,39874,1,0,0:0:0:0:
153,192,39874,1,0,0:0:0:0:
357,192,40105,1,0,0:0:0:0:
459,192,40105,1,0,0:0:0:0:
153,192,40105,1,0,0:0:0:0:
357,192,40468,1,0,0:0:0:0:
255,192,40468,1,0,0:0:0:0:
51,192,40468,1,0,0:0:0:0:
459,192,40779,1,0,0:0:0:0:
357,192,40779,1,0,0:0:0:0:
153,192,40779,1,0,0:0:0:0:
357,192,41137,1,0,0:0:0:0:
255,192,41137,1,0,0:0:0:0:
51,192,41137,1,0,0:0:0:0:
459,192,41464,1,0,0:0:0:0:
357,192,41464,1,0,0:0:0:0:
153,192,41464,1,0,0:0:0:0:
459,192,41720,1,0,0:0:0:0:
357,192,41720,1,0,0:0:0:0:
153,192,41720,1,0,0:0:0:0:
459,192,41950,1,0,0:0:0:0:
255,192,41950,1,0,0:0:0:0:
153,192,41950,1,0,0:0:0:0:
357,192,42313,1,0,0:0:0:0:
153,192,42313,1,0,0:0:0:0:
51,192,42313,1,0,0:0:0:0:
459,192,42624,1,0,0:0:0:0:
255,192,42624,1,0,0:0:0:0:
153,192,42624,1,0,0:0:0:0:
51,192,42981,1,0,0:0:0:0:
153,192,42981,1,0,0:0:0:0:
357,192,42981,1,0,0:0:0:0:
459,192,43305,1,0,0:0:0:0:
255,192,43305,1,0,0:0:0:0:
153,192,43305,1,0,0:0:0:0:
459,192,43565,1,0,0:0:0:0:
255,192,43565,1,0,0:0:0:0:
153,192,43565,1,0,0:0:0:0:
153,192,43795,1,0,0:0:0:0:
459,192,43795,1,0,0:0:0:0:
357,192,43795,1,0,0:0:0:0:
357,192,44130,1,0,0:0:0:0:
255,192,44130,1,0,0:0:0:0:
51,192,44130,1,0,0:0:0:0:
459,192,44469,1,0,0:0:0:0:
357,192,44469,1,0,0:0:0:0:
153,192,44469,1,0,0:0:0:0:
357,192,44826,1,0,0:0:0:0:
255,192,44826,1,0,0:0:0:0:
51,192,44826,1,0,0:0:0:0:
459,192,45153,1,0,0:0:0:0:
357,192,45153,1,0,0:0:0:0:
153,192,45153,1,0,0:0:0:0:
459,192,45403,1,0,0:0:0:0:
357,192,45403,1,0,0:0:0:0:
153,192,45403,1,0,0:0:0:0:
459,192,45628,1,0,0:0:0:0:
255,192,45628,1,0,0:0:0:0:
51,192,45628,1,0,0:0:0:0:
153,192,45743,1,0,0:0:0:0:
357,192,45858,1,0,0:0:0:0:
459,192,46089,1,0,0:0:0:0:
153,192,46089,1,0,0:0:0:0:
51,192,46089,1,0,0:0:0:0:
357,192,46320,1,0,0:0:0:0:
153,192,46435,1,0,0:0:0:0:
459,192,46551,1,0,0:0:0:0:
255,192,46551,1,0,0:0:0:0:
357,192,46666,1,0,0:0:0:0:
153,192,46781,1,0,0:0:0:0:
459,192,47012,1,0,0:0:0:0:
255,192,47012,1,0,0:0:0:0:
51,192,47012,1,0,0:0:0:0:
357,192,47243,1,0,0:0:0:0:
51,192,47358,1,0,0:0:0:0:
459,192,47474,1,0,0:0:0:0:
153,192,47474,1,0,0:0:0:0:
357,192,47589,1,0,0:0:0:0:
51,192,47704,1,0,0:0:0:0:
459,192,47935,1,0,0:0:0:0:
255,192,47935,1,0,0:0:0:0:
153,192,47935,1,0,0:0:0:0:
51,192,48166,1,0,0:0:0:0:
153,192,48281,1,0,0:0:0:0:
459,192,48397,1,0,0:0:0:0:
255,192,48397,1,0,0:0:0:0:
51,192,48512,1,0,0:0:0:0:
357,192,48628,1,0,0:0:0:0:
459,192,48858,1,0,0:0:0:0:
255,192,48858,1,0,0:0:0:0:
51,192,48858,1,0,0:0:0:0:
153,192,49089,1,0,0:0:0:0:
357,192,49204,1,0,0:0:0:0:
459,192,49320,1,0,0:0:0:0:
51,192,49320,1,0,0:0:0:0:
255,192,49435,1,0,0:0:0:0:
357,192,49551,1,0,0:0:0:0:
459,192,49781,1,0,0:0:0:0:
153,192,49781,1,0,0:0:0:0:
51,192,49781,1,0,0:0:0:0:
357,192,50012,1,0,0:0:0:0:
51,192,50128,1,0,0:0:0:0:
459,192,50243,1,0,0:0:0:0:
255,192,50243,1,0,0:0:0:0:
357,192,50358,1,0,0:0:0:0:
51,192,50474,1,0,0:0:0:0:
255,192,50704,1,0,0:0:0:0:
153,192,50704,1,0,0:0:0:0:
459,192,50704,1,0,0:0:0:0:
357,192,50935,1,0,0:0:0:0:
256,192,51051,1,0,0:0:0:0:
51,192,51166,1,0,0:0:0:0:
153,192,51166,1,8,0:0:0:0:
459,192,51280,1,8,0:0:0:0:
153,192,51395,1,8,0:0:0:0:
459,192,51509,1,8,0:0:0:0:
153,192,51624,1,8,0:0:0:0:
459,192,51725,1,8,0:0:0:0:
153,192,51845,1,8,0:0:0:0:
459,192,51965,1,8,0:0:0:0:
459,192,52085,1,8,0:0:0:0:
357,192,52085,1,0,0:0:0:0:
153,192,52202,1,8,0:0:0:0:
459,192,52319,1,8,0:0:0:0:
153,192,52436,1,8,0:0:0:0:
459,192,52553,1,0,0:0:0:0:
357,192,52615,1,0,0:0:0:0:
255,192,52673,1,0,0:0:0:0:
153,192,52731,1,0,0:0:0:0:
459,192,52788,1,0,0:0:0:0:
51,192,52788,1,0,0:0:0:0:
357,192,52887,1,0,0:0:0:0:
51,192,53028,1,0,0:0:0:0:
255,192,53028,1,0,0:0:0:0:
459,192,53028,1,0,0:0:0:0:
357,192,53143,1,0,0:0:0:0:
153,192,53143,1,0,0:0:0:0:
51,192,53258,1,0,0:0:0:0:
357,192,53489,1,0,0:0:0:0:
153,192,53489,1,0,0:0:0:0:
51,192,53720,1,0,0:0:0:0:
255,192,53720,1,0,0:0:0:0:
459,192,53835,1,0,0:0:0:0:
357,192,53835,1,0,0:0:0:0:
459,192,54066,1,0,0:0:0:0:
357,192,54066,1,0,0:0:0:0:
153,192,54181,1,0,0:0:0:0:
255,192,54297,1,0,0:0:0:0:
51,192,54297,1,0,0:0:0:0:
459,192,54412,1,0,0:0:0:0:
357,192,54412,1,0,0:0:0:0:
255,192,54528,1,0,0:0:0:0:
51,192,54528,1,0,0:0:0:0:
459,192,54643,1,0,0:0:0:0:
357,192,54643,1,0,0:0:0:0:
255,192,54758,1,0,0:0:0:0:
153,192,54874,1,0,0:0:0:0:
51,192,54874,1,0,0:0:0:0:
459,192,54989,1,0,0:0:0:0:
357,192,54989,1,0,0:0:0:0:
255,192,55104,1,0,0:0:0:0:
459,192,55335,1,0,0:0:0:0:
357,192,55335,1,0,0:0:0:0:
153,192,55566,1,0,0:0:0:0:
51,192,55566,1,0,0:0:0:0:
357,192,55681,1,0,0:0:0:0:
255,192,55681,1,0,0:0:0:0:
357,192,55912,1,0,0:0:0:0:
255,192,55912,1,0,0:0:0:0:
459,192,56028,1,0,0:0:0:0:
153,192,56143,1,0,0:0:0:0:
51,192,56143,1,0,0:0:0:0:
357,192,56258,1,0,0:0:0:0:
255,192,56258,1,0,0:0:0:0:
153,192,56374,1,0,0:0:0:0:
51,192,56374,1,0,0:0:0:0:
357,192,56489,1,0,0:0:0:0:
255,192,56489,1,0,0:0:0:0:
459,192,56604,1,0,0:0:0:0:
357,192,56720,1,0,0:0:0:0:
153,192,56720,1,0,0:0:0:0:
459,192,56835,1,0,0:0:0:0:
255,192,56835,1,0,0:0:0:0:
357,192,56951,1,0,0:0:0:0:
255,192,57181,1,0,0:0:0:0:
51,192,57181,1,0,0:0:0:0:
255,192,57412,1,0,0:0:0:0:
51,192,57412,1,0,0:0:0:0:
357,192,57528,1,0,0:0:0:0:
153,192,57528,1,0,0:0:0:0:
357,192,57758,1,0,0:0:0:0:
153,192,57758,1,0,0:0:0:0:
459,192,57874,1,0,0:0:0:0:
255,192,57989,1,0,0:0:0:0:
51,192,57989,1,0,0:0:0:0:
357,192,58104,1,0,0:0:0:0:
153,192,58104,1,0,0:0:0:0:
255,192,58220,1,0,0:0:0:0:
51,192,58220,1,0,0:0:0:0:
357,192,58335,1,0,0:0:0:0:
153,192,58335,1,0,0:0:0:0:
51,192,58451,1,0,0:0:0:0:
357,192,58566,1,0,0:0:0:0:
153,192,58566,1,0,0:0:0:0:
459,192,58681,1,0,0:0:0:0:
255,192,58681,1,0,0:0:0:0:
357,192,58797,1,0,0:0:0:0:
153,192,58912,1,0,0:0:0:0:
459,192,59028,1,0,0:0:0:0:
255,192,59028,1,0,0:0:0:0:
255,192,59258,1,0,0:0:0:0:
51,192,59258,1,0,0:0:0:0:
357,192,59374,1,0,0:0:0:0:
153,192,59374,1,0,0:0:0:0:
357,192,59604,1,0,0:0:0:0:
153,192,59604,1,0,0:0:0:0:
459,192,59720,1,0,0:0:0:0:
255,192,59835,1,0,0:0:0:0:
51,192,59835,1,0,0:0:0:0:
357,192,59951,1,0,0:0:0:0:
153,192,59951,1,0,0:0:0:0:
255,192,60066,1,0,0:0:0:0:
51,192,60066,1,0,0:0:0:0:
357,192,60181,1,0,0:0:0:0:
153,192,60181,1,0,0:0:0:0:
459,192,60412,1,0,0:0:0:0:
255,192,60412,1,0,0:0:0:0:
51,192,60412,1,0,0:0:0:0:
357,192,60528,1,0,0:0:0:0:
153,192,60528,1,0,0:0:0:0:
51,192,60643,1,0,0:0:0:0:
357,192,60874,1,0,0:0:0:0:
153,192,60874,1,0,0:0:0:0:
255,192,61104,1,0,0:0:0:0:
51,192,61104,1,0,0:0:0:0:
459,192,61220,1,0,0:0:0:0:
357,192,61220,1,0,0:0:0:0:
459,192,61451,1,0,0:0:0:0:
357,192,61451,1,0,0:0:0:0:
153,192,61566,1,0,0:0:0:0:
255,192,61681,1,0,0:0:0:0:
51,192,61681,1,0,0:0:0:0:
459,192,61797,1,0,0:0:0:0:
357,192,61797,1,0,0:0:0:0:
255,192,61912,1,0,0:0:0:0:
51,192,61912,1,0,0:0:0:0:
459,192,62028,1,0,0:0:0:0:
357,192,62028,1,0,0:0:0:0:
255,192,62143,1,0,0:0:0:0:
153,192,62258,1,0,0:0:0:0:
51,192,62258,1,0,0:0:0:0:
459,192,62374,1,0,0:0:0:0:
357,192,62374,1,0,0:0:0:0:
255,192,62489,1,0,0:0:0:0:
459,192,62720,1,0,0:0:0:0:
357,192,62720,1,0,0:0:0:0:
153,192,62951,1,0,0:0:0:0:
51,192,62951,1,0,0:0:0:0:
357,192,63066,1,0,0:0:0:0:
255,192,63066,1,0,0:0:0:0:
357,192,63297,1,0,0:0:0:0:
255,192,63297,1,0,0:0:0:0:
459,192,63412,1,0,0:0:0:0:
153,192,63528,1,0,0:0:0:0:
51,192,63528,1,0,0:0:0:0:
357,192,63643,1,0,0:0:0:0:
255,192,63643,1,0,0:0:0:0:
153,192,63758,1,0,0:0:0:0:
51,192,63758,1,0,0:0:0:0:
357,192,63874,1,0,0:0:0:0:
255,192,63874,1,0,0:0:0:0:
459,192,63989,1,0,0:0:0:0:
357,192,64104,1,0,0:0:0:0:
153,192,64104,1,0,0:0:0:0:
459,192,64220,1,0,0:0:0:0:
255,192,64220,1,0,0:0:0:0:
51,192,64335,1,0,0:0:0:0:
357,192,64566,1,0,0:0:0:0:
255,192,64566,1,0,0:0:0:0:
255,192,64797,1,0,0:0:0:0:
51,192,64797,1,0,0:0:0:0:
357,192,64912,1,0,0:0:0:0:
153,192,64912,1,0,0:0:0:0:
357,192,65143,1,0,0:0:0:0:
153,192,65143,1,0,0:0:0:0:
459,192,65258,1,0,0:0:0:0:
255,192,65374,1,0,0:0:0:0:
51,192,65374,1,0,0:0:0:0:
357,192,65489,1,0,0:0:0:0:
153,192,65489,1,0,0:0:0:0:
255,192,65604,1,0,0:0:0:0:
51,192,65604,1,0,0:0:0:0:
357,192,65720,1,0,0:0:0:0:
153,192,65720,1,0,0:0:0:0:
51,192,65835,1,0,0:0:0:0:
357,192,65951,1,0,0:0:0:0:
153,192,65951,1,0,0:0:0:0:
459,192,66066,1,0,0:0:0:0:
255,192,66066,1,0,0:0:0:0:
357,192,66181,1,0,0:0:0:0:
153,192,66297,1,0,0:0:0:0:
459,192,66412,1,0,0:0:0:0:
255,192,66412,1,0,0:0:0:0:
255,192,66643,1,0,0:0:0:0:
51,192,66643,1,0,0:0:0:0:
357,192,66758,1,0,0:0:0:0:
153,192,66758,1,0,0:0:0:0:
357,192,66989,1,0,0:0:0:0:
153,192,66989,1,0,0:0:0:0:
459,192,67104,1,0,0:0:0:0:
255,192,67220,1,0,0:0:0:0:
51,192,67220,1,0,0:0:0:0:
357,192,67335,1,0,0:0:0:0:
153,192,67335,1,0,0:0:0:0:
255,192,67451,1,0,0:0:0:0:
51,192,67451,1,0,0:0:0:0:
357,192,67566,1,0,0:0:0:0:
153,192,67566,1,0,0:0:0:0:
459,192,67797,128,0,68258:0:0:0:0:
255,192,67797,1,0,0:0:0:0:
51,192,67797,128,0,68258:0:0:0:0:
153,192,68143,1,0,0:0:0:0:
357,192,68258,1,0,0:0:0:0:
357,192,68489,1,0,0:0:0:0:
153,192,68604,1,0,0:0:0:0:
459,192,68720,1,0,0:0:0:0:
153,192,69066,1,0,0:0:0:0:
459,192,69181,1,0,0:0:0:0:
459,192,69412,1,0,0:0:0:0:
153,192,69528,1,0,0:0:0:0:
357,192,69643,128,0,70335:0:0:0:0:
51,192,69643,1,0,0:0:0:0:
459,192,70104,128,0,70335:0:0:0:0:
153,192,70104,1,0,0:0:0:0:
255,192,70335,128,0,71258:0:0:0:0:
51,192,70335,128,0,71028:0:0:0:0:
459,192,71028,1,0,0:0:0:0:
153,192,71028,128,0,71258:0:0:0:0:
51,192,71258,128,0,71489:0:0:0:0:
459,192,71489,128,0,71951:0:0:0:0:
255,192,71489,1,0,0:0:0:0:
153,192,71835,1,0,0:0:0:0:
357,192,71951,1,0,0:0:0:0:
357,192,72181,1,0,0:0:0:0:
153,192,72297,1,0,0:0:0:0:
459,192,72412,1,0,0:0:0:0:
153,192,72758,1,0,0:0:0:0:
459,192,72874,1,0,0:0:0:0:
459,192,73104,1,0,0:0:0:0:
153,192,73162,1,0,0:0:0:0:
255,192,73249,1,0,0:0:0:0:
357,192,73335,1,0,0:0:0:0:
51,192,73335,128,0,74028:0:0:0:0:
255,192,73566,1,0,0:0:0:0:
459,192,73797,128,0,74028:0:0:0:0:
153,192,73797,1,0,0:0:0:0:
357,192,74028,128,0,74951:0:0:0:0:
255,192,74028,128,0,74720:0:0:0:0:
153,192,74720,128,0,74951:0:0:0:0:
255,192,74951,128,0,75181:0:0:0:0:
51,192,75181,1,0,0:0:0:0:
459,192,75239,1,0,0:0:0:0:
