osu file format v14

[General]
AudioFilename: audio.mp3
AudioLeadIn: 0
PreviewTime: -1
Countdown: 1
SampleSet: None
StackLeniency: 0.7
Mode: 0
LetterboxInBreaks: 0
WidescreenStoryboard: 0

[Editor]
DistanceSpacing: 1
BeatDivisor: 2
GridSize: 4
TimelineZoom: 1

[Metadata]
Title:piace il cazzo vero
TitleUnicode:piace il cazzo vero
Artist:DJ kevincela ft. SpazzaBoi17
ArtistUnicode:DJ kevincela ft. SpazzaBoi17
Creator:DT-sama
Version:a Kayne
Source:Discord
Tags:si legge kevincela non kevinsela
BeatmapID:1209414
BeatmapSetID:570576

[Difficulty]
HPDrainRate:6
CircleSize:4
OverallDifficulty:8.7
ApproachRate:9.3
SliderMultiplier:2.8
SliderTickRate:1

[Events]
//Background and Video events
//Break Periods
//Storyboard Layer 0 (Background)
//Storyboard Layer 1 (Fail)
//Storyboard Layer 2 (Pass)
//Storyboard Layer 3 (Foreground)
//Storyboard Sound Samples

[TimingPoints]
755,-200,4,1,0,100,0,0
755.219758064516,480,4,1,0,100,1,0
4835,480,4,1,0,100,1,0
16835,-50,4,1,0,100,0,0
21755,-133.333333333333,4,1,0,100,0,0
23915,-50,4,1,0,100,0,0
24635,240,4,1,0,100,1,0
24635,-50,4,1,0,100,0,0
26795,-100,4,1,0,100,0,0
27995,-50,4,1,0,100,0,0
32315,120,4,1,0,100,1,0
32315,-50,4,1,0,100,0,0
41435,60,4,1,0,100,1,0
41435,-50,4,1,0,100,0,0
44555,120,4,1,0,100,1,0

[HitObjects]
164,236,755,6,0,B|116:304|144:340|144:340|212:356|252:276|252:276|300:352|364:360|364:360|408:304|320:228|320:228|324:100|324:100|388:68|260:36|260:36|156:68|196:84|196:84|192:240,1,1026.66666666667
328,236,2675,1,0,0:0:0:0:
193,198,4595,5,0,0:0:0:0:
404,300,4835,5,0,0:0:0:0:
404,300,5795,5,0,0:0:0:0:
256,312,6515,5,0,0:0:0:0:
404,300,6755,5,0,0:0:0:0:
404,300,7715,5,0,0:0:0:0:
404,300,8675,5,0,0:0:0:0:
380,176,9275,2,0,P|388:140|424:108,1,70
448,52,9515,2,0,P|488:116|416:192,1,140
320,268,9995,1,0,0:0:0:0:
216,116,10235,2,0,L|176:48,2,70
320,268,10595,5,0,0:0:0:0:
120,312,10755,2,0,P|144:236|212:192,1,140
324,137,11315,2,0,P|343:213|306:282,1,140
132,136,12035,5,0,0:0:0:0:
319,267,12275,1,0,0:0:0:0:
228,316,12515,2,0,P|224:228|268:184,1,140
320,148,12875,2,0,L|344:92,1,35
320,32,13235,2,0,P|400:72|424:136,2,140
192,148,13955,5,0,0:0:0:0:
348,320,14195,1,0,0:0:0:0:
256,192,14255,12,0,14615,0:0:0:0:
136,304,14675,6,0,P|144:176|176:128,1,140
147,168,14915,1,0,0:0:0:0:
300,220,15155,2,0,L|336:148,1,70
288,76,15395,2,0,P|240:156|400:96,1,420
416,122,16115,5,0,0:0:0:0:
416,122,16355,1,0,0:0:0:0:
256,288,16595,5,0,0:0:0:0:
424,132,16835,2,0,P|312:52|268:196,1,280
256,288,17315,2,0,P|404:332|496:252,1,280
332,128,17795,1,0,0:0:0:0:
246,144,17915,2,0,L|106:240,1,140
256,288,18275,6,0,P|346:196|237:148,1,280
152,136,18755,2,0,P|180:212|268:228,1,140
348,216,18995,1,0,0:0:0:0:
344,48,19235,2,0,L|240:152,1,140
136,272,19475,2,0,P|260:336|364:296,1,140
374,272,19715,2,0,P|250:336|146:296,1,140
244,148,19955,2,0,B|245:236|245:236|244:152,1,140
128,60,20195,6,0,P|252:20|404:80,1,280
128,220,20675,2,0,B|252:336|252:336|344:296|288:192,1,280
400,220,21155,2,0,B|276:104|276:104|184:144|240:248,1,280
364,352,21755,6,0,P|280:356|216:264,1,157.500006008148
176,221,22235,6,0,P|252:215|312:264,1,157.500006008148
228,309,22715,6,0,P|151:315|92:266,1,157.500006008148
40,179,23195,6,0,P|116:172|175:221,1,157.500006008148
175,221,23555,1,0,0:0:0:0:
148,208,23915,6,0,B|204:248|204:248|256:196,1,140
244,91,24155,2,0,B|204:147|204:147|256:199,1,140
360,187,24395,2,0,B|304:147|304:147|252:199,1,140
264,304,24635,2,0,B|304:248|304:248|252:196,1,140
56,72,24875,6,0,P|40:268|184:344,1,280
234,291,25115,6,0,B|131:188|131:188|87:316,1,280
232,192,25355,6,0,B|312:220|312:220|236:288|236:288|392:344,1,280
320,212,25595,6,0,B|396:175|396:175|390:277|390:277|540:206,1,280
512,84,25835,6,0,P|348:80|508:132,2,420
248,320,26315,1,0,0:0:0:0:
164,192,26435,1,0,0:0:0:0:
206,64,26555,2,0,P|354:144|222:320,1,420
428,360,26795,6,0,P|300:328|200:128,1,280
303,2,27035,2,0,P|317:136|145:208,2,280
210,216,27275,1,0,0:0:0:0:
303,2,27515,1,0,0:0:0:0:
64,132,27635,2,0,L|128:280,1,140
424,204,27995,6,0,B|412:88|412:88|436:292|436:292|424:188|424:188|336:196|336:196|516:176|516:176|368:192,1,840
373,191,28475,6,0,P|160:108|-32:332,1,560
256,336,28955,6,0,B|216:180|264:96|264:96|428:112,1,280
360,44,29195,1,0,0:0:0:0:
32,348,29435,2,0,P|108:360|196:316,1,140
92,272,29555,1,0,0:0:0:0:
166,339,29675,1,0,0:0:0:0:
248,264,29795,1,0,0:0:0:0:
332,344,29915,2,0,P|384:184|156:280,2,560
154,275,30155,1,0,0:0:0:0:
332,344,30395,1,0,0:0:0:0:
256,192,30515,12,0,31295,0:0:0:0:
472,168,30875,5,0,0:0:0:0:
64,172,31235,1,0,0:0:0:0:
220,324,31415,2,0,P|336:108|128:268,1,700
128,124,31655,1,0,0:0:0:0:
120,255,31835,1,0,0:0:0:0:
256,192,32075,12,0,32315,0:0:0:0:
72,228,32315,6,0,P|304:320|64:144,1,840
124,140,32615,5,0,0:0:0:0:
192,208,32735,1,0,0:0:0:0:
256,144,32795,1,0,0:0:0:0:
192,80,32855,2,0,P|364:356|424:92,1,560
420,88,33095,2,0,L|88:296,1,280
348,328,33335,2,0,L|272:8,1,280
88,240,33575,1,0,0:0:0:0:
140,324,33635,1,0,0:0:0:0:
180,180,33695,1,0,0:0:0:0:
240,280,33755,1,0,0:0:0:0:
280,172,33815,2,0,P|488:348|424:352,1,560
480,336,34115,6,0,P|36:236|72:156,1,560
60,48,34355,2,0,P|416:52|376:152,1,560
156,224,34595,5,0,0:0:0:0:
236,344,34655,1,0,0:0:0:0:
352,264,34715,1,0,0:0:0:0:
280,144,34775,1,0,0:0:0:0:
0,248,34835,2,0,P|-406:177|-437:383,1,560
28,360,35075,6,0,L|-167:592,1,280
484,24,35315,6,0,L|680:-208,1,280
488,296,35555,5,0,0:0:0:0:
272,128,35675,1,0,0:0:0:0:
84,312,35795,2,0,P|560:192|196:376,1,1680
472,296,35915,1,0,0:0:0:0:
512,60,36035,5,0,0:0:0:0:
136,176,36335,6,0,P|356:308|472:52,1,560
380,112,36575,1,0,0:0:0:0:
364,253,36695,1,0,0:0:0:0:
148,76,36815,2,0,L|476:344,1,280
142,324,36995,6,0,P|426:324|450:28,1,560
52,57,37175,2,0,P|368:81|316:309,1,560
136,204,37415,5,0,0:0:0:0:
252,148,37535,1,0,0:0:0:0:
248,316,37655,1,0,0:0:0:0:
0,84,37775,2,0,P|-104:360|48:264,1,560
372,84,38075,6,0,L|160:300,1,280
28,228,38195,2,0,L|400:160,1,280
408,196,38315,6,0,L|109:246,1,280
45,110,38435,2,0,L|385:273,1,280
409,233,38555,6,0,L|113:167,1,280
104,17,38675,2,0,L|359:297,1,280
333,323,38795,6,0,L|132:96,1,280
213,0,38915,2,0,L|255:345,1,280
256,192,39035,12,0,39995,0:0:0:0:
256,192,39515,12,0,39995,0:0:0:0:
72,180,40115,6,0,L|404:304,1,280
104,304,40235,2,0,L|340:80,1,280
164,148,40355,2,0,L|496:272,1,280
196,272,40475,2,0,L|432:48,1,280
440,180,40655,6,0,L|108:304,1,280
408,304,40835,2,0,L|172:80,1,280
264,148,41015,2,0,L|-68:272,1,280
232,272,41195,2,0,L|-4:48,1,280
140,328,41435,2,0,P|640:408|112:132,1,1680
476,24,41855,2,0,L|4:376,1,560
24,32,42035,2,0,L|512:368,1,560
36,24,42215,2,0,L|508:376,1,560
488,32,42395,2,0,L|0:368,1,560
24,216,42575,6,0,B|552:8|292:316,1,560
116,168,42875,1,0,0:0:0:0:
172,272,42935,1,0,0:0:0:0:
348,112,43055,1,0,0:0:0:0:
288,264,43115,1,0,0:0:0:0:
120,64,43235,1,0,0:0:0:0:
328,196,43295,1,0,0:0:0:0:
436,48,43595,2,0,B|340:344|-28:384|-28:384|88:112|264:72|264:72|356:368,1,1120
496,348,43835,6,0,B|224:280|224:280|92:168|92:168|84:80|84:80|180:32|180:32|376:56|376:56|344:160|344:160|264:200|264:200|248:164|248:164|280:136,4,1120
116,144,44555,2,0,L|216:280,1,140
352,232,44795,1,0,0:0:0:0:
428,60,44855,1,0,0:0:0:0:
244,80,45035,2,0,P|196:208|312:344,1,280
336,328,45215,1,0,0:0:0:0:
404,304,45275,2,0,P|276:152|136:276,1,420
192,304,45575,1,0,0:0:0:0:
264,324,45695,2,0,L|248:24,1,280
76,148,45995,6,0,P|412:248|444:56,3,560
76,148,46475,1,0,0:0:0:0:
260,316,46595,1,0,0:0:0:0:
36,356,46955,6,0,B|112:16|112:16|260:364|260:364|368:28|368:28|444:340,1,1400
404,4,47915,2,0,P|460:252|196:232,1,560
68,308,48155,2,0,P|252:64|296:120,1,560
292,132,48515,6,0,L|215:291,1,140
64,120,48755,6,0,P|144:276|120:104,1,420
128,216,48995,2,0,L|224:360,1,140
64,120,49175,6,0,P|144:276|120:104,1,420
128,216,49415,2,0,L|224:360,1,140
448,120,49835,6,0,P|368:276|392:104,1,420
384,216,50075,2,0,L|288:360,1,140
88,72,50315,6,0,P|92:232|184:336,1,280
408,104,50795,6,0,B|300:216|300:216|188:108|188:108|160:320|160:320|28:132,1,700
59,176,51275,1,0,0:0:0:0:
40,332,51755,6,0,L|356:136,1,280
396,312,51995,2,0,L|160:72,1,280
120,272,52235,2,0,P|316:300|364:148,1,280
384,156,52475,2,0,L|220:20,1,140
64,104,52775,6,0,P|168:324|100:40,1,980
336,136,53015,6,0,P|232:356|300:72,1,980
224,96,53315,6,0,P|312:268|332:52,1,560
432,364,54155,5,0,0:0:0:0:
432,364,54275,1,0,0:0:0:0:
432,344,54395,1,0,0:0:0:0:
420,308,54755,1,0,0:0:0:0:
68,48,55115,5,0,0:0:0:0:
256,192,55235,12,0,55595,0:0:0:0:
60,80,55955,6,0,B|132:280|132:280|252:88|252:88|340:352|456:152,1,700
384,0,56555,6,0,B|300:188|300:188|360:224|420:212|420:212|444:144|256:24|160:192|160:192|76:-4,2,840
384,0,57275,1,0,0:0:0:0:
116,384,57635,6,0,B|160:180|160:180|56:216|32:276|32:276|56:284|248:280|248:280|276:204|364:220|364:220|364:288|424:288,1,700
329,217,58475,6,0,B|105:165|80:256|80:256|104:312|249:369|249:369|201:169|329:161,2,700
324,212,59135,1,0,0:0:0:0:
112,56,59435,1,0,0:0:0:0:
112,56,59495,6,0,B|208:316|132:32|-12:312|-8:308|440:128|440:128|136:132|128:164|212:228|316:220|12:68|492:120|236:328|184:120|416:56|508:224|400:312|224:280|160:168|264:76|520:84|452:316|60:304|72:24|348:12|496:240|188:368|36:144|272:8|516:136|388:352|80:228|264:40|536:156|360:324|64:176|152:20|496:256|264:108|-56:152|244:380|480:124|192:24|-4:248|400:244|328:-40|40:96|192:336|420:124|64:32|160:280|468:16|-52:40|220:284|452:40|68:-60|16:228|384:200|428:212|80:64|72:60|364:240|364:240|376:0|368:8|128:168|176:236|484:88|432:36|188:80|168:272|400:212,1,1960
353,220,60395,1,0,0:0:0:0:
192,328,60515,6,0,B|288:96|432:280|432:280|328:272,1,420
100,120,60755,2,0,B|408:76|404:76|164:280|68:176|188:328|188:328|344:132,1,700
292,197,61115,1,0,0:0:0:0:
448,72,61355,5,0,0:0:0:0:
80,304,61475,2,0,B|396:248|284:72|284:72|496:288|496:288|444:128,1,840
288,72,61655,1,0,0:0:0:0:
432,332,61955,6,0,P|184:164|364:72,1,560
396,256,62375,2,0,L|88:88,1,280
204,320,62675,2,0,L|284:144,1,140
328,315,63035,2,0,L|252:175,1,140
240,56,63275,2,0,P|392:276|192:308,1,560
204,312,64235,5,0,0:0:0:0:
204,312,64955,5,0,0:0:0:0:
204,312,65435,5,0,0:0:0:0:
204,312,66155,5,0,0:0:0:0:
424,148,66635,5,0,0:0:0:0:
328,88,66695,1,0,0:0:0:0:
420,168,66755,5,0,0:0:0:0:
280,160,66815,1,0,0:0:0:0:
416,192,66875,5,0,0:0:0:0:
268,240,66935,1,0,0:0:0:0:
420,216,66995,5,0,0:0:0:0:
280,328,67055,1,0,0:0:0:0:
496,192,67115,5,0,0:0:0:0:
96,88,67355,6,0,P|84:296|200:240,1,420
256,192,68555,12,4,74315,0:0:0:0:
60,104,74915,6,0,P|-40:292|124:288,1,420
136,324,75155,6,0,L|144:128,1,140
140,68,75335,1,0,0:0:0:0:
176,316,75455,2,0,B|232:192|232:192|292:324,1,280
456,192,75635,2,0,P|420:348|492:256,1,420
84,228,77375,2,0,B|204:316|204:316|192:344,1,140
84,320,77435,2,0,L|208:192,1,140
328,212,77555,6,0,P|240:324|340:300,1,280
348,336,77675,6,0,L|336:32,1,280
436,344,77915,1,0,0:0:0:0:
