osu file format v14

[General]
AudioFilename: audio.mp3
AudioLeadIn: 0
PreviewTime: 33833
Countdown: 0
SampleSet: Soft
StackLeniency: 0.7
Mode: 0
LetterboxInBreaks: 0
WidescreenStoryboard: 1

[Editor]
DistanceSpacing: 1
BeatDivisor: 4
GridSize: 32
TimelineZoom: 4.899997

[Metadata]
Title:D.A.N.C.E.!
TitleUnicode:D.A.N.C.E.!
Artist:DJ Yoshitaka feat. Hoshino Kanako
ArtistUnicode:DJ Yoshitaka feat. 星野奏子
Creator:Muya
Version:Hyper
Source:beatmania IIDX 11 RED
Tags:DANCE J-POP pop jpop BEMANI JAPANESE RAP 西村 宜隆 Nishimura Yoshitaka
BeatmapID:3041450
BeatmapSetID:1481700

[Difficulty]
HPDrainRate:4
CircleSize:4
OverallDifficulty:7
ApproachRate:7
SliderMultiplier:1.8
SliderTickRate:1

[Events]
//Background and Video events
0,0,"bg.jpg",0,0
//Break Periods
//Storyboard Layer 0 (Background)
//Storyboard Layer 1 (Fail)
//Storyboard Layer 2 (Pass)
//Storyboard Layer 3 (Foreground)
//Storyboard Layer 4 (Overlay)
//Storyboard Sound Samples

[TimingPoints]
859,517.241379310345,4,2,1,80,1,0
23617,-125,4,2,1,20,0,0
24393,-125,4,2,1,30,0,0
25428,-125,4,2,1,80,0,0
25686,-100,4,2,1,80,0,0
31117,-100,4,2,1,40,0,0
31893,-100,4,2,1,80,0,0
67065,-83.3333333333333,4,2,1,80,0,1
83617,-100,4,2,1,80,0,0
89824,-125,4,2,1,20,0,0
90600,-125,4,2,1,30,0,0
91634,-125,4,2,1,80,0,0
91893,-100,4,2,1,80,0,0
97324,-100,4,2,1,40,0,0
98100,-100,4,2,1,80,0,0
100169,-125,4,2,1,40,0,0
103790,-125,4,2,1,80,0,0
104307,-125,4,2,0,5,0,0

[Colours]
Combo1 : 255,88,100
Combo2 : 255,94,55
Combo3 : 173,255,95
Combo4 : 17,254,176

[HitObjects]
48,64,600,6,0,L|4:68,2,45,2|0|2,0:0|0:0|0:0,0:0:0:0:
124,16,1117,1,0,0:0:0:0:
172,92,1376,2,0,P|220:116|260:124,1,90,2|0,0:0|0:0,0:0:0:0:
324,68,1893,2,0,P|380:52|468:44,1,135,2|2,0:0|0:0,0:0:0:0:
504,272,3703,6,0,P|468:244|416:252,1,90,0|2,0:0|0:0,0:0:0:0:
412,256,4091,1,2,0:0:0:0:
288,264,4350,2,0,P|276:312|268:380,2,90,0|2|2,0:0|0:0|0:0,0:0:0:0:
228,144,5255,5,2,0:0:0:0:
228,144,5514,1,2,0:0:0:0:
308,100,5772,1,0,0:0:0:0:
256,24,6031,2,0,P|188:24|108:36,2,135,2|2|2,0:0|0:0|0:0,0:0:0:0:
308,100,7065,1,0,0:0:0:0:
248,328,8876,6,0,L|256:384,2,45,0|0|6,3:0|0:0|0:0,0:0:0:0:
192,256,9393,1,0,0:0:0:0:
280,228,9652,2,0,P|288:192|292:136,1,90,10|0,0:0|0:0,0:0:0:0:
240,64,10169,2,0,P|180:76|88:76,1,135,2|2,0:0|0:0,0:0:0:0:
0,324,11979,6,0,P|36:296|96:300,1,90,0|2,0:0|0:0,0:0:0:0:
96,300,12367,1,2,0:0:0:0:
164,356,12626,2,0,P|208:372|256:384,2,90,0|2|2,0:0|0:0|0:0,0:0:0:0:
140,228,13531,5,2,0:0:0:0:
140,228,13790,1,2,0:0:0:0:
220,272,14048,1,0,0:0:0:0:
300,228,14307,2,0,P|372:212|456:216,1,135,2|2,0:0|0:0,0:0:0:0:
499,109,15083,6,0,P|455:105|411:81,1,90,0|0,3:0|0:0,0:0:0:0:
364,8,15600,1,0,3:0:0:0:
276,32,15859,1,8,0:0:0:0:
271,123,16117,1,0,3:0:0:0:
356,155,16376,2,0,P|388:236|408:344,1,180,0|8,3:0|3:2,0:0:0:0:
406,326,17152,1,0,3:0:0:0:
320,272,17410,6,0,P|260:272|200:320,1,135,4|0,3:2|0:0,0:0:0:0:
192,332,17927,2,0,P|152:352|100:356,1,90,8|0,0:0|0:0,0:0:0:0:
28,312,18445,6,0,P|4:256|16:184,1,135,0|0,3:2|0:0,0:0:0:0:
28,172,18962,2,0,P|76:184|140:180,1,90,8|0,0:0|0:0,0:0:0:0:
184,124,19479,6,0,P|248:120|296:180,1,135,0|0,3:0|0:0,0:0:0:0:
296,188,19996,2,0,P|280:232|272:276,1,90,8|0,0:0|0:0,0:0:0:0:
328,348,20514,6,0,P|388:360|452:320,1,135
456,308,21031,2,0,P|448:264|448:212,1,90,8|0,0:0|3:0,0:0:0:0:
456,204,21419,6,0,P|472:140|468:72,1,135,0|10,0:0|0:0,0:0:0:0:
467,71,22065,1,10,0:0:0:0:
404,8,22324,1,0,0:0:0:0:
328,60,22583,2,0,P|312:124|316:192,1,135,2|2,3:2|0:0,0:0:0:0:
248,360,23617,6,0,P|148:376|72:332,1,192
64,324,24393,2,0,P|52:188|152:84,1,288,0|0,0:0|3:0,0:0:0:0:
228,8,25686,6,0,P|272:56|256:128,1,135,4|0,3:2|0:0,0:0:0:0:
244,128,26203,2,0,P|224:176|216:216,1,90,8|0,0:0|0:0,0:0:0:0:
168,292,26721,6,0,P|236:300|316:316,1,135,0|0,3:0|0:0,0:0:0:0:
312,328,27238,2,0,P|356:328|408:296,1,90,8|0,0:0|0:0,0:0:0:0:
483,332,27755,6,0,P|479:266|430:221,1,135,0|0,3:0|0:0,0:0:0:0:
420,204,28272,2,0,P|424:152|432:112,1,90,8|0,0:0|0:0,0:0:0:0:
480,40,28790,6,0,P|404:36|328:8,1,135
332,12,29307,2,0,P|284:24|244:52,1,90,8|0,0:0|3:0,0:0:0:0:
240,60,29695,6,0,P|240:136|284:180,1,135,0|8,0:0|0:0,0:0:0:0:
277,176,30341,1,8,0:0:0:0:
360,140,30600,1,0,0:0:0:0:
424,204,30859,1,0,3:0:0:0:
392,288,31117,6,0,P|352:300|300:296,1,90
104,352,31893,6,0,P|128:312|136:256,1,90,8|0,0:0|3:0,0:0:0:0:
104,184,32410,1,8,0:0:0:0:
192,200,32669,2,0,P|280:168|328:96,1,180,0|0,3:0|3:0,0:0:0:0:
352,16,33445,1,8,0:0:0:0:
72,20,33962,6,0,P|48:64|48:112,1,90,4|0,3:2|0:0,0:0:0:0:
104,172,34479,2,0,P|176:152|252:152,1,135,8|0,0:0|0:0,0:0:0:0:
256,156,34996,1,0,3:0:0:0:
256,156,35255,1,0,3:0:0:0:
336,196,35514,2,0,P|380:204|428:204,1,90,8|0,0:0|3:0,0:0:0:0:
504,252,36031,6,0,P|504:324|452:360,1,135,0|0,3:0|0:0,0:0:0:0:
440,356,36548,1,8,3:2:0:0:
380,288,36807,2,0,P|288:280|208:312,1,180,0|0,3:0|3:0,0:0:0:0:
144,376,37583,1,8,0:0:0:0:
64,336,37841,1,0,3:0:0:0:
76,248,38100,6,0,P|108:216|156:208,1,90,0|0,3:0|0:0,0:0:0:0:
224,156,38617,2,0,P|279:192|352:196,1,135,8|0,0:0|0:0,0:0:0:0:
368,196,39134,1,0,3:0:0:0:
368,196,39393,1,0,3:0:0:0:
448,156,39652,2,0,P|460:108|464:68,1,90,8|0,0:0|3:0,0:0:0:0:
396,8,40169,6,0,P|328:8|284:56,1,135,0|0,3:0|0:0,0:0:0:0:
280,72,40686,1,8,0:0:0:0:
368,92,40945,2,0,P|400:172|412:264,1,180,0|0,3:0|3:0,0:0:0:0:
352,332,41721,1,8,0:0:0:0:
324,248,41979,1,0,3:0:0:0:
236,224,42238,6,0,P|204:256|196:304,1,90,0|0,3:0|0:0,0:0:0:0:
128,360,42755,2,0,P|56:348|16:300,1,135,8|0,0:0|0:0,0:0:0:0:
16,288,43272,1,0,3:0:0:0:
16,288,43531,1,0,3:0:0:0:
76,224,43790,2,0,P|88:184|96:136,1,90,8|0,0:0|3:0,0:0:0:0:
76,48,44307,6,0,P|116:68|204:80,1,135,0|0,3:0|0:0,0:0:0:0:
224,76,44824,1,8,0:0:0:0:
308,44,45083,2,0,P|316:136|272:212,1,180,0|0,3:0|3:0,0:0:0:0:
200,260,45859,1,8,0:0:0:0:
212,348,46117,1,0,3:0:0:0:
296,376,46376,6,0,P|344:372|388:352,1,90,2|0,3:2|0:0,0:0:0:0:
456,304,46893,2,0,P|432:244|424:172,1,135
432,160,47410,1,0,0:0:0:0:
432,160,47669,1,0,0:0:0:0:
352,116,47928,2,0,P|304:120|260:140,1,90,10|0,0:2|3:0,0:0:0:0:
136,76,48445,6,0,P|156:119|161:167,1,90,8|0,0:0|3:0,0:0:0:0:
165,303,48962,2,0,P|192:263|231:235,1,90,8|0,0:0|3:0,0:0:0:0:
316,248,49479,1,0,3:0:0:0:
348,163,49738,2,0,P|303:159|261:142,1,90,0|8,3:0|0:0,0:0:0:0:
212,112,50169,1,8,0:0:0:0:
204,104,50255,1,0,3:0:0:0:
156,28,50514,6,0,P|64:24|16:104,1,180,4|8,3:2|0:0,0:0:0:0:
88,148,51290,2,0,P|100:208|104:252,1,90,0|0,0:0|3:0,0:0:0:0:
103,236,51807,1,0,3:0:0:0:
164,348,52065,2,0,P|176:304|196:264,1,90,8|0,0:0|3:0,0:0:0:0:
180,156,52583,6,0,P|276:152|336:204,1,180,0|8,3:0|0:0,0:0:0:0:
472,32,53359,2,0,P|408:84|304:68,1,180,0|0,3:0|3:0,0:0:0:0:
412,156,54134,2,0,P|424:196|432:252,1,90,8|0,0:0|3:0,0:0:0:0:
360,304,54652,6,0,P|300:292|248:236,1,135,0|0,3:0|0:0,0:0:0:0:
244,224,55169,2,0,P|215:312|139:352,1,180,8|0,0:0|3:0,0:0:0:0:
141,351,55945,1,0,3:0:0:0:
60,260,56203,2,0,P|112:248|172:252,1,90,8|0,0:0|3:0,0:0:0:0:
296,336,56721,6,0,P|360:356|436:360,1,135,0|0,3:0|0:0,0:0:0:0:
444,356,57238,1,8,0:0:0:0:
512,296,57496,1,0,3:0:0:0:
456,144,57755,2,0,P|384:148|348:212,1,135
348,212,58272,1,8,0:0:0:0:
432,244,58531,1,0,3:0:0:0:
292,132,58790,6,0,P|225:134|164:105,1,135,0|0,3:0|0:0,0:0:0:0:
156,88,59307,1,8,0:0:0:0:
0,236,59565,6,0,P|24:228|44:224,1,45
56,212,59824,2,0,P|96:224|144:232,1,90,0|0,3:0|3:0,0:0:0:0:
160,228,60212,1,0,0:0:0:0:
176,224,60341,2,0,P|196:264|192:320,1,90,8|0,0:0|3:0,0:0:0:0:
252,364,60729,5,0,0:0:0:0:
252,364,60859,2,0,P|296:352|356:344,1,90,0|0,3:0|0:0,0:0:0:0:
428,360,61376,1,8,0:0:0:0:
512,220,61634,5,0,3:0:0:0:
428,192,61893,2,0,P|376:192|340:204,1,90,0|0,0:0|3:0,0:0:0:0:
324,212,62281,1,0,0:0:0:0:
308,224,62410,1,8,0:0:0:0:
240,164,62669,1,0,3:0:0:0:
368,64,62928,6,0,P|440:80|496:112,4,135,2|2|2|2|10,3:2|0:0|0:0|0:0|0:0,0:0:0:0:
296,8,64738,1,0,3:0:0:0:
284,96,64996,5,8,0:0:0:0:
160,168,65255,1,0,3:0:0:0:
72,52,65514,1,8,0:0:0:0:
192,88,65772,1,0,3:0:0:0:
8,160,66031,1,0,0:0:0:0:
184,344,66548,6,0,P|220:328|288:336,1,90,8|0,0:0|0:0,0:0:0:0:
392,372,67065,6,0,P|364:320|376:260,1,107.999996704102,6|2,3:2|0:0,0:0:0:0:
484,208,67583,1,10,0:0:0:0:
444,308,67841,1,2,0:0:0:0:
384,192,68100,6,0,P|328:192|276:204,1,107.999996704102,2|0,3:2|3:0,0:0:0:0:
260,216,68488,1,2,0:0:0:0:
88,72,68876,1,0,3:0:0:0:
176,12,69134,6,0,P|228:32|280:36,1,107.999996704102,0|0,3:0|0:0,0:0:0:0:
300,32,69522,1,0,0:0:0:0:
412,4,69781,5,0,0:0:0:0:
412,4,69910,2,0,P|444:48|440:108,1,107.999996704102,0|2,3:0|0:0,0:0:0:0:
432,116,70298,1,2,0:0:0:0:
360,196,70557,1,2,0:0:0:0:
468,180,70815,1,2,0:0:0:0:
512,280,71074,1,0,0:0:0:0:
344,320,71462,6,0,P|288:312|256:272,1,107.999996704102,2|10,0:0|0:0,0:0:0:0:
228,172,71979,1,2,0:0:0:0:
160,332,72238,2,0,P|96:364|8:356,2,161.999995056153,2|2|2,3:2|0:0|3:2,0:0:0:0:
60,216,73272,6,0,P|180:200|244:264,1,215.999993408203,0|8,3:0|0:0,0:0:0:0:
388,356,74048,2,0,P|324:268|364:160,1,215.999993408203,0|0,3:0|3:0,0:0:0:0:
452,132,74824,1,8,0:0:0:0:
372,60,75083,1,2,3:2:0:0:
256,4,75341,6,0,P|208:36|192:84,1,107.999996704102,2|2,3:2|0:0,0:0:0:0:
240,204,75859,1,10,0:0:0:0:
288,104,76117,1,2,0:0:0:0:
148,168,76376,6,0,P|92:168|52:136,1,107.999996704102,2|0,3:2|3:0,0:0:0:0:
44,116,76764,1,2,0:0:0:0:
136,280,77152,5,0,3:0:0:0:
236,240,77410,2,0,P|288:259|315:302,1,107.999996704102,0|0,3:0|0:0,0:0:0:0:
320,324,77798,1,0,0:0:0:0:
420,380,78057,5,0,0:0:0:0:
420,380,78186,2,0,P|436:328|440:268,1,107.999996704102,2|2,3:2|0:0,0:0:0:0:
456,260,78574,1,2,0:0:0:0:
356,216,78833,1,2,0:0:0:0:
316,114,79092,1,0,0:0:0:0:
359,13,79350,1,0,0:0:0:0:
204,132,79738,6,0,P|144:132|104:96,1,107.999996704102,2|10,0:0|0:0,0:0:0:0:
44,16,80255,1,2,0:0:0:0:
60,168,80514,2,0,P|140:212|232:204,1,161.999995056153,2|2,3:2|0:0,0:0:0:0:
408,184,81290,1,0,3:0:0:0:
444,284,81548,5,10,0:0:0:0:
340,260,81807,1,2,3:2:0:0:
236,288,82065,1,10,0:0:0:0:
160,364,82324,1,2,3:2:0:0:
68,316,82583,5,2,3:2:0:0:
68,316,82841,1,0,3:0:0:0:
92,208,83100,2,0,L|84:124,3,53.9999983520508,2|0|2|0,3:2|0:0|3:2|0:0,0:0:0:0:
76,140,83617,6,0,P|112:96|188:96,1,135,4|0,3:2|0:0,0:0:0:0:
200,104,84134,2,0,P|208:144|212:200,1,90,8|0,0:0|0:0,0:0:0:0:
192,280,84652,6,0,P|264:336|332:332,1,135,0|0,3:0|0:0,0:0:0:0:
316,324,85169,2,0,P|352:304|408:296,1,90,8|0,0:0|0:0,0:0:0:0:
468,236,85686,6,0,P|416:200|344:200,1,135,0|0,3:0|0:0,0:0:0:0:
328,204,86203,2,0,P|304:164|296:120,1,90,8|0,0:0|0:0,0:0:0:0:
256,40,86721,6,0,P|320:12|384:12,1,135
396,0,87238,2,0,P|420:40|428:84,1,90,8|0,0:0|3:0,0:0:0:0:
424,100,87626,6,0,P|416:176|428:248,1,135,0|2,0:0|0:0,0:0:0:0:
424,233,88272,1,10,0:0:0:0:
488,304,88531,1,0,0:0:0:0:
416,360,88790,2,0,P|344:356|296:320,1,135,2|2,3:2|0:0,0:0:0:0:
220,160,89824,6,0,P|136:156|40:208,1,192
36,216,90600,2,0,P|20:92|156:32,1,288,0|0,0:0|3:0,0:0:0:0:
276,8,91893,6,0,P|236:64|232:132,1,135,4|0,3:2|0:0,0:0:0:0:
240,144,92410,2,0,P|280:164|328:172,1,90,8|0,0:0|0:0,0:0:0:0:
404,124,92927,6,0,P|460:164|480:224,1,135,0|0,3:0|0:0,0:0:0:0:
468,236,93445,2,0,P|444:276|436:320,1,90,8|0,0:0|0:0,0:0:0:0:
356,364,93962,6,0,P|284:348|260:288,1,135,0|0,3:0|0:0,0:0:0:0:
268,280,94479,2,0,P|272:228|256:188,1,90,8|0,0:0|0:0,0:0:0:0:
192,132,94996,6,0,P|124:160|60:156,1,135
52,144,95514,2,0,P|24:184|16:224,1,90,8|0,0:0|3:0,0:0:0:0:
4,236,95902,6,0,P|32:316|112:320,1,135,0|10,0:0|0:0,0:0:0:0:
73,329,96548,1,10,0:0:0:0:
144,272,96807,1,0,0:0:0:0:
232,280,97065,1,2,3:2:0:0:
296,344,97324,6,0,P|348:336|388:308,1,90
440,148,98100,6,0,P|408:116|360:108,1,90,8|0,0:0|3:0,0:0:0:0:
296,164,98617,1,8,0:0:0:0:
336,244,98876,2,0,P|256:284|160:284,1,180,0|0,3:0|3:0,0:0:0:0:
96,228,99652,1,8,0:0:0:0:
256,56,100169,6,0,L|264:160,3,72
264,152,101203,2,0,L|274:283,2,108
348,184,102238,6,0,L|360:341,1,144
360,344,103014,2,0,L|204:356,1,144
200,356,103790,2,0,L|188:200,1,144
