osu file format v14

[General]
AudioFilename: audio.mp3
AudioLeadIn: 0
PreviewTime: 33833
Countdown: 0
SampleSet: Soft
StackLeniency: 0.7
Mode: 0
LetterboxInBreaks: 0
WidescreenStoryboard: 1

[Editor]
DistanceSpacing: 1
BeatDivisor: 4
GridSize: 32
TimelineZoom: 4.899997

[Metadata]
Title:D.A.N.C.E.!
TitleUnicode:D.A.N.C.E.!
Artist:DJ Yoshitaka feat. Hoshino Kanako
ArtistUnicode:DJ Yoshitaka feat. 星野奏子
Creator:Muya
Version:Beginner
Source:beatmania IIDX 11 RED
Tags:DANCE J-POP pop jpop BEMANI JAPANESE RAP 西村 宜隆 Nishimura Yoshitaka
BeatmapID:3062961
BeatmapSetID:1481700

[Difficulty]
HPDrainRate:2
CircleSize:3
OverallDifficulty:3
ApproachRate:4
SliderMultiplier:0.8
SliderTickRate:1

[Events]
//Background and Video events
0,0,"bg.jpg",0,0
//Break Periods
//Storyboard Layer 0 (Background)
//Storyboard Layer 1 (Fail)
//Storyboard Layer 2 (Pass)
//Storyboard Layer 3 (Foreground)
//Storyboard Layer 4 (Overlay)
//Storyboard Sound Samples

[TimingPoints]
859,517.241379310345,4,2,1,80,1,0
23617,-100,4,2,1,20,0,0
24393,-100,4,2,1,30,0,0
25428,-100,4,2,1,80,0,0
25686,-100,4,2,1,80,0,0
31117,-100,4,2,1,40,0,0
31893,-100,4,2,1,80,0,0
67065,-100,4,2,1,80,0,1
83617,-100,4,2,1,80,0,0
89824,-100,4,2,1,20,0,0
90600,-100,4,2,1,30,0,0
91634,-100,4,2,1,80,0,0
91893,-100,4,2,1,80,0,0
97324,-100,4,2,1,40,0,0
98100,-100,4,2,1,80,0,0
100169,-100,4,2,1,40,0,0
103790,-100,4,2,1,80,0,0
104307,-100,4,2,0,5,0,0

[Colours]
Combo1 : 255,88,100
Combo2 : 255,94,55
Combo3 : 173,255,95
Combo4 : 17,254,176

[HitObjects]
20,96,859,5,2,0:0:0:0:
76,40,1376,2,0,P|156:32|220:88,1,160,2|0,0:0|0:0,0:0:0:0:
296,216,3445,2,0,P|376:224|440:168,1,160
460,100,4996,1,0,0:0:0:0:
396,52,5514,6,0,P|316:56|228:72,1,160,2|0,0:0|0:0,0:0:0:0:
180,128,7065,1,0,0:0:0:0:
284,264,9134,5,6,0:0:0:0:
344,320,9652,2,0,P|412:332|476:272,1,160,10|0,0:0|0:0,0:0:0:0:
475,109,11721,2,0,P|420:54|343:63,1,160
284,120,13272,1,0,0:0:0:0:
248,192,13790,6,0,P|176:200|84:192,1,160,2|0,0:0|0:0,0:0:0:0:
24,148,15341,2,0,P|40:72|108:32,1,160,0|0,0:0|3:0,0:0:0:0:
264,64,17410,5,4,3:2:0:0:
332,24,17927,1,8,0:0:0:0:
408,52,18445,2,0,P|428:88|428:128,1,80,0|8,3:2|0:0,0:0:0:0:
384,192,19479,1,0,3:0:0:0:
304,176,19996,1,8,0:0:0:0:
236,220,20514,2,0,P|216:256|216:296,1,80,0|8,0:0|0:0,0:0:0:0:
268,356,21548,6,0,P|308:364|364:360,1,80,0|10,0:0|0:0,0:0:0:0:
428,356,22583,2,0,P|436:312|432:268,1,80,2|0,3:2|0:0,0:0:0:0:
400,204,23617,6,0,P|400:140|408:80,1,120
208,72,25686,5,4,3:2:0:0:
144,24,26203,1,8,0:0:0:0:
68,52,26721,2,0,P|48:88|44:132,1,80,0|8,3:0|0:0,0:0:0:0:
68,204,27755,1,0,3:0:0:0:
144,232,28272,1,8,0:0:0:0:
212,192,28790,2,0,P|257:186|308:184,1,80,0|8,0:0|0:0,0:0:0:0:
364,152,29824,6,0,P|392:184|404:228,1,80,0|8,0:0|0:0,0:0:0:0:
400,300,30859,1,0,3:0:0:0:
248,344,31893,6,0,P|212:352|160:352,1,80,8|8,0:0|0:0,0:0:0:0:
100,312,32927,2,0,P|88:280|84:220,1,80,0|8,0:0|0:0,0:0:0:0:
40,164,33962,5,4,3:2:0:0:
80,96,34479,2,0,P|116:80|160:72,1,80,8|0,0:0|3:0,0:0:0:0:
232,96,35514,1,8,0:0:0:0:
304,60,36031,2,0,P|320:96|316:152,1,80,0|8,3:0|3:2,0:0:0:0:
264,192,37065,2,0,P|256:228|252:280,1,80,0|8,0:0|0:0,0:0:0:0:
296,340,38100,5,0,3:0:0:0:
372,364,38617,2,0,P|416:356|448:332,1,80,8|0,0:0|3:0,0:0:0:0:
488,268,39652,1,8,0:0:0:0:
428,212,40169,2,0,P|412:176|404:136,1,80,0|8,3:0|0:0,0:0:0:0:
360,68,41203,2,0,P|320:56|276:60,1,80,0|8,0:0|0:0,0:0:0:0:
204,40,42238,5,0,3:0:0:0:
152,100,42755,2,0,P|144:136|148:184,1,80,8|0,0:0|3:0,0:0:0:0:
204,236,43790,1,8,0:0:0:0:
276,200,44307,2,0,P|312:188|356:188,1,80,0|8,3:0|0:0,0:0:0:0:
420,232,45341,2,0,P|432:268|432:312,1,80,0|8,0:0|0:0,0:0:0:0:
368,356,46376,6,0,P|324:356|284:344,1,80,2|0,3:2|0:0,0:0:0:0:
228,292,47410,2,0,P|184:292|144:304,1,80,0|10,0:0|0:2,0:0:0:0:
76,336,48445,1,8,0:0:0:0:
12,288,48962,1,8,0:0:0:0:
48,216,49479,2,0,P|56:176|60:132,1,80,0|8,3:0|0:0,0:0:0:0:
32,60,50514,6,0,P|76:36|124:32,1,80,4|8,3:2|0:0,0:0:0:0:
172,76,51548,2,0,P|212:88|252:92,1,80,0|8,3:0|0:0,0:0:0:0:
320,52,52583,2,0,P|424:52|464:96,1,160,0|0,3:0|0:0,0:0:0:0:
476,168,54134,1,8,0:0:0:0:
424,228,54652,6,0,P|384:240|340:240,1,80,0|8,3:0|0:0,0:0:0:0:
276,200,55686,2,0,P|236:180|192:176,1,80,0|8,3:0|0:0,0:0:0:0:
128,140,56721,2,0,P|68:192|64:272,1,160,0|0,3:0|0:0,0:0:0:0:
116,332,58272,1,8,0:0:0:0:
192,304,58790,6,0,P|232:296|280:296,1,80,0|8,3:0|0:0,0:0:0:0:
352,288,59824,2,0,P|392:280|440:280,1,80,0|8,3:0|0:0,0:0:0:0:
448,200,60859,6,0,P|408:188|360:184,1,80,0|8,3:0|0:0,0:0:0:0:
292,168,61893,2,0,P|252:156|204:152,1,80,0|8,0:0|0:0,0:0:0:0:
140,180,62927,6,0,P|120:144|120:96,1,80,2|0,3:2|0:0,0:0:0:0:
152,32,63962,1,0,0:0:0:0:
232,20,64479,1,10,0:0:0:0:
296,68,64996,2,0,P|332:80|376:84,1,80,8|8,0:0|0:0,0:0:0:0:
452,60,66031,2,0,P|484:96|496:128,1,80,0|8,0:0|0:0,0:0:0:0:
448,192,67065,6,0,P|428:228|420:268,1,80,6|10,3:2|0:0,0:0:0:0:
392,340,68100,1,2,3:2:0:0:
316,364,68617,1,0,0:0:0:0:
240,336,69134,2,0,P|228:300|224:256,1,80,0|0,3:0|0:0,0:0:0:0:
276,196,70169,6,0,P|280:132|228:56,1,160,2|0,0:0|0:0,0:0:0:0:
148,36,71721,1,10,0:0:0:0:
80,76,72238,2,0,P|72:120|72:168,1,80,2|0,3:2|0:0,0:0:0:0:
28,220,73272,2,0,P|68:252|176:256,1,160,0|0,3:0|0:0,0:0:0:0:
236,208,74824,1,8,0:0:0:0:
268,136,75341,6,0,P|304:124|360:124,1,80,2|10,3:2|0:0,0:0:0:0:
424,144,76376,1,2,3:2:0:0:
472,208,76893,1,0,0:0:0:0:
468,288,77410,2,0,P|440:320|396:340,1,80,0|0,3:0|0:0,0:0:0:0:
336,372,78445,6,0,P|256:352|200:296,1,160,2|0,0:0|3:0,0:0:0:0:
176,224,79996,1,10,0:0:0:0:
232,168,80514,2,0,P|244:128|252:80,1,80,2|0,3:2|0:0,0:0:0:0:
200,28,81548,2,0,P|124:24|52:84,1,160,10|2,0:0|3:2,0:0:0:0:
40,152,83100,1,2,3:2:0:0:
92,212,83617,5,4,3:2:0:0:
172,220,84134,1,8,0:0:0:0:
232,168,84652,2,0,P|268:156|312:152,1,80,0|8,3:0|0:0,0:0:0:0:
388,176,85686,1,0,3:0:0:0:
432,244,86203,1,8,0:0:0:0:
404,320,86721,2,0,P|368:332|324:336,1,80,0|8,0:0|0:0,0:0:0:0:
252,364,87755,6,0,P|236:316|232:280,1,80,0|10,0:0|0:0,0:0:0:0:
268,216,88790,2,0,P|272:176|268:132,1,80,2|0,3:2|0:0,0:0:0:0:
244,60,89824,6,0,P|292:36|372:40,1,120
492,184,91893,5,4,3:2:0:0:
428,232,92410,1,8,0:0:0:0:
356,196,92927,2,0,P|320:184|276:180,1,80,0|8,3:0|0:0,0:0:0:0:
204,212,93962,1,0,3:0:0:0:
136,168,94479,1,8,0:0:0:0:
60,188,94996,2,0,P|32:224|24:264,1,80,0|8,0:0|0:0,0:0:0:0:
52,332,96031,6,0,P|92:352|140:356,1,80,0|10,0:0|0:0,0:0:0:0:
200,328,97065,1,2,3:2:0:0:
280,188,98100,6,0,P|328:188|364:196,1,80,8|8,0:0|0:0,0:0:0:0:
412,256,99134,2,0,P|412:304|404:340,1,80,0|8,0:0|0:0,0:0:0:0:
328,360,100169,6,0,P|268:328|168:324,1,160
36,248,102238,2,0,P|48:180|136:140,1,160
184,192,103790,2,0,P|236:212|276:212,1,80
