osu file format v14

[General]
AudioFilename: DJ Mass MAD Izm-Snake Stick 2.mp3
AudioLeadIn: 0
PreviewTime: 0
Countdown: 0
SampleSet: Soft
StackLeniency: 0
Mode: 0
LetterboxInBreaks: 0
WidescreenStoryboard: 1

[Editor]
DistanceSpacing: 1.2
BeatDivisor: 16
GridSize: 8
TimelineZoom: 8

[Metadata]
Title:Snake Stick
TitleUnicode:Snake Stick
Artist:DJ Yoshitaka vs. DJ Mass MAD Izm*
ArtistUnicode:DJ Yoshitaka vs. DJ Mass MAD Izm*
Creator:Hollow Wings
Version:EX EX
Source:beatmania IIDX 19 Lincle
Tags:sorairokarasu Arsalan Muziyami BrokenShine -Atri- fanzhen0019 isome bbj0920 _todestrieb awayuru Akiyama Mizuki kiddly M i X M_i_X yf_bmp Allice calliecube obamacube smokebloke callieonosu P1Twist TECH-BREAKBEATS Steins REFLEC BEAT colette plus -Winter- KONAMI instrumental electronic funk video game arcade cabinet machine kurantemelodii krt firis mistlud
BeatmapID:3354073
BeatmapSetID:1643220

[Difficulty]
HPDrainRate:6.5
CircleSize:5
OverallDifficulty:10
ApproachRate:10
SliderMultiplier:2.9
SliderTickRate:1

[Events]
//Background and Video events
0,0,"BG.jpg",0,0
//Break Periods
//Storyboard Layer 0 (Background)
//Storyboard Layer 1 (Fail)
//Storyboard Layer 2 (Pass)
//Storyboard Layer 3 (Foreground)
//Storyboard Layer 4 (Overlay)
//Storyboard Sound Samples

[TimingPoints]
-1254,413.793103448276,4,2,1,80,1,0
401,-50,4,2,1,80,0,0
608,-133.333333333333,4,2,1,80,0,0
814,-33.333333333333,4,2,1,80,0,0
918,-133.333333333333,4,2,1,80,0,0
1125,-33.333333333333,4,2,1,80,0,0
1228,-100,4,2,1,80,0,0
1642,-66.6666666666667,4,2,1,80,0,0
2056,-14.2857142857143,4,2,1,80,0,0
2263,-100,4,2,1,80,0,0
2883,-66.6666666666667,4,2,1,80,0,0
3401,-57.1428571428571,4,2,1,80,0,0
3711,-100,4,2,1,80,0,0
3918,-50,4,2,1,80,0,0
4021,-100,4,2,1,80,0,0
4228,-50,4,2,1,80,0,0
4332,-100,4,2,1,80,0,0
4539,-50,4,2,1,80,0,0
4642,-100,4,2,1,80,0,0
4849,-50,4,2,1,80,0,0
4952,-100,4,2,1,80,0,0
5159,-66.6666666666667,4,2,1,80,0,0
5366,-100,4,2,1,80,0,0
6194,-66.6666666666667,4,2,1,80,0,0
6711,-100,4,2,1,80,0,0
7021,-80,4,2,1,90,0,0
7849,-100,4,2,1,90,0,0
8056,-80,4,2,1,90,0,0
8263,-66.6666666666667,4,2,1,90,0,0
8470,-57.1428571428571,4,2,1,90,0,0
8677,-100,4,2,1,90,0,0
9814,-80,4,2,1,90,0,0
10332,-100,4,2,1,90,0,0
10746,-50,4,2,1,90,0,0
10849,-80,4,2,1,90,0,0
11056,-40,4,2,1,90,0,0
11159,-66.6666666666667,4,2,1,90,0,0
11366,-33.3333333333333,4,2,1,90,0,0
11987,-100,4,2,1,90,0,0
12194,-66.6666666666667,4,2,1,90,0,0
12401,-50,4,2,1,90,0,0
13642,-50,4,2,1,100,0,0
14470,-100,4,2,1,100,0,0
14677,-50,4,2,1,100,0,0
14780,-100,4,2,1,100,0,0
14987,-50,4,2,1,100,0,0
15090,-100,4,2,1,100,0,0
15297,-133.333333333333,4,2,1,100,0,0
15401,-66.6666666666667,4,2,1,100,0,0
15608,-133.333333333333,4,2,1,100,0,0
15711,-100,4,2,1,100,0,0
15918,-50,4,2,1,100,0,0
16125,-100,4,2,1,100,0,0
16435,-66.6666666666667,4,2,1,100,0,0
16694,-50,4,2,1,100,0,0
16746,-66.6666666666667,4,2,1,100,0,0
16952,-100,4,2,1,100,0,0
17159,-66.6666666666667,4,2,1,100,0,0
17366,-100,4,2,1,100,0,0
17573,-66.6666666666667,4,2,1,100,0,0
17780,-80,4,2,1,100,0,0
17987,-133.333333333333,4,2,1,100,0,0
18090,-80,4,2,1,100,0,0
18297,-133.333333333333,4,2,1,100,0,0
18401,-66.6666666666667,4,2,1,100,0,0
18608,-100,4,2,1,100,0,0
18814,-50,4,2,1,100,0,0
18918,-100,4,2,1,100,0,0
19021,-80,4,2,1,100,0,0
19228,-100,4,2,1,100,0,0
19435,-50,4,2,1,100,0,0
19746,-66.6666666666667,4,2,1,100,0,0
20263,-100,4,2,1,100,0,0
20470,-50,4,2,1,100,0,0
20573,-100,4,2,1,100,0,0
20677,-50,4,2,1,100,0,0
20780,-100,4,2,1,100,0,0
20883,-133.333333333333,4,2,1,100,0,0
21090,-50,4,2,1,100,0,0
21194,-100,4,2,1,100,0,0
21297,-50,4,2,1,100,0,0
21401,-80,4,2,1,100,0,0
21608,-100,4,2,1,100,0,0
21711,-66.6666666666667,4,2,1,100,0,0
21814,-50,4,2,1,100,0,0
21918,-100,4,2,1,100,0,0
22021,-133.333333333333,4,2,1,100,0,0
22228,-100,4,2,1,100,0,0
22332,-66.6666666666667,4,2,1,100,0,0
22435,-133.333333333333,4,2,1,100,0,0
22642,-100,4,2,1,100,0,0
22746,-80,4,2,1,100,0,0
22952,-66.6666666666667,4,2,1,100,0,0
23314,-50,4,2,1,100,0,0
23366,-66.6666666666667,4,2,1,100,0,0
23573,-100,4,2,1,100,0,0
23987,-80,4,2,1,100,0,0
24401,-66.6666666666667,4,2,1,100,0,0
24608,-80,4,2,1,100,0,0
24711,-66.6666666666667,4,2,1,100,0,0
24918,-80,4,2,1,100,0,0
25021,-66.6666666666667,4,2,1,100,0,0
25125,-57.1428571428571,4,2,1,100,0,0
25228,-80,4,2,1,100,0,0
25435,-66.6666666666667,4,2,1,100,0,0
25642,-80,4,2,1,100,0,0
25849,-100,4,2,1,100,0,0
26056,-25,4,2,1,100,0,0
26159,-50,4,2,1,100,0,0
26263,-33.3333333333333,4,2,1,100,0,0
26366,-50,4,2,1,100,0,0
26883,-100,4,2,1,100,0,0
27090,-66.6666666666667,4,2,1,100,0,0
27297,-100,4,2,1,100,0,0
27504,-66.6666666666667,4,2,1,100,0,0
27711,-80,4,2,1,100,0,0
27918,-33.3333333333333,4,2,1,100,0,0
28125,-57.1428571428571,4,2,1,100,0,0
28332,-80,4,2,1,100,0,0
28539,-133.333333333333,4,2,1,100,0,0
28952,-100,4,2,1,100,0,0
29056,-200,4,2,1,100,0,0
29159,-66.6666666666667,4,2,1,100,0,0
29263,-133.333333333333,4,2,1,100,0,0
29366,-80,4,2,1,100,0,0
29470,-57.1428571428571,4,2,1,100,0,0
29573,-66.6666666666667,4,2,1,100,0,0
29677,-80,4,2,1,100,0,0
29935,-50,4,2,1,100,0,0
29987,-80,4,2,1,100,0,0
30194,-100,4,2,1,100,0,0
30608,-66.6666666666667,4,2,1,100,0,0
30711,-100,4,2,1,100,0,0
30918,-66.6666666666667,4,2,1,100,0,0
31021,-100,4,2,1,100,0,0
31125,-66.6666666666667,4,2,1,100,0,0
31332,-80,4,2,1,100,0,0
31435,-100,4,2,1,100,0,0
31746,-133.333333333333,4,2,1,100,0,0
31849,-200,4,2,1,100,0,0
32056,-133.333333333333,4,2,1,100,0,0
32263,-100,4,2,1,100,0,0
32470,-50,4,2,1,100,0,0
32780,-40,4,2,1,100,0,0
32987,-66.6666666666667,4,2,1,100,0,0
33504,-100,4,2,1,100,0,0
33711,-80,4,2,1,100,0,0
33918,-50,4,2,1,100,0,0
34021,-80,4,2,1,100,0,0
34125,-57.1428571428571,4,2,1,100,0,0
34228,-80,4,2,1,100,0,0
34332,-66.6666666666667,4,2,1,100,0,0
34435,-50,4,2,1,100,0,0
34642,-57.1428571428571,4,2,1,100,0,0
34746,-100,4,2,1,100,0,0
34849,-66.6666666666667,4,2,1,100,0,0
35056,-133.333333333333,4,2,1,100,0,0
35263,-100,4,2,1,100,0,0
35470,-133.333333333333,4,2,1,100,0,0
35677,-200,4,2,1,100,0,0
35780,-80,4,2,1,100,0,0
35883,-133.333333333333,4,2,1,100,0,0
35987,-66.6666666666667,4,2,1,100,0,0
36090,-100,4,2,1,100,0,0
36194,-57.1428571428571,4,2,1,100,0,0
36297,-66.6666666666667,4,2,1,100,0,0
36556,-50,4,2,1,100,0,0
36608,-66.6666666666667,4,2,1,100,0,0
36814,-100,4,2,1,100,0,0
37021,-66.6666666666667,4,2,1,100,0,0
37125,-100,4,2,1,100,0,0
37228,-80,4,2,1,100,0,0
37332,-100,4,2,1,100,0,0
37539,-80,4,2,1,100,0,0
37642,-57.1428571428571,4,2,1,100,0,0
37746,-80,4,2,1,100,0,0
37952,-57.1428571428571,4,2,1,100,0,0
38056,-80,4,2,1,100,0,0
38159,-66.6666666666667,4,2,1,100,0,0
38366,-100,4,2,1,100,0,0
38470,-80,4,2,1,100,0,0
38677,-66.6666666666667,4,2,1,100,0,0
38780,-100,4,2,1,100,0,0
38883,-66.6666666666667,4,2,1,100,0,0
38987,-100,4,2,1,100,0,0
39090,-50,4,2,1,100,0,0
39401,-40,4,2,1,100,0,0
39608,-66.6666666666667,4,2,1,100,0,0
40125,-100,4,2,1,100,0,0
40332,-50,4,2,1,100,0,0
40539,-57.1428571428571,4,2,1,100,0,0
40746,-400,4,2,1,100,0,0
41056,-80,4,2,1,100,0,0
41780,-33.3333333333333,4,2,1,100,0,0
41987,-100,4,2,1,100,0,0
42194,-33.3333333333333,4,2,1,100,0,0
42297,-100,4,2,1,100,0,0
42504,-33.3333333333333,4,2,1,100,0,0
42608,-100,4,2,1,100,0,0
42814,-33.3333333333333,4,2,1,100,0,0
42918,-100,4,2,1,100,0,0
43125,-40,4,2,1,100,0,0
43435,-33.3333333333333,4,2,1,100,0,0
43642,-100,4,2,1,100,0,0
43849,-33.3333333333333,4,2,1,100,0,0
43952,-100,4,2,1,100,0,0
44159,-33.3333333333333,4,2,1,100,0,0
44263,-100,4,2,1,100,0,0
44470,-33.3333333333333,4,2,1,100,0,0
44573,-100,4,2,1,100,0,0
44780,-40,4,2,1,100,0,0
45090,-33.3333333333333,4,2,1,100,0,0
45297,-100,4,2,1,100,0,0
45504,-33.3333333333333,4,2,1,100,0,0
45608,-100,4,2,1,100,0,0
45814,-33.3333333333333,4,2,1,100,0,0
45918,-100,4,2,1,100,0,0
46125,-33.3333333333333,4,2,1,100,0,0
46228,-100,4,2,1,100,0,0
46435,-40,4,2,1,100,0,0
46746,-33.3333333333333,4,2,1,100,0,0
46952,-100,4,2,1,100,0,0
47159,-33.3333333333333,4,2,1,100,0,0
47263,-100,4,2,1,100,0,0
47470,-33.3333333333333,4,2,1,100,0,0
47573,-100,4,2,1,100,0,0
47780,-33.3333333333333,4,2,1,100,0,0
47883,-100,4,2,1,100,0,0
47987,-33.3333333333333,4,2,1,100,0,0
48401,-26.6666666666667,4,2,1,100,0,0
48608,-80,4,2,1,100,0,0
48814,-26.6666666666667,4,2,1,100,0,0
48918,-80,4,2,1,100,0,0
49125,-26.6666666666667,4,2,1,100,0,0
49228,-80,4,2,1,100,0,0
49435,-26.6666666666667,4,2,1,100,0,0
49539,-80,4,2,1,100,0,0
49746,-33.3333333333333,4,2,1,100,0,0
50056,-26.6666666666667,4,2,1,100,0,0
50263,-80,4,2,1,100,0,0
50470,-26.6666666666667,4,2,1,100,0,0
50573,-80,4,2,1,100,0,0
50780,-26.6666666666667,4,2,1,100,0,0
50883,-80,4,2,1,100,0,0
51090,-26.6666666666667,4,2,1,100,0,0
51194,-80,4,2,1,100,0,0
51401,-26.6666666666667,4,2,1,100,0,0
51711,-22.2222222222222,4,2,1,100,0,0
51918,-66.6666666666667,4,2,1,100,0,0
52125,-22.2222222222222,4,2,1,100,0,0
52228,-66.6666666666667,4,2,1,100,0,0
52435,-22.2222222222222,4,2,1,100,0,0
52539,-66.6666666666667,4,2,1,100,0,0
52746,-22.2222222222222,4,2,1,100,0,0
52952,-66.6666666666667,4,2,1,100,0,0
53056,-20,4,2,1,100,0,0
53366,-22.2222222222222,4,2,1,100,0,0
53573,-66.6666666666667,4,2,1,100,0,0
53780,-22.2222222222222,4,2,1,100,0,0
53883,-66.6666666666667,4,2,1,100,0,0
54090,-22.2222222222222,4,2,1,100,0,0
54194,-66.6666666666667,4,2,1,100,0,0
54401,-133.333333333333,4,2,1,100,0,0
54608,-16.6666666666667,4,2,1,100,0,0
55021,-100,4,2,1,100,0,0
55849,-66.6666666666667,4,2,1,100,0,0
56056,-80,4,2,1,100,0,0
56263,-100,4,2,1,100,0,0
56366,-80,4,2,1,100,0,0
56470,-66.6666666666667,4,2,1,100,0,0
56573,-57.1428571428571,4,2,1,100,0,0
56677,-40,4,2,1,100,0,0
56883,-50,4,2,1,100,0,0
57090,-44.4444444444445,4,2,1,100,0,0
57297,-50,4,2,1,100,0,0
57504,-40,4,2,1,100,0,0
57711,-33.3333333333333,4,2,1,100,0,0
57918,-100,4,2,1,100,0,0
58332,-25,4,2,1,100,0,0
58539,-40,4,2,1,100,0,0
58694,-33.3333333333333,4,2,1,100,0,0
58746,-40,4,2,1,100,0,0
58952,-50,4,2,1,100,0,0
59159,-66.6666666666667,4,2,1,100,0,0
59366,-11.1111111111111,4,2,1,100,0,0
59470,-40,4,2,1,100,0,0
59987,-25,4,2,1,100,0,0
60194,-40,4,2,1,100,0,0
60452,-66.6666666666667,4,2,1,100,0,0
60608,-57.1428571428571,4,2,1,100,0,0
61021,-50,4,2,1,100,0,0
61228,-66.6666666666667,4,2,1,100,0,0
61642,-50,4,2,1,100,0,0
61746,-66.6666666666667,4,2,1,100,0,0
61849,-50,4,2,1,100,0,0
61952,-66.6666666666667,4,2,1,100,0,0
62056,-100,4,2,1,100,0,0
62470,-66.6666666666667,4,2,1,100,0,0
62677,-80,4,2,1,100,0,0
62883,-66.6666666666667,4,2,1,100,0,0
63090,-100,4,2,1,100,0,0
63504,-11.1111111111111,4,2,1,100,0,0
63608,-100,4,2,1,100,0,0
64021,-20,4,2,1,100,0,0
64125,-80,4,2,1,100,0,0
64332,-40,4,2,1,100,0,0
64539,-57.1428571428571,4,2,1,100,0,0
64952,-33.3333333333333,4,2,1,100,0,0
65159,-57.1428571428571,4,2,1,100,0,0
65573,-80,4,2,1,100,0,0
65780,-133.333333333333,4,2,1,100,0,0
65935,-20,4,2,1,100,0,0
66090,-100,4,2,1,100,0,0
66297,-133.333333333333,4,2,1,100,0,0
66504,-11.1111111111111,4,2,1,100,0,0
66608,-57.1428571428571,4,2,1,100,0,0
67021,-80,4,2,1,100,0,0
67435,-33.3333333333333,4,2,1,100,0,0
67849,-28.5714285714286,4,2,1,100,0,0
68263,-100,4,2,1,100,0,0
68677,-50,4,2,1,100,0,0
68883,-100,4,2,1,100,0,0
69090,-66.6666666666667,4,2,1,100,0,0
69297,-50,4,2,1,100,0,0
69556,-100,4,2,1,100,0,0
69814,-133.333333333333,4,2,1,100,0,0
69918,-100,4,2,1,100,0,0
70332,-66.6666666666667,4,2,1,100,0,0
70539,-100,4,2,1,100,0,0
70746,-40,4,2,1,100,0,0
71159,-100,4,2,1,100,0,0
71573,-80,4,2,1,100,0,0
71987,-57.1428571428571,4,2,1,100,0,0
72194,-80,4,2,1,100,0,0
72401,-57.1428571428571,4,2,1,100,0,0
72556,-28.5714285714286,4,2,1,100,0,0
73228,-25,4,2,1,100,0,0
73435,-50,4,2,1,100,0,0
73849,-25,4,2,1,100,0,0
74056,-23.5294117647059,4,2,1,100,0,0
74263,-22.2222222222222,4,2,1,100,0,0
74470,-66.6666666666667,4,2,1,100,0,0
74883,-80,4,2,1,100,0,0
75090,-100,4,2,1,100,0,0
75297,-80,4,2,1,100,0,0
75504,-66.6666666666667,4,2,1,100,0,0
75711,-57.1428571428571,4,2,1,100,0,0
76125,-80,4,2,1,100,0,0
76332,-133.333333333333,4,2,1,100,0,0
76539,-66.6666666666667,4,2,1,100,0,0
76746,-80,4,2,1,100,0,0
76952,-66.6666666666667,4,2,1,100,0,0
77159,-57.1428571428571,4,2,1,100,0,0
77366,-66.6666666666667,4,2,1,100,0,0
77418,-50,4,2,1,100,0,0
77573,-80,4,2,1,100,0,0
77677,-100,4,2,1,100,0,0
77780,-66.6666666666667,4,2,1,100,0,0
77987,-100,4,2,1,100,0,0
78246,-66.6666666666667,4,2,1,100,0,0
78349,-80,4,2,1,100,0,0
78452,-100,4,2,1,100,0,0
78608,-80,4,2,1,100,0,0
78814,-66.6666666666667,4,2,1,100,0,0
79021,-50,4,2,1,100,0,0
79177,-66.6666666666667,4,2,1,100,0,0
79228,-100,4,2,1,100,0,0
79435,-66.6666666666667,4,2,1,100,0,0
79849,-80,4,2,1,100,0,0
80677,-100,4,2,1,100,0,0
80883,-50,4,2,1,100,0,0
81090,-133.333333333333,4,2,1,100,0,0
81504,-100,4,2,1,100,0,0
81918,-80,4,2,1,100,0,0
82228,-100,4,2,1,100,0,0
82435,-66.6666666666667,4,2,1,100,0,0
82539,-100,4,2,1,100,0,0
82952,-66.6666666666667,4,2,1,100,0,0
83056,-100,4,2,1,100,0,0
83470,-66.6666666666667,4,2,1,100,0,0
83573,-100,4,2,1,100,0,0
83987,-80,4,2,1,100,0,0
84401,-66.6666666666667,4,2,1,100,0,0
84814,-100,4,2,1,100,0,0
85228,-80,4,2,1,100,0,0
85435,-66.6666666666667,4,2,1,100,0,0
85642,-100,4,2,1,100,0,0
86056,-80,4,2,1,100,0,0
86263,-66.6666666666667,4,2,1,100,0,0
86470,-100,4,2,1,100,0,0
86728,-66.6666666666667,4,2,1,100,0,0
87039,-50,4,2,1,100,0,0
87401,-40,4,2,1,100,0,0
87711,-20,4,2,1,100,0,0
88177,-80,4,2,1,100,0,0
88332,-66.6666666666667,4,2,1,100,0,0
88746,-100,4,2,1,100,0,0
89159,-66.6666666666667,4,2,1,100,0,0
89573,-33.3333333333333,4,2,1,100,0,0
89677,-40,4,2,1,100,0,0
89780,-100,4,2,1,100,0,0
89987,-80,4,2,1,100,0,0
90090,-100,4,2,1,100,0,0
90297,-80,4,2,1,100,0,0
90401,-100,4,2,1,100,0,0
90608,-66.6666666666667,4,2,1,100,0,0
90814,-57.1428571428571,4,2,1,100,0,0
91228,-133.333333333333,4,2,1,100,0,0
91435,-50,4,2,1,100,0,0
91642,-57.1428571428571,4,2,1,100,0,0
91849,-66.6666666666667,4,2,1,100,0,0
92056,-80,4,2,1,100,0,0
92263,-100,4,2,1,100,0,0
92470,-80,4,2,1,100,0,0
92573,-100,4,2,1,100,0,0
92780,-80,4,2,1,100,0,0
92883,-100,4,2,1,100,0,0
93090,-57.1428571428571,4,2,1,100,0,0
93297,-66.6666666666667,4,2,1,100,0,0
93504,-80,4,2,1,100,0,0
93711,-100,4,2,1,100,0,0
93918,-133.333333333333,4,2,1,100,0,0
94332,-66.6666666666667,4,2,1,100,0,0
94746,-66.6666666666667,4,2,1,100,0,0
95366,-57.1428571428571,4,2,1,100,0,0
95573,-66.6666666666667,4,2,1,100,0,0
95780,-16.6666666666667,4,2,1,100,0,0
95987,-44.4444444444445,4,2,1,100,0,0
96194,-40,4,2,1,100,0,0
96401,-66.6666666666667,4,2,1,100,0,0
96608,-44.4444444444445,4,2,1,100,0,0
96711,-80,4,2,1,100,0,0
96918,-100,4,2,1,100,0,0
97228,-33.3333333333333,4,2,1,100,0,0
97332,-40,4,2,1,100,0,0
97435,-50,4,2,1,100,0,0
97539,-66.6666666666667,4,2,1,100,0,0
97642,-57.1428571428571,4,2,1,100,0,0
97797,-33.3333333333333,4,2,1,100,0,0
97849,-40,4,2,1,100,0,0
97952,-57.1428571428571,4,2,1,100,0,0
98056,-66.6666666666667,4,2,1,100,0,0
98470,-50,4,2,1,100,0,0
98573,-66.6666666666667,4,2,1,100,0,0
98780,-57.1428571428571,4,2,1,100,0,0
98883,-133.333333333333,4,2,1,100,0,0
98987,-57.1428571428571,4,2,1,100,0,0
99090,-133.333333333333,4,2,1,100,0,0
99194,-66.6666666666667,4,2,1,100,0,0
99401,-133.333333333333,4,2,1,100,0,0
99504,-80,4,2,1,100,0,0
99711,-33.3333333333333,4,2,1,100,0,0
99918,-66.6666666666667,4,2,1,100,0,0
100125,-50,4,2,1,100,0,0
100332,-40,4,2,1,100,0,0
100435,-33.3333333333333,4,2,1,100,0,0
100539,-40,4,2,1,100,0,0
100642,-33.3333333333333,4,2,1,100,0,0
100746,-20,4,2,1,100,0,0
100849,-66.6666666666667,4,2,1,100,0,0
101366,-33.3333333333333,4,2,1,100,0,0
101780,-25,4,2,1,100,0,0
102194,-66.6666666666667,4,2,1,100,0,0
102401,-25,4,2,1,100,0,0
102608,-66.6666666666667,4,2,1,100,0,0
102711,-50,4,2,1,100,0,0
103021,-33.3333333333333,4,2,1,100,0,0
103280,-25,4,2,1,100,0,0
103332,-40,4,2,1,100,0,0
103435,-50,4,2,1,100,0,0
103849,-40,4,2,1,100,0,0
104056,-33.3333333333333,4,2,1,100,0,0
104159,-28.5714285714286,4,2,1,100,0,0
104418,-25,4,2,1,100,0,0
104470,-50,4,2,1,100,0,0
104677,-44.4444444444445,4,2,1,100,0,0
104883,-40,4,2,1,100,0,0
105090,-11.1111111111111,4,2,1,100,0,0
105194,-66.6666666666667,4,2,1,100,0,0
105504,-40,4,2,1,100,0,0
105608,-25,4,2,1,100,0,0
105711,-40,4,2,1,100,0,0
105918,-50,4,2,1,100,0,0
106332,-40,4,2,1,100,0,0
106539,-33.3333333333333,4,2,1,100,0,0
106642,-40,4,2,1,100,0,0
106849,-33.3333333333333,4,2,1,100,0,0
106952,-40,4,2,1,100,0,0
107159,-33.3333333333333,4,2,1,100,0,0
107263,-40,4,2,1,100,0,0
107470,-40,4,2,1,100,0,0
107987,-50,4,2,1,80,0,0
108814,-33.3333333333333,4,2,1,80,0,0
109642,-28.5714285714286,4,2,1,80,0,0

[Colours]
Combo1 : 194,194,194
Combo2 : 255,91,91
Combo3 : 110,33,17
Combo4 : 255,136,255

[HitObjects]
34,374,401,6,0,L|248:337,1,217.5,6|0,0:0|3:0,0:0:0:0:
248,336,608,6,0,L|190:277,1,81.5625031113626,2|0,0:0|3:0,0:0:0:0:
191,278,814,6,0,L|298:262,1,108.750004148483,0|0,0:0|3:0,0:0:0:0:
298,262,918,6,0,L|240:203,1,81.5625031113626,0|0,0:0|3:0,0:0:0:0:
240,203,1125,6,0,L|347:187,1,108.750004148483,2|0,0:0|3:0,0:0:0:0:
347,186,1228,6,0,P|363:238|391:284,1,108.75,2|0,0:0|3:0,0:0:0:0:
390,283,1435,2,0,P|424:327|467:359,1,108.75,2|0,0:0|3:0,0:0:0:0:
466,359,1642,6,0,P|492:173|400:10,1,380.625014519692,2|0,0:0|3:0,0:0:0:0:
400,10,2056,6,0,P|274:291|124:22,1,761.250007259846,2|0,0:0|3:0,0:0:0:0:
125,22,2263,6,0,L|197:76,1,90.625,2|0,0:0|3:0,0:0:0:0:
197,78,2470,6,0,L|214:109,1,36.25,0|0,0:0|3:0,0:0:0:0:
214,110,2573,2,0,L|235:81,1,36.25,0|0,0:0|3:0,0:0:0:0:
235,81,2677,2,0,L|252:112,1,36.25,2|0,0:0|3:0,0:0:0:0:
252,113,2780,2,0,L|273:84,1,36.25,2|0,0:0|3:0,0:0:0:0:
273,83,2883,6,0,L|296:133,1,54.3750020742417,0|0,0:0|3:0,0:0:0:0:
296,133,2987,2,0,L|317:70,1,54.3750020742417,0|0,0:0|3:0,0:0:0:0:
313,82,3090,2,0,L|339:35,1,54.3750020742417,2|0,0:0|3:0,0:0:0:0:
339,34,3194,2,0,L|470:130,1,163.125006222725,2|0,0:0|3:0,0:0:0:0:
470,130,3401,6,0,L|419:188,1,63.4375006049872,2|0,0:0|3:0,0:0:0:0:
428,177,3504,2,0,L|432:242,1,63.4375006049872,2|0,0:0|3:0,0:0:0:0:
431,240,3608,2,0,L|380:298,1,63.4375006049872,2|0,0:0|3:0,0:0:0:0:
389,287,3711,6,0,B|359:271|359:271|284:263,1,108.75,2|0,0:0|3:0,0:0:0:0:
284,263,3918,6,0,L|349:231,1,72.5,2|0,0:0|3:0,0:0:0:0:
349,231,4021,6,0,B|315:232|315:232|246:262,1,108.75,0|0,0:0|3:0,0:0:0:0:
246,262,4228,6,0,L|286:201,1,72.5,0|0,0:0|3:0,0:0:0:0:
286,201,4332,6,0,B|257:218|257:218|213:279,1,108.75,2|0,0:0|3:0,0:0:0:0:
212,279,4539,6,0,L|217:206,1,72.5,0|0,0:0|3:0,0:0:0:0:
217,206,4642,6,0,B|201:235|201:235|193:310,1,108.75,0|0,0:0|3:0,0:0:0:0:
193,310,4849,6,0,L|161:244,1,72.5,2|0,0:0|3:0,0:0:0:0:
160,244,4952,6,0,P|141:294|105:334,1,108.75,2|0,0:0|3:0,0:0:0:0:
105,334,5159,6,0,P|82:255|84:174,1,163.125006222725,2|0,0:0|3:0,0:0:0:0:
84,174,5366,6,0,P|65:122|52:70,1,108.75,2|0,0:0|3:0,0:0:0:0:
53,69,5573,2,0,P|100:92|143:131,1,108.75,2|0,0:0|3:0,0:0:0:0:
142,129,5780,2,0,L|162:98,1,36.25,0|0,0:0|3:0,0:0:0:0:
161,98,5883,2,0,L|181:129,1,36.25,0|0,0:0|3:0,0:0:0:0:
180,128,5987,2,0,L|200:97,1,36.25,2|0,0:0|3:0,0:0:0:0:
199,97,6090,2,0,L|219:128,1,36.25,2|0,0:0|3:0,0:0:0:0:
218,127,6194,6,0,L|249:82,1,54.3750020742417,0|0,0:0|3:0,0:0:0:0:
248,82,6297,2,0,L|254:135,1,54.3750020742417,0|0,0:0|3:0,0:0:0:0:
254,135,6401,2,0,L|288:91,1,54.3750020742417,2|0,0:0|3:0,0:0:0:0:
287,91,6504,2,0,L|441:39,1,163.125006222725,2|0,0:0|3:0,0:0:0:0:
441,39,6711,6,0,L|436:74,1,36.25,2|0,0:0|3:0,0:0:0:0:
436,74,6814,2,0,L|444:109,1,36.25,2|0,0:0|3:0,0:0:0:0:
444,109,6918,2,0,L|439:144,1,36.25,2|0,0:0|3:0,0:0:0:0:
439,144,7021,6,0,P|455:209|461:277,1,135.9375,2|0,0:0|0:0,0:0:0:0:
461,277,7228,2,0,P|394:290|326:294,1,135.9375,2|0,0:0|0:0,0:0:0:0:
326,295,7435,2,0,L|292:356,1,45.3125,2|0,0:0|0:0,0:0:0:0:
303,334,7539,2,0,L|274:298,1,45.3125
274,298,7642,2,0,P|220:256|155:237,1,135.9375
155,237,7849,6,0,L|133:266,1,36.25,2|0,0:0|0:0,0:0:0:0:
133,266,7952,2,0,L|119:232,1,36.25
119,232,8056,6,0,L|70:269,1,45.3125,2|0,0:0|0:0,0:0:0:0:
82,259,8159,2,0,L|94:215,1,45.3125,2|0,0:0|0:0,0:0:0:0:
94,215,8263,6,0,L|42:231,1,54.3750020742417,2|0,0:0|0:0,0:0:0:0:
42,231,8366,2,0,L|76:189,1,54.3750020742417,2|0,0:0|0:0,0:0:0:0:
76,189,8470,6,0,L|13:195,1,63.4375006049872,2|0,0:0|0:0,0:0:0:0:
12,195,8573,2,0,L|64:158,1,63.4375006049872,2|0,0:0|0:0,0:0:0:0:
64,158,8677,6,0,P|119:157|171:144,1,108.75,2|0,0:0|0:0,0:0:0:0:
171,144,8883,2,0,P|131:106|85:78,1,108.75,2|0,0:0|0:0,0:0:0:0:
85,78,9090,2,0,L|121:55,1,36.25,2|0,0:0|0:0,0:0:0:0:
115,58,9194,2,0,L|151:61,1,36.25,2|0,0:0|0:0,0:0:0:0:
151,61,9297,2,0,L|191:48,1,36.25,2|0,0:0|0:0,0:0:0:0:
185,50,9401,2,0,L|218:62,1,36.25,2|0,0:0|0:0,0:0:0:0:
218,62,9504,2,0,L|260:60,1,36.25,2|0,0:0|0:0,0:0:0:0:
254,60,9608,2,0,L|283:81,1,36.25,2|0,0:0|0:0,0:0:0:0:
283,81,9711,2,0,L|324:90,1,36.25,2|0,0:0|0:0,0:0:0:0:
318,88,9814,6,0,L|217:179,1,135.9375,2|0,0:0|0:0,0:0:0:0:
217,179,10021,2,0,L|227:223,1,45.3125,2|0,0:0|0:0,0:0:0:0:
227,223,10125,2,0,L|206:277,1,45.3125,2|0,0:0|0:0,0:0:0:0:
210,265,10228,2,0,L|220:309,1,45.3125,2|0,0:0|0:0,0:0:0:0:
220,309,10332,6,0,P|272:324|320:349,1,108.75,2|0,0:0|0:0,0:0:0:0:
319,349,10539,2,0,P|373:338|427:342,1,108.75,2|0,0:0|0:0,0:0:0:0:
427,342,10746,6,0,L|462:278,1,72.5,2|0,0:0|0:0,0:0:0:0:
462,278,10849,6,0,P|412:231|348:212,1,135.9375,2|0,0:0|0:0,0:0:0:0:
348,212,11056,6,0,L|319:125,1,90.625,2|0,0:0|0:0,0:0:0:0:
318,125,11159,6,0,P|397:103|478:109,1,163.125006222725,2|0,0:0|0:0,0:0:0:0:
478,109,11366,6,0,P|335:33|174:39,1,326.25001244545,2|0,0:0|0:0,0:0:0:0:
173,39,11573,6,0,P|119:39|66:30,1,108.750004148483,2|0,0:0|0:0,0:0:0:0:
66,30,11677,2,0,P|115:52|167:66,1,108.750004148483,2|0,0:0|0:0,0:0:0:0:
167,66,11780,2,0,P|114:80|60:85,1,108.750004148483,2|0,0:0|0:0,0:0:0:0:
60,85,11883,2,0,P|113:93|167:93,1,108.750004148483,2|0,0:0|0:0,0:0:0:0:
167,92,11987,6,0,P|123:124|92:169,1,108.75,2|0,0:0|0:0,0:0:0:0:
92,169,12194,2,0,L|39:184,1,54.3750020742417,2|0,0:0|0:0,0:0:0:0:
39,184,12297,2,0,L|90:201,1,54.3750020742417
90,201,12401,6,0,L|116:239,7,36.25,2|0|0|0|0|0|0|0,0:0|0:0|0:0|0:0|0:0|0:0|0:0|0:0,0:0:0:0:
110,230,12608,2,0,L|114:265,7,36.25
114,265,12814,2,0,L|150:295,7,36.25
141,288,13021,2,0,L|154:321,7,36.25
154,321,13228,6,0,L|196:341,15,36.25,2|0|0|0|0|0|0|0|0|0|0|0|0|0|0|0,0:0|0:0|0:0|0:0|0:0|0:0|0:0|0:0|0:0|0:0|0:0|0:0|0:0|0:0|0:0|0:0,0:0:0:0:
186,336,13642,6,0,L|403:322,1,217.5,6|2,0:0|0:0,0:0:0:0:
403,322,13849,2,0,L|475:330,1,72.5
475,330,13952,2,0,L|446:263,1,72.5
446,263,14056,2,0,L|462:192,1,72.5,14|0,0:0|0:0,0:0:0:0:
462,192,14159,2,0,L|433:125,1,72.5
433,125,14263,2,0,L|355:128,1,72.5,2|0,0:0|0:0,0:0:0:0:
360,127,14366,2,0,L|298:88,1,72.5,2|0,0:0|0:0,0:0:0:0:
298,88,14470,6,0,P|244:79|189:80,1,108.75,2|0,0:0|0:0,0:0:0:0:
189,79,14677,6,0,L|251:118,1,72.5,2|0,0:0|0:0,0:0:0:0:
251,118,14780,6,0,P|197:123|144:138,1,108.75,2|0,0:0|0:0,0:0:0:0:
144,138,14987,6,0,L|213:159,1,72.5,2|0,0:0|0:0,0:0:0:0:
213,159,15090,6,0,P|162:178|115:206,1,108.75,2|0,0:0|0:0,0:0:0:0:
115,206,15297,6,0,L|88:201,1,27.1875010371209,2|0,0:0|0:0,0:0:0:0:
88,201,15401,6,0,L|62:248,1,54.3750020742417
62,248,15504,2,0,L|77:300,1,54.3750020742417,2|0,0:0|0:0,0:0:0:0:
77,300,15608,6,0,L|104:297,1,27.1875010371209,2|0,0:0|0:0,0:0:0:0:
103,296,15711,6,0,P|148:327|199:347,1,108.75,14|0,0:0|0:0,0:0:0:0:
198,346,15918,6,0,L|267:367,1,72.5,2|0,0:0|0:0,0:0:0:0:
267,367,16021,2,0,L|211:319,1,72.5,2|0,0:0|0:0,0:0:0:0:
211,319,16125,6,0,P|262:337|316:343,1,108.75,2|0,0:0|0:0,0:0:0:0:
316,343,16332,2,0,L|320:306,1,36.25,2|0,0:0|0:0,0:0:0:0:
320,306,16435,6,0,B|430:327|430:327|495:244,1,217.500008296967,2|0,0:0|0:0,0:0:0:0:
495,244,16694,6,0,L|471:216,1,36.25,2|0,0:0|0:0,0:0:0:0:
471,216,16746,6,0,L|412:241,1,54.3750020742417,2|0,0:0|0:0,0:0:0:0:
420,237,16849,2,0,L|375:205,1,54.3750020742417,2|0,0:0|0:0,0:0:0:0:
375,205,16952,6,0,P|324:225|271:235,1,108.75,2|0,0:0|0:0,0:0:0:0:
272,236,17159,6,0,L|247:284,1,54.3750020742417,2|0,0:0|0:0,0:0:0:0:
247,284,17263,2,0,L|224:234,1,54.3750020742417
224,234,17366,6,0,L|197:259,1,36.25,14|0,0:0|0:0,0:0:0:0:
197,259,17470,2,0,L|185:224,1,36.25
185,224,17573,6,0,L|142:258,1,54.3750020742417,2|0,0:0|0:0,0:0:0:0:
142,258,17677,2,0,L|148:203,1,54.3750020742417,2|0,0:0|0:0,0:0:0:0:
148,203,17780,6,0,P|88:169|22:156,1,135.9375,2|0,0:0|0:0,0:0:0:0:
22,156,17987,6,0,L|30:197,1,27.1875010371209,2|0,0:0|0:0,0:0:0:0:
27,182,18090,6,0,P|75:134|135:104,1,135.9375,2|0,0:0|0:0,0:0:0:0:
135,104,18297,6,0,L|130:130,1,27.1875010371209,2|0,0:0|0:0,0:0:0:0:
130,130,18401,6,0,L|184:134,1,54.3750020742417,2|0,0:0|0:0,0:0:0:0:
183,134,18504,2,0,L|234:114,1,54.3750020742417,2|0,0:0|0:0,0:0:0:0:
233,114,18608,6,0,P|283:136|327:168,1,108.75,2|0,0:0|0:0,0:0:0:0:
327,168,18814,6,0,L|335:96,1,72.5,2|0,0:0|0:0,0:0:0:0:
335,96,18918,6,0,L|376:122,1,36.25
365,115,19021,6,0,P|419:156|480:183,1,135.9375,14|0,0:0|0:0,0:0:0:0:
480,183,19228,6,0,L|456:210,1,36.25,2|0,0:0|0:0,0:0:0:0:
456,210,19332,2,0,L|463:245,1,36.25,2|0,0:0|0:0,0:0:0:0:
463,245,19435,6,0,L|439:273,1,36.25,2|0,0:0|0:0,0:0:0:0:
439,272,19539,2,0,L|448:308,1,36.25
447,307,19642,2,0,L|423:335,1,36.25,2|0,0:0|0:0,0:0:0:0:
423,334,19746,6,0,L|396:326,1,27.1875010371209,2|0,0:0|0:0,0:0:0:0:
396,326,19797,2,0,L|368:325,1,27.1875010371209
368,325,19849,2,0,L|341:317,1,27.1875010371209,14|0,0:0|0:0,0:0:0:0:
341,317,19901,2,0,L|313:316,1,27.1875010371209
313,316,19952,2,0,L|286:308,1,27.1875010371209,2|0,0:0|0:0,0:0:0:0:
286,308,20004,2,0,L|258:307,1,27.1875010371209
258,307,20056,2,0,L|231:299,1,27.1875010371209,6|0,0:0|0:0,0:0:0:0:
231,299,20108,2,0,L|203:298,1,27.1875010371209
203,298,20159,2,0,L|176:290,1,27.1875010371209,2|0,0:0|0:0,0:0:0:0:
176,290,20211,2,0,L|148:289,1,27.1875010371209
147,289,20263,6,0,P|96:306|48:332,1,108.75,6|0,0:0|0:0,0:0:0:0:
48,332,20470,6,0,L|32:261,1,72.5,2|0,0:0|0:0,0:0:0:0:
32,261,20573,6,0,L|67:267,1,36.25
67,267,20677,6,0,L|69:194,1,72.5,14|0,0:0|0:0,0:0:0:0:
69,194,20780,6,0,L|101:209,1,36.25
102,210,20883,6,0,P|142:215|180:229,1,81.5625031113626,2|0,0:0|0:0,0:0:0:0:
180,229,21090,6,0,L|189:157,1,72.5,2|0,0:0|0:0,0:0:0:0:
189,157,21194,6,0,L|153:162,1,36.25
153,161,21297,6,0,L|143:89,1,72.5,2|0,0:0|0:0,0:0:0:0:
143,89,21401,6,0,P|96:41|30:27,1,135.9375,2|0,0:0|0:0,0:0:0:0:
30,27,21608,6,0,L|40:61,1,36.25,2|0,0:0|0:0,0:0:0:0:
40,61,21711,6,0,L|94:66,1,54.3750020742417,2|0,0:0|0:0,0:0:0:0:
94,66,21814,6,0,L|94:138,1,72.5
94,138,21918,6,0,L|58:143,1,36.25,2|0,0:0|0:0,0:0:0:0:
57,142,22021,6,0,P|93:162|132:172,1,81.5625031113626
132,172,22228,6,0,L|167:164,1,36.25
167,164,22332,6,0,L|162:218,1,54.3750020742417,14|0,0:0|0:0,0:0:0:0:
161,217,22435,6,0,P|200:229|232:255,1,81.5625031113626,2|0,0:0|0:0,0:0:0:0:
232,255,22642,6,0,L|268:250,1,36.25,2|0,0:0|0:0,0:0:0:0:
266,249,22746,6,0,P|292:312|335:365,1,135.9375,2|0,0:0|0:0,0:0:0:0:
335,365,22952,6,0,L|387:350,1,54.3750020742417,2|0,0:0|0:0,0:0:0:0:
387,350,23056,2,0,L|441:351,1,54.3750020742417,2|0,0:0|0:0,0:0:0:0:
441,351,23159,2,0,L|451:242,1,108.750004148483,14|2,0:0|0:0,0:0:0:0:
451,242,23314,6,0,L|413:246,1,36.25
414,245,23366,6,0,L|367:273,1,54.3750020742417,2|0,0:0|0:0,0:0:0:0:
367,273,23470,2,0,L|330:232,1,54.3750020742417,2|0,0:0|0:0,0:0:0:0:
330,231,23573,6,0,P|286:263|234:280,1,108.75,6|0,0:0|0:0,0:0:0:0:
234,280,23780,2,0,P|179:281|128:264,1,108.75,2|0,0:0|0:0,0:0:0:0:
128,264,23987,6,0,L|112:306,1,45.3125,14|0,0:0|0:0,0:0:0:0:
112,306,24090,2,0,L|106:260,1,45.3125
106,260,24194,2,0,L|90:302,1,45.3125,2|0,0:0|0:0,0:0:0:0:
90,302,24297,2,0,L|84:256,1,45.3125,2|0,0:0|0:0,0:0:0:0:
84,256,24401,6,0,P|154:217|235:216,1,163.125006222725,2|0,0:0|0:0,0:0:0:0:
235,216,24608,6,0,L|247:173,1,45.3125,2|0,0:0|0:0,0:0:0:0:
247,172,24711,6,0,P|324:194|382:251,1,163.125006222725,2|0,0:0|0:0,0:0:0:0:
382,251,24918,6,0,L|420:226,1,45.3125,2|0,0:0|0:0,0:0:0:0:
420,227,25021,6,0,L|435:297,1,54.3750020742417,2|0,0:0|0:0,0:0:0:0:
431,280,25125,6,0,L|494:277,1,63.4375006049872,2|0,0:0|0:0,0:0:0:0:
494,277,25228,6,0,L|426:158,1,135.9375,2|0,0:0|0:0,0:0:0:0:
426,158,25435,6,0,L|454:112,1,54.3750020742417,2|0,0:0|0:0,0:0:0:0:
454,111,25539,2,0,L|428:63,1,54.3750020742417
428,63,25642,6,0,L|360:181,1,135.9375,14|0,0:0|0:0,0:0:0:0:
360,181,25849,6,0,L|341:149,1,36.25,2|0,0:0|0:0,0:0:0:0:
341,149,25952,2,0,L|323:180,1,36.25,2|0,0:0|0:0,0:0:0:0:
323,180,26056,6,0,L|252:194,1,72.5,2|0,0:0|0:0,0:0:0:0:
252,194,26159,6,0,L|221:213,1,36.25
221,213,26211,2,0,L|181:222,1,36.25
185,220,26263,6,0,L|95:282,1,108.750004148483
95,282,26366,6,0,L|131:278,1,36.25,2|0,0:0|0:0,0:0:0:0:
131,278,26418,2,0,L|164:262,1,36.25
163,262,26470,2,0,L|198:268,1,36.25,14|0,0:0|0:0,0:0:0:0:
198,267,26521,2,0,L|234:260,1,36.25
233,261,26573,2,0,L|266:276,1,36.25,2|0,0:0|0:0,0:0:0:0:
265,276,26625,2,0,L|301:279,1,36.25
301,279,26677,2,0,L|329:302,1,36.25,2|0,0:0|0:0,0:0:0:0:
328,302,26728,2,0,L|362:314,1,36.25
361,314,26780,2,0,L|382:343,1,36.25,2|0,0:0|0:0,0:0:0:0:
381,343,26832,2,0,L|410:364,1,36.25
410,364,26883,6,0,L|445:356,1,36.25,6|0,0:0|0:0,0:0:0:0:
445,356,26987,2,0,L|474:335,1,36.25
474,335,27090,6,0,L|421:300,1,54.3750020742417,2|0,0:0|0:0,0:0:0:0:
428,305,27194,2,0,L|407:254,1,54.3750020742417
407,254,27297,6,0,P|434:201|438:149,1,108.75,14|0,0:0|0:0,0:0:0:0:
438,152,27504,6,0,L|492:120,1,54.3750020742417,2|0,0:0|0:0,0:0:0:0:
484,124,27608,2,0,L|488:69,1,54.3750020742417,2|0,0:0|0:0,0:0:0:0:
488,70,27711,6,0,P|431:65|380:42,1,113.28125,2|0,0:0|0:0,0:0:0:0:
380,42,27918,6,0,L|332:67,1,54.3750020742417
332,67,28021,2,0,L|277:62,1,54.3750020742417
277,62,28125,6,0,L|219:36,1,63.4375006049872,14|0,0:0|0:0,0:0:0:0:
219,36,28228,2,0,L|155:35,1,63.4375006049872,2|0,0:0|0:0,0:0:0:0:
155,35,28332,6,0,L|112:49,1,45.3125,2|0,0:0|0:0,0:0:0:0:
111,49,28435,2,0,L|70:80,1,45.3125,2|0,0:0|0:0,0:0:0:0:
73,76,28539,6,0,P|57:113|50:153,1,81.5625031113626,2|0,0:0|0:0,0:0:0:0:
50,153,28746,2,0,P|66:190|73:230,1,81.5625031113626,2|0,0:0|0:0,0:0:0:0:
73,230,28952,6,0,L|63:265,1,36.25,14|0,0:0|0:0,0:0:0:0:
63,265,29056,6,0,L|54:280,1,18.125
54,280,29159,6,0,L|120:269,1,54.3750020742417,2|0,0:0|0:0,0:0:0:0:
107,271,29263,6,0,L|103:297,1,27.1875010371209,2|0,0:0|0:0,0:0:0:0:
103,297,29366,6,0,L|148:300,1,45.3125,2|0,0:0|0:0,0:0:0:0:
148,300,29470,6,0,L|206:324,1,63.4375006049872
206,324,29573,6,0,L|262:332,1,54.3750020742417,2|0,0:0|0:0,0:0:0:0:
259,331,29677,6,0,B|353:326|353:326|437:346,1,181.25,2|2,0:0|0:0,0:0:0:0:
437,346,29935,6,0,L|445:310,1,36.25
445,310,29987,6,0,L|404:289,1,45.3125,2|0,0:0|0:0,0:0:0:0:
404,289,30090,2,0,L|359:295,1,45.3125,2|0,0:0|0:0,0:0:0:0:
359,293,30194,6,0,P|364:240|384:189,1,108.75,6|0,0:0|0:0,0:0:0:0:
383,189,30401,2,0,P|419:147|464:117,1,108.75,2|0,0:0|0:0,0:0:0:0:
464,117,30608,6,0,L|477:64,1,54.3750020742417,14|0,0:0|0:0,0:0:0:0:
477,64,30711,6,0,L|459:59,1,18.125
459,59,30763,2,0,L|440:59,1,18.125
440,59,30814,2,0,L|422:54,1,18.125,2|0,0:0|0:0,0:0:0:0:
422,54,30866,2,0,L|403:54,1,18.125
403,54,30918,6,0,L|352:75,1,54.3750020742417,2|0,0:0|0:0,0:0:0:0:
352,75,31021,6,0,L|317:48,1,36.25,2|0,0:0|0:0,0:0:0:0:
323,52,31125,6,0,L|160:39,1,163.125006222725
160,39,31332,6,0,L|137:48,1,22.65625,2|0,0:0|0:0,0:0:0:0:
138,47,31383,2,0,L|117:36,1,22.65625
117,36,31435,6,0,L|80:33,1,36.25,14|0,0:0|0:0,0:0:0:0:
80,32,31539,2,0,P|86:86|65:135,1,108.75
65,136,31746,6,0,L|38:139,1,27.1875010371209,2|0,0:0|0:0,0:0:0:0:
37,138,31849,6,0,P|40:166|36:192,1,54.375,2|0,0:0|0:0,0:0:0:0:
36,192,32056,6,0,L|65:199,1,27.1875010371209
62,198,32159,2,0,L|42:221,1,27.1875010371209
44,218,32263,6,0,L|80:221,1,36.25,14|0,0:0|0:0,0:0:0:0:
81,221,32366,2,0,L|50:240,1,36.25
50,240,32470,6,0,L|68:270,1,36.25,2|0,0:0|0:0,0:0:0:0:
68,270,32573,2,0,L|50:302,1,36.25,2|0,0:0|0:0,0:0:0:0:
50,301,32677,2,0,L|68:331,1,36.25,2|0,0:0|0:0,0:0:0:0:
68,331,32780,6,0,L|107:353,1,45.3125
107,353,32832,2,0,L|152:352,1,45.3125
152,352,32883,2,0,L|191:374,1,45.3125,2|0,0:0|0:0,0:0:0:0:
191,374,32987,6,0,L|191:346,1,27.1875010371209,2|0,0:0|0:0,0:0:0:0:
191,346,33039,2,0,L|205:318,1,27.1875010371209
203,321,33090,2,0,L|203:293,1,27.1875010371209,14|0,0:0|0:0,0:0:0:0:
203,293,33142,2,0,L|217:265,1,27.1875010371209
215,268,33194,2,0,L|215:240,1,27.1875010371209,2|0,0:0|0:0,0:0:0:0:
215,240,33246,2,0,L|229:212,1,27.1875010371209
227,215,33297,2,0,L|227:187,1,27.1875010371209,2|0,0:0|0:0,0:0:0:0:
227,187,33349,2,0,L|241:159,1,27.1875010371209
239,162,33401,2,0,L|239:134,1,27.1875010371209,2|0,0:0|0:0,0:0:0:0:
239,134,33452,2,0,L|253:106,1,27.1875010371209
251,109,33504,6,0,P|305:106|358:93,1,108.75,6|0,0:0|0:0,0:0:0:0:
358,93,33711,6,0,L|350:48,1,45.3125,2|0,0:0|0:0,0:0:0:0:
350,48,33814,2,0,L|385:75,1,45.3125
385,75,33918,6,0,L|439:18,1,72.5,12|0,0:0|0:0,0:0:0:0:
434,22,34021,6,0,L|428:66,1,45.3125,2|0,0:0|0:0,0:0:0:0:
428,66,34125,6,0,L|483:35,1,63.4375006049872,2|0,0:0|0:0,0:0:0:0:
483,35,34228,6,0,L|451:78,1,45.3125,2|0,0:0|0:0,0:0:0:0:
455,71,34332,6,0,L|481:118,1,54.3750020742417,2|0,0:0|0:0,0:0:0:0:
481,118,34435,6,0,L|461:148,1,36.25,2|0,0:0|0:0,0:0:0:0:
461,148,34539,2,0,L|425:157,1,36.25,2|0,0:0|0:0,0:0:0:0:
425,157,34642,6,0,L|413:219,1,63.4375006049872,2|0,0:0|0:0,0:0:0:0:
413,219,34746,6,0,L|449:223,1,36.25,14|0,0:0|0:0,0:0:0:0:
449,223,34849,6,0,L|457:276,1,54.3750020742417,2|0,0:0|0:0,0:0:0:0:
457,276,34952,2,0,L|481:324,1,54.3750020742417,2|0,0:0|0:0,0:0:0:0:
481,324,35056,6,0,L|456:336,1,27.1875010371209,2|0,0:0|0:0,0:0:0:0:
456,336,35159,2,0,L|436:354,1,27.1875010371209,2|0,0:0|0:0,0:0:0:0:
436,354,35263,6,0,L|401:344,1,36.25
401,344,35366,2,0,L|365:351,1,36.25,2|0,0:0|0:0,0:0:0:0:
365,351,35470,6,0,L|356:325,1,27.1875010371209
356,325,35573,2,0,L|330:316,1,27.1875010371209,14|0,0:0|0:0,0:0:0:0:
330,316,35677,6,0,L|329:298,1,18.125
328,297,35780,6,0,L|338:252,1,45.3125,2|0,0:0|0:0,0:0:0:0:
338,252,35883,6,0,L|332:218,1,27.1875010371209,2|0,0:0|0:0,0:0:0:0:
333,225,35987,6,0,L|335:170,1,54.3750020742417,2|0,0:0|0:0,0:0:0:0:
335,170,36090,6,0,L|321:136,1,36.25,2|0,0:0|0:0,0:0:0:0:
321,136,36194,6,0,L|311:73,1,63.4375006049872,2|0,0:0|0:0,0:0:0:0:
311,73,36297,6,0,B|203:77|203:77|101:35,1,217.500008296967,2|2,0:0|0:0,0:0:0:0:
101,35,36556,6,0,L|66:44,1,36.25
66,44,36608,6,0,L|84:95,1,54.3750020742417,2|0,0:0|0:0,0:0:0:0:
84,95,36711,2,0,L|45:133,1,54.3750020742417,2|0,0:0|0:0,0:0:0:0:
44,132,36814,6,0,P|59:185|49:238,1,108.75,2|0,0:0|0:0,0:0:0:0:
49,238,37021,6,0,L|101:251,1,54.3750020742417
101,251,37125,6,0,L|76:294,1,36.25
82,282,37228,6,0,L|121:304,1,45.3125,14|0,0:0|0:0,0:0:0:0:
121,304,37332,6,0,L|125:321,1,18.125
125,321,37383,2,0,L|141:327,1,18.125
141,327,37435,2,0,L|150:342,1,18.125
150,342,37487,2,0,L|167:344,1,18.125
167,344,37539,6,0,L|174:299,1,45.3125,2|0,0:0|0:0,0:0:0:0:
174,299,37642,6,0,L|228:331,1,63.4375006049872,2|0,0:0|0:0,0:0:0:0:
228,331,37746,6,0,L|264:303,1,45.3125
264,303,37849,2,0,L|308:312,1,45.3125,2|0,0:0|0:0,0:0:0:0:
308,312,37952,6,0,L|338:303,1,31.7187503024936,2|0,0:0|0:0,0:0:0:0:
338,303,38004,2,0,L|369:311,1,31.7187503024936
368,310,38056,6,0,L|411:298,1,45.3125,14|0,0:0|0:0,0:0:0:0:
410,297,38159,6,0,P|435:222|505:183,1,163.125006222725,2|2,0:0|0:0,0:0:0:0:
505,183,38366,6,0,L|468:183,1,36.25,2|0,0:0|0:0,0:0:0:0:
468,183,38470,6,0,P|439:121|437:54,1,135.9375,2|0,0:0|0:0,0:0:0:0:
437,54,38677,6,0,L|390:82,1,54.3750020742417,2|0,0:0|0:0,0:0:0:0:
390,82,38780,6,0,L|369:52,1,36.25,2|0,0:0|0:0,0:0:0:0:
369,52,38883,6,0,L|316:67,1,54.3750020742417,14|0,0:0|0:0,0:0:0:0:
316,66,38987,6,0,L|303:31,1,36.25
303,31,39090,6,0,L|267:36,1,36.25,2|0,0:0|0:0,0:0:0:0:
267,36,39194,2,0,L|231:30,1,36.25,2|0,0:0|0:0,0:0:0:0:
231,30,39297,2,0,L|195:35,1,36.25,2|0,0:0|0:0,0:0:0:0:
195,35,39401,6,0,L|150:28,1,45.3125,2|0,0:0|0:0,0:0:0:0:
150,28,39452,2,0,L|110:50,1,45.3125
110,50,39504,2,0,L|65:43,1,45.3125,2|0,0:0|0:0,0:0:0:0:
65,43,39608,6,0,L|83:63,1,27.1875010371209,2|0,0:0|0:0,0:0:0:0:
83,63,39659,2,0,L|110:65,1,27.1875010371209
110,65,39711,2,0,L|128:85,1,27.1875010371209,14|0,0:0|0:0,0:0:0:0:
128,85,39763,2,0,L|155:87,1,27.1875010371209
155,87,39814,2,0,L|173:107,1,27.1875010371209,2|0,0:0|0:0,0:0:0:0:
173,107,39866,2,0,L|200:109,1,27.1875010371209
200,109,39918,2,0,L|218:129,1,27.1875010371209,2|0,0:0|0:0,0:0:0:0:
218,129,39970,2,0,L|245:131,1,27.1875010371209
245,131,40021,2,0,L|263:151,1,27.1875010371209,2|0,0:0|0:0,0:0:0:0:
263,151,40073,2,0,L|290:153,1,27.1875010371209
290,153,40125,6,0,P|303:205|291:258,1,108.75,0|0,0:0|3:0,0:0:0:0:
291,257,40332,6,0,P|310:227|337:203,1,72.5,0|0,0:0|3:0,0:0:0:0:
337,203,40435,2,0,P|348:237|352:273,1,72.5,0|0,0:0|3:0,0:0:0:0:
351,273,40539,6,0,P|368:246|391:224,1,63.4375006049872,0|0,0:0|3:0,0:0:0:0:
391,224,40642,2,0,P|396:255|393:286,1,63.4375006049872,0|0,0:0|3:0,0:0:0:0:
392,286,40746,6,0,P|406:268|425:254,1,45.3125,0|0,0:0|3:0,0:0:0:0:
425,254,41056,6,0,L|428:276,1,22.65625,0|0,0:0|3:0,0:0:0:0:
428,276,41159,2,0,L|431:253,1,22.65625,0|0,0:0|3:0,0:0:0:0:
431,253,41263,2,0,L|434:275,1,22.65625,0|0,0:0|3:0,0:0:0:0:
434,275,41366,2,0,L|437:252,1,22.65625,0|0,0:0|3:0,0:0:0:0:
437,252,41470,2,0,L|440:274,1,22.65625,0|0,0:0|3:0,0:0:0:0:
440,274,41573,2,0,L|443:251,1,22.65625,0|0,0:0|3:0,0:0:0:0:
443,251,41677,2,0,L|446:273,1,22.65625,0|0,0:0|3:0,0:0:0:0:
446,273,41780,6,0,L|359:338,1,108.750004148483,6|0,0:0|0:0,0:0:0:0:
359,338,41883,2,0,L|416:245,1,108.750004148483
415,245,41987,6,0,P|366:266|314:284,1,108.75,2|0,0:0|0:0,0:0:0:0:
314,284,42194,6,0,L|206:267,1,108.750004148483,14|0,0:0|0:0,0:0:0:0:
205,267,42297,6,0,P|259:261|311:243,1,108.75
310,243,42504,6,0,L|382:161,1,108.750004148483,2|0,0:0|0:0,0:0:0:0:
382,161,42608,6,0,P|327:162|273:156,1,108.75,2|0,0:0|0:0,0:0:0:0:
273,156,42814,6,0,L|170:119,1,108.750004148483,2|0,0:0|0:0,0:0:0:0:
170,119,42918,6,0,P|145:70|110:28,1,108.75,2|0,0:0|0:0,0:0:0:0:
110,28,43125,6,0,L|28:68,1,90.625
28,68,43228,2,0,L|117:82,1,90.625,2|0,0:0|0:0,0:0:0:0:
117,82,43332,2,0,L|53:16,1,90.625,2|0,0:0|0:0,0:0:0:0:
53,16,43435,6,0,L|57:124,1,108.750004148483,2|0,0:0|0:0,0:0:0:0:
57,124,43539,2,0,L|110:29,1,108.750004148483
109,29,43642,6,0,P|164:23|218:28,1,108.75,2|0,0:0|0:0,0:0:0:0:
218,28,43849,6,0,L|227:136,1,108.750004148483,14|0,0:0|0:0,0:0:0:0:
227,136,43952,6,0,P|279:150|333:153,1,108.75
333,153,44159,6,0,L|294:44,1,108.750004148483,2|0,0:0|0:0,0:0:0:0:
296,49,44263,6,0,P|344:25|396:11,1,108.75,2|0,0:0|0:0,0:0:0:0:
396,11,44470,6,0,L|402:119,1,108.750004148483,2|0,0:0|0:0,0:0:0:0:
401,119,44573,6,0,P|441:82|470:36,1,108.75,2|0,0:0|0:0,0:0:0:0:
470,36,44780,6,0,L|457:125,1,90.625,2|0,0:0|0:0,0:0:0:0:
457,125,44883,2,0,L|473:214,1,90.625,2|0,0:0|0:0,0:0:0:0:
473,214,44987,2,0,L|460:303,1,90.625,2|0,0:0|0:0,0:0:0:0:
460,303,45090,6,0,L|359:344,1,108.750004148483,2|0,0:0|0:0,0:0:0:0:
359,344,45194,2,0,L|266:286,1,108.750004148483
265,286,45297,6,0,P|219:313|167:327,1,108.75,2|0,0:0|0:0,0:0:0:0:
167,327,45504,6,0,L|246:253,1,108.750004148483,14|0,0:0|0:0,0:0:0:0:
246,253,45608,6,0,P|193:267|139:267,1,108.75
139,267,45814,6,0,L|235:216,1,108.750004148483,2|0,0:0|0:0,0:0:0:0:
235,216,45918,6,0,P|180:216|128:202,1,108.75,2|0,0:0|0:0,0:0:0:0:
128,202,46125,6,0,L|234:177,1,108.750004148483,2|0,0:0|0:0,0:0:0:0:
234,177,46228,6,0,P|181:163|134:136,1,108.75,2|0,0:0|0:0,0:0:0:0:
134,136,46435,6,0,L|77:65,1,90.625,2|0,0:0|0:0,0:0:0:0:
77,65,46539,2,0,L|104:151,1,90.625,2|0,0:0|0:0,0:0:0:0:
104,151,46642,2,0,L|101:241,1,90.625,2|0,0:0|0:0,0:0:0:0:
101,241,46746,6,0,L|57:340,1,108.750004148483,2|0,0:0|0:0,0:0:0:0:
57,340,46849,2,0,L|128:258,1,108.750004148483
127,258,46952,6,0,P|182:255|233:272,1,108.75,2|0,0:0|0:0,0:0:0:0:
233,272,47159,6,0,L|281:369,1,108.750004148483,14|0,0:0|0:0,0:0:0:0:
280,369,47263,6,0,P|331:348|372:313,1,108.75
372,313,47470,6,0,L|393:206,1,108.750004148483,2|0,0:0|0:0,0:0:0:0:
392,205,47573,6,0,P|342:187|288:182,1,108.75,2|0,0:0|0:0,0:0:0:0:
288,182,47780,6,0,L|274:74,1,108.750004148483,2|0,0:0|0:0,0:0:0:0:
274,74,47883,6,0,L|292:42,1,36.25,2|0,0:0|0:0,0:0:0:0:
292,43,47987,6,0,B|233:5|155:17|129:85|132:116|172:151|246:146|246:146|340:149|384:191|383:284|305:373|201:369|140:284|149:223,1,761.250029039384,14|0,0:0|0:0,0:0:0:0:
149,223,48401,6,0,L|61:120,1,135.937503241003,6|0,0:0|0:0,0:0:0:0:
60,119,48504,2,0,L|115:243,1,135.937503241003
115,242,48608,6,0,P|88:305|41:353,1,135.9375,2|0,0:0|0:0,0:0:0:0:
41,353,48814,6,0,L|175:334,1,135.937503241003,14|0,0:0|0:0,0:0:0:0:
175,334,48918,6,0,P|164:267|183:202,1,135.9375
183,202,49125,6,0,L|247:321,1,135.937503241003,2|0,0:0|0:0,0:0:0:0:
247,321,49228,6,0,P|296:347|352:356,1,113.28125,2|0,0:0|0:0,0:0:0:0:
352,356,49435,6,0,L|487:368,1,135.937503241003,2|0,0:0|0:0,0:0:0:0:
487,368,49539,6,0,P|438:320|380:284,1,135.9375,2|0,0:0|0:0,0:0:0:0:
380,284,49746,6,0,L|364:176,1,108.750004148483,2|0,0:0|0:0,0:0:0:0:
364,176,49849,2,0,L|465:215,1,108.750004148483,2|0,0:0|0:0,0:0:0:0:
464,215,49952,2,0,L|380:284,1,108.750004148483,2|0,0:0|0:0,0:0:0:0:
380,284,50056,6,0,L|249:250,1,135.937503241003,6|0,0:0|0:0,0:0:0:0:
249,248,50159,2,0,L|364:176,1,135.937503241003
364,176,50263,6,0,P|372:108|399:46,1,135.9375,2|0,0:0|0:0,0:0:0:0:
399,46,50470,6,0,L|266:74,1,135.937503241003,14|0,0:0|0:0,0:0:0:0:
266,74,50573,6,0,P|291:136|294:204,1,135.9375
294,204,50780,6,0,L|196:102,1,135.937503241003,2|0,0:0|0:0,0:0:0:0:
199,105,50883,6,0,P|265:121|332:110,1,135.9375,2|0,0:0|0:0,0:0:0:0:
332,110,51090,6,0,L|301:242,1,135.937503241003,2|0,0:0|0:0,0:0:0:0:
300,242,51194,6,0,P|324:178|367:126,1,135.9375,2|0,0:0|0:0,0:0:0:0:
367,126,51401,6,0,L|501:145,1,135.937503241003,6|0,0:0|0:0,0:0:0:0:
501,145,51504,2,0,L|375:91,1,135.937503241003,6|0,0:0|0:0,0:0:0:0:
375,91,51608,2,0,L|510:78,1,135.937503241003,6|0,0:0|0:0,0:0:0:0:
510,78,51711,6,0,L|347:67,1,163.125006222725,2|0,0:0|0:0,0:0:0:0:
347,67,51814,2,0,L|499:9,1,163.125006222725
499,9,51918,6,0,P|449:73|431:152,1,163.125006222725,2|0,0:0|0:0,0:0:0:0:
432,152,52125,6,0,L|453:313,1,163.125006222725,14|0,0:0|0:0,0:0:0:0:
453,313,52228,6,0,P|427:235|379:170,1,163.125006222725,2|0,0:0|0:0,0:0:0:0:
379,170,52435,6,0,L|216:184,1,163.125006222725,2|0,0:0|0:0,0:0:0:0:
215,184,52539,6,0,P|149:231|73:258,1,163.125006222725,2|0,0:0|0:0,0:0:0:0:
73,258,52746,6,0,L|235:267,1,163.125006222725,2|0,0:0|0:0,0:0:0:0:
236,268,52952,6,0,L|279:234,1,54.3750020742417,14|0,0:0|0:0,0:0:0:0:
279,234,53056,6,0,L|441:314,1,181.25,2|0,0:0|0:0,0:0:0:0:
441,314,53159,2,0,L|248:315,1,181.25,2|0,0:0|0:0,0:0:0:0:
259,314,53263,2,0,L|435:274,1,181.25,2|0,0:0|0:0,0:0:0:0:
435,274,53366,6,0,L|308:377,1,163.125006222725,2|0,0:0|0:0,0:0:0:0:
308,377,53470,2,0,L|359:222,1,163.125006222725,2|0,0:0|0:0,0:0:0:0:
358,222,53573,6,0,P|363:303|393:378,1,163.125006222725,2|0,0:0|0:0,0:0:0:0:
393,378,53780,6,0,L|397:214,1,163.125006222725,14|0,0:0|0:0,0:0:0:0:
397,214,53883,6,0,P|422:136|470:71,1,163.125006222725
470,72,54090,6,0,L|432:230,1,163.125006222725,2|0,0:0|0:0,0:0:0:0:
432,230,54194,6,0,P|362:272|284:293,1,163.125006222725,2|0,0:0|0:0,0:0:0:0:
284,293,54401,6,0,P|276:333|260:370,1,81.5625031113626,2|0,0:0|0:0,0:0:0:0:
260,370,54608,6,0,B|151:368|22:312|-33:226|34:114|182:40|321:28|450:94|543:208|459:310|373:361|169:350|50:271|-69:106|119:24|269:-12|372:64|372:64|414:46|414:46|471:88|455:136|455:136|419:117,1,1522.50005807877
418,116,55021,6,0,L|398:146,1,36.25,6|0,0:0|0:0,0:0:0:0:
397,146,55125,2,0,L|395:182,1,36.25
395,182,55228,2,0,L|367:205,1,36.25,2|0,0:0|0:0,0:0:0:0:
367,205,55332,2,0,L|355:239,1,36.25
355,239,55435,2,0,L|322:254,1,36.25,14|0,0:0|0:0,0:0:0:0:
322,255,55539,2,0,L|302:285,1,36.25
302,285,55642,2,0,L|266:292,1,36.25,2|0,0:0|0:0,0:0:0:0:
266,292,55746,2,0,L|239:316,1,36.25,2|0,0:0|0:0,0:0:0:0:
239,316,55849,6,0,P|168:275|89:255,1,163.125006222725,2|0,0:0|0:0,0:0:0:0:
89,255,56056,6,0,B|69:285|69:285|78:315,2,67.96875,2|0|0,0:0|0:0|0:0,0:0:0:0:
89,255,56263,6,0,L|70:223,1,36.25,14|0,0:0|0:0,0:0:0:0:
70,223,56366,6,0,L|63:178,1,45.3125,2|0,0:0|0:0,0:0:0:0:
63,178,56470,6,0,L|67:123,1,54.3750020742417,2|0,0:0|0:0,0:0:0:0:
68,124,56573,6,0,L|92:65,1,63.4375006049872,2|0,0:0|0:0,0:0:0:0:
92,64,56677,6,0,L|173:25,1,90.625,2|0,0:0|0:0,0:0:0:0:
173,25,56883,6,0,L|183:65,1,36.25,2|0,0:0|0:0,0:0:0:0:
181,60,56935,2,0,L|202:30,1,36.25
202,30,56987,2,0,L|212:70,1,36.25
210,65,57090,6,0,L|291:74,1,81.5625031113626,14|0,0:0|0:0,0:0:0:0:
291,74,57297,6,0,L|303:39,1,36.25,2|0,0:0|0:0,0:0:0:0:
303,39,57349,2,0,L|317:72,1,36.25
317,72,57401,2,0,L|334:40,1,36.25,2|0,0:0|0:0,0:0:0:0:
334,39,57504,6,0,P|377:28|422:25,1,90.625,2|0,0:0|0:0,0:0:0:0:
421,24,57711,6,0,P|455:67|470:119,1,108.750004148483,2|0,0:0|0:0,0:0:0:0:
470,118,57918,6,0,P|404:224|432:344,1,253.75,14|0,0:0|0:0,0:0:0:0:
432,344,58332,6,0,B|342:334|240:294|284:224|335:190|373:206|464:255|359:343|271:361,1,435,6|0,0:0|0:0,0:0:0:0:
272,361,58539,6,0,B|218:247|155:282|155:327|189:344|197:315,1,181.25,2|0,0:0|0:0,0:0:0:0:
197,317,58694,6,0,L|174:366,1,54.3750020742417
174,366,58746,6,0,L|83:356,1,90.625,14|0,0:0|0:0,0:0:0:0:
83,356,58849,2,0,L|46:273,1,90.625
46,273,58952,6,0,L|53:237,1,36.25,2|0,0:0|0:0,0:0:0:0:
53,237,59056,2,0,L|41:202,1,36.25,2|0,0:0|0:0,0:0:0:0:
41,202,59159,6,0,L|35:147,1,54.3750020742417,2|0,0:0|0:0,0:0:0:0:
35,147,59366,6,0,B|152:180|155:145|74:126,1,163.125006222725,2|0,0:0|0:0,0:0:0:0:
75,127,59470,6,0,L|33:108,1,45.3125,2|0,0:0|0:0,0:0:0:0:
33,108,59573,2,0,L|20:64,1,45.3125,14|0,0:0|0:0,0:0:0:0:
20,64,59677,2,0,L|29:19,1,45.3125,2|0,0:0|0:0,0:0:0:0:
29,19,59780,2,0,L|58:53,1,45.3125,2|0,0:0|0:0,0:0:0:0:
57,52,59883,2,0,L|102:45,1,45.3125,2|0,0:0|0:0,0:0:0:0:
102,45,59987,6,0,B|181:6|215:86|179:82|179:82|171:71,1,145,2|0,0:0|0:0,0:0:0:0:
170,71,60194,6,0,P|177:115|196:156,1,90.625,2|0,0:0|0:0,0:0:0:0:
196,156,60297,2,0,L|182:199,1,45.3125
182,199,60401,2,0,L|187:244,1,45.3125,14|0,0:0|0:0,0:0:0:0:
186,244,60452,6,0,P|240:248|286:276,1,108.750004148483
285,275,60608,6,0,P|349:280|411:268,1,126.875001209974,2|2,0:0|0:0,0:0:0:0:
411,268,60814,2,0,P|354:240|292:228,1,126.875001209974,2|0,0:0|0:0,0:0:0:0:
292,228,61021,6,0,L|315:200,1,36.25,2|0,0:0|0:0,0:0:0:0:
315,200,61073,2,0,L|350:193,1,36.25
350,193,61125,2,0,L|373:165,1,36.25,2|0,0:0|0:0,0:0:0:0:
373,165,61228,6,0,P|212:173|87:273,1,326.25001244545,14|0,0:0|0:0,0:0:0:0:
87,273,61642,6,0,L|83:236,1,36.25,6|0,0:0|0:0,0:0:0:0:
83,236,61694,2,0,L|59:198,1,36.25
63,205,61746,6,0,L|81:154,1,54.3750020742417
82,154,61849,6,0,L|87:118,1,36.25,2|0,0:0|0:0,0:0:0:0:
87,118,61901,2,0,L|73:75,1,36.25
76,83,61952,6,0,L|107:38,1,54.3750020742417
106,38,62056,6,0,P|161:37|212:54,1,108.75,14|0,0:0|0:0,0:0:0:0:
212,54,62263,2,0,P|266:54|317:37,1,108.75,2|0,0:0|0:0,0:0:0:0:
316,37,62470,6,0,P|370:31|419:54,1,108.750004148483,2|0,0:0|0:0,0:0:0:0:
419,54,62677,6,0,L|482:29,2,60.4166666666667,2|0|0,0:0|0:0|0:0,0:0:0:0:
419,54,62883,6,0,L|436:105,1,54.3750020742417,14|0,0:0|0:0,0:0:0:0:
436,105,62987,2,0,L|417:156,1,54.3750020742417,2|0,0:0|0:0,0:0:0:0:
416,155,63090,6,0,P|437:206|443:260,1,108.75,2|0,0:0|0:0,0:0:0:0:
442,260,63297,2,0,P|421:309|413:363,1,108.75,2|0,0:0|0:0,0:0:0:0:
412,363,63504,6,0,B|298:350|290:321|371:313,1,163.125006222725,2|0,0:0|0:0,0:0:0:0:
371,314,63608,6,0,P|355:262|322:219,1,108.75
321,219,63814,2,0,P|316:272|325:326,1,108.75
325,326,64021,6,0,B|354:249|307:187|248:273,1,181.25,2|0,0:0|0:0,0:0:0:0:
249,274,64125,6,0,P|181:270|119:242,1,135.9375,2|0,0:0|0:0,0:0:0:0:
119,242,64332,6,0,L|101:283,1,45.3125,2|0,0:0|0:0,0:0:0:0:
101,283,64435,2,0,L|85:240,1,45.3125,2|0,0:0|0:0,0:0:0:0:
85,240,64539,6,0,B|25:172|6:24|118:-16|204:15|237:102|190:177|135:165|123:112,1,444.06250423491,14|0,0:0|0:0,0:0:0:0:
123,113,64952,6,0,L|123:167,1,54.3750020742417,6|0,0:0|0:0,0:0:0:0:
123,167,65159,6,0,B|101:203|101:203|59:192,2,84.5833341399829,2|0|0,0:0|0:0|0:0,0:0:0:0:
123,167,65366,2,0,B|107:130|107:130|62:132,2,84.5833341399829,14|0|0,0:0|0:0|0:0,0:0:0:0:
123,167,65573,6,0,L|258:181,1,135.9375,2|0,0:0|0:0,0:0:0:0:
258,181,65780,6,0,L|204:187,1,54.3750020742417,2|0,0:0|0:0,0:0:0:0:
204,187,65935,6,0,B|256:130|352:146|264:226,1,181.25,2|0,0:0|0:0,0:0:0:0:
265,226,66090,6,0,L|156:237,1,108.75,2|0,0:0|0:0,0:0:0:0:
156,237,66297,6,0,L|237:243,1,81.5625031113626
230,233,66504,6,0,B|146:122|115:178|202:271,1,217.500008296967
202,272,66608,6,0,B|229:304|229:304|270:292,2,84.5833341399829,2|0|0,0:0|0:0|0:0,0:0:0:0:
202,272,66814,2,0,B|210:229|210:229|249:220,2,84.5833341399829,2|0|0,0:0|0:0|0:0,0:0:0:0:
202,271,67021,6,0,P|139:297|71:300,1,135.9375,14|0,0:0|0:0,0:0:0:0:
71,300,67228,2,0,P|124:258|186:229,1,135.9375,2|0,0:0|0:0,0:0:0:0:
184,228,67435,6,0,B|101:202|67:44|137:80|152:120|131:135,1,217.500008296967,2|0,0:0|0:0,0:0:0:0:
131,134,67642,2,0,B|218:137|304:0|226:10|198:43|213:64,1,217.500008296967,2|0,0:0|0:0,0:0:0:0:
212,64,67849,6,0,B|205:97|222:130|222:130|276:101|284:25|284:25|316:72|333:122|287:175|236:205|236:205|267:302|424:357|556:183|481:58|401:60,1,888.12500846982
400,59,68263,6,0,L|509:50,1,108.75,6|0,0:0|0:0,0:0:0:0:
509,50,68470,2,0,L|411:97,1,108.75,2|0,0:0|0:0,0:0:0:0:
411,97,68677,6,0,L|481:112,1,72.5
481,112,68780,2,0,L|422:155,1,72.5
422,155,68883,6,0,P|420:209|432:262,1,108.75
431,261,69090,6,0,P|356:288|312:355,1,163.125006222725,2|0,0:0|0:0,0:0:0:0:
312,355,69297,6,0,L|382:338,1,72.5
382,338,69401,2,0,L|310:325,1,72.5,2|0,0:0|0:0,0:0:0:0:
310,325,69504,2,0,L|300:290,1,36.25
300,290,69556,6,0,P|228:288|169:328,1,145
169,328,69814,6,0,L|162:362,1,27.1875010371209
163,354,69918,6,0,L|55:368,1,108.75,6|0,0:0|0:0,0:0:0:0:
55,368,70125,2,0,L|147:311,1,108.75,2|0,0:0|0:0,0:0:0:0:
147,311,70332,6,0,L|92:317,1,54.3750020742417
92,317,70435,2,0,L|134:264,1,54.3750020742417
124,273,70539,6,0,P|72:260|29:227,1,108.75
29,227,70746,6,0,L|66:189,1,45.3125,2|0,0:0|0:0,0:0:0:0:
60,194,70849,2,0,L|-2:171,1,45.3125
17,178,70952,6,0,L|54:140,1,45.3125
48,145,71056,2,0,L|-14:122,1,45.3125
5,129,71159,6,0,P|7:92|16:57,1,72.5
16,56,71314,2,0,P|83:31|155:30,1,145
155,30,71573,6,0,L|189:161,1,135.9375,6|0,0:0|0:0,0:0:0:0:
189,161,71780,2,0,L|207:147,1,22.65625,2|0,0:0|0:0,0:0:0:0:
207,147,71832,2,0,L|207:237,1,90.625
207,237,71987,6,0,L|186:297,1,63.4375006049872
186,297,72090,2,0,L|159:356,1,63.4375006049872
159,354,72194,6,0,L|240:314,1,90.625
241,314,72401,6,0,L|257:287,1,31.7187503024936,2|0,0:0|0:0,0:0:0:0:
257,287,72452,2,0,L|263:248,1,31.7187503024936
261,255,72556,6,0,L|286:196,1,63.4375006049872
286,196,72659,2,0,L|350:203,1,63.4375006049872
349,202,72763,2,0,L|374:143,1,63.4375006049872
374,143,72866,2,0,L|438:150,1,63.4375006049872
437,149,72970,2,0,L|462:90,1,63.4375006049872
462,90,73228,6,0,L|395:60,1,72.5,6|0,0:0|0:0,0:0:0:0:
395,60,73332,2,0,L|323:72,1,72.5
323,72,73435,6,0,B|277:55|277:55|294:10,2,96.6666666666667,2|0|0,0:0|0:0|0:0,0:0:0:0:
323,72,73642,2,0,B|343:117|343:117|299:135,2,96.6666666666667
323,72,73849,6,0,L|251:86,1,72.5
251,85,73952,2,0,L|224:152,1,72.5
224,152,74056,6,0,L|148:166,1,77.0312514692545,2|0,0:0|0:0,0:0:0:0:
148,166,74159,2,0,L|133:90,1,77.0312514692545,2|0,0:0|0:0,0:0:0:0:
133,90,74263,6,0,L|55:63,1,81.5625031113626,2|0,0:0|0:0,0:0:0:0:
55,63,74366,2,0,L|78:141,1,81.5625031113626,2|0,0:0|0:0,0:0:0:0:
78,141,74470,6,0,B|23:161|20:207|30:266|62:296|119:282|143:250|146:201|188:169|247:189|262:251|252:266,1,380.625014519692,2|0,0:0|0:0,0:0:0:0:
252,265,74883,6,0,P|319:251|384:266,1,135.9375,6|0,0:0|0:0,0:0:0:0:
383,266,75090,6,0,L|391:301,1,36.25
391,301,75194,2,0,L|404:267,1,36.25
404,267,75297,6,0,L|426:260,1,22.65625,2|0,0:0|0:0,0:0:0:0:
425,260,75349,2,0,P|447:299|462:342,1,90.625
462,342,75504,6,0,L|473:288,1,54.3750020742417,2|0,0:0|0:0,0:0:0:0:
473,288,75608,2,0,L|460:235,1,54.3750020742417,2|0,0:0|0:0,0:0:0:0:
460,235,75711,6,0,B|468:194|468:194|510:189,2,84.5833341399829,2|0|0,0:0|0:0|0:0,0:0:0:0:
460,235,75918,2,0,B|491:264|491:264|469:299,2,84.5833341399829
460,235,76125,6,0,L|415:240,1,45.3125,2|0,0:0|0:0,0:0:0:0:
415,240,76228,2,0,L|371:228,1,45.3125
371,228,76332,6,0,L|290:238,1,81.5625031113626
290,237,76539,6,0,P|325:196|369:165,1,108.750004148483,6|0,0:0|0:0,0:0:0:0:
369,165,76746,6,0,L|429:171,2,60.4166666666667,2|0|0,0:0|0:0|0:0,0:0:0:0:
369,165,76952,6,0,L|361:138,1,27.1875010371209,2|0,0:0|0:0,0:0:0:0:
361,138,77004,2,0,L|252:127,1,108.750004148483
252,127,77159,6,0,L|243:96,1,31.7187503024936,2|0,0:0|0:0,0:0:0:0:
243,96,77211,2,0,L|117:80,1,126.875001209974
117,80,77366,6,2,L|113:38,1,27.1875010371209
114,52,77418,6,0,L|42:40,1,72.5,0|2,0:0|0:0,0:0:0:0:
42,40,77573,6,0,L|52:84,1,45.3125,2|2,0:0|0:0,0:0:0:0:
52,84,77677,6,0,L|48:101,1,18.125,2|0,0:0|0:0,0:0:0:0:
48,101,77728,2,0,L|53:118,1,18.125
53,118,77780,6,0,L|21:183,2,72.5000027656556,6|0|0,0:0|0:0|0:0,0:0:0:0:
53,118,77987,6,0,P|99:146|150:165,1,108.75,2|0,0:0|0:0,0:0:0:0:
150,165,78194,2,0,L|166:157,1,18.125,6|0,0:0|0:0,0:0:0:0:
165,157,78246,6,0,P|193:154|220:155,1,54.3750020742417,0|2,0:0|0:0,0:0:0:0:
219,154,78349,6,0,P|242:159|264:158,1,45.3125,0|2,0:0|0:0,0:0:0:0:
264,158,78452,6,0,P|299:162|335:170,1,72.5
335,170,78608,6,0,L|310:188,1,22.65625,6|0,0:0|0:0,0:0:0:0:
316,183,78659,2,0,P|361:185|404:174,1,90.625
404,174,78814,6,0,L|423:154,1,27.1875010371209,2|0,0:0|0:0,0:0:0:0:
422,153,78866,2,0,P|369:143|319:121,1,108.750004148483
320,122,79021,6,0,P|391:113|458:85,1,145,2|2,0:0|0:0,0:0:0:0:
458,85,79177,6,0,L|459:57,1,27.1875010371209,2|0,0:0|0:0,0:0:0:0:
459,57,79228,6,0,L|414:53,1,36.25,2|2,0:0|0:0,0:0:0:0:
422,53,79332,2,0,L|388:38,1,36.25,2|2,0:0|0:0,0:0:0:0:
388,38,79435,6,0,L|361:30,1,27.1875010371209,2|0,0:0|0:0,0:0:0:0:
361,30,79487,2,0,L|334:36,1,27.1875010371209,2|0,0:0|0:0,0:0:0:0:
334,36,79539,2,0,L|303:31,1,27.1875010371209,2|0,0:0|0:0,0:0:0:0:
307,31,79642,6,0,L|276:44,1,27.1875010371209,2|0,0:0|0:0,0:0:0:0:
281,41,79694,2,0,L|226:37,1,54.3750020742417,0|2,0:0|0:0,0:0:0:0:
226,37,79849,6,0,L|186:82,1,60.4166666666667,2|0,0:0|0:0,0:0:0:0:
186,82,79987,2,0,L|146:127,1,60.4166666666667
146,127,80125,2,0,L|106:172,1,60.4166666666667
106,172,80263,2,0,L|119:230,1,60.4166666666667
120,230,80401,2,0,L|133:288,1,60.4166666666667
134,289,80539,2,0,L|147:347,1,60.4166666666667
146,347,80677,6,0,P|92:350|39:362,1,108.75
39,361,80883,6,0,P|131:306|238:295,1,217.5
238,295,81090,6,0,P|148:268|52:278,1,190.312507259846,2|0,0:0|0:0,0:0:0:0:
53,277,81504,6,0,B|63:228|63:228|37:25,1,253.75,6|0,0:0|0:0,0:0:0:0:
38,26,81918,6,0,L|82:36,1,45.3125,14|0,0:0|0:0,0:0:0:0:
82,36,82021,2,0,L|47:73,1,45.3125
50,68,82125,2,0,L|94:78,1,45.3125,2|0,0:0|0:0,0:0:0:0:
94,78,82228,6,0,L|108:185,1,108.75,2|0,0:0|0:0,0:0:0:0:
108,185,82435,6,0,L|144:144,1,54.3750020742417
144,144,82539,6,0,L|158:251,1,108.75,2|0,0:0|0:0,0:0:0:0:
158,251,82746,2,0,L|135:357,1,108.75,14|0,0:0|0:0,0:0:0:0:
135,357,82952,6,0,L|125:303,1,54.3750020742417,2|0,0:0|0:0,0:0:0:0:
125,303,83056,6,0,B|198:342|198:342|223:342,1,108.75,2|0,0:0|0:0,0:0:0:0:
223,342,83263,2,0,B|248:342|248:342|321:381,1,108.75
321,381,83470,6,0,L|375:375,1,54.3750020742417
375,375,83573,6,0,B|423:348|423:348|476:344,1,108.75,14|0,0:0|0:0,0:0:0:0:
476,344,83780,2,0,B|422:340|422:340|374:313,1,108.75,2|0,0:0|0:0,0:0:0:0:
374,313,83987,6,0,B|330:316|330:316|239:299,1,135.9375,2|0,0:0|0:0,0:0:0:0:
239,299,84194,2,0,B|258:259|258:259|317:189,1,135.9375,2|0,0:0|0:0,0:0:0:0:
317,189,84401,6,0,L|333:118,2,72.5000027656556,14|0|0,0:0|0:0|0:0,0:0:0:0:
317,189,84608,2,0,L|355:250,2,72.5000027656556,2|0|0,0:0|0:0|0:0,0:0:0:0:
317,189,84814,6,0,B|284:204|284:204|212:213,1,108.75,2|0,0:0|0:0,0:0:0:0:
212,213,85021,2,0,B|140:222|140:222|107:237,1,108.75
107,237,85228,6,0,P|70:180|76:114,1,135.9375,14|0,0:0|0:0,0:0:0:0:
76,114,85435,6,0,L|51:65,1,54.3750020742417,2|0,0:0|0:0,0:0:0:0:
51,65,85539,2,0,L|100:87,1,54.3750020742417,2|0,0:0|0:0,0:0:0:0:
100,87,85642,6,0,L|207:103,1,108.75,2|0,0:0|0:0,0:0:0:0:
207,103,85849,2,0,L|307:60,1,108.75,2|0,0:0|0:0,0:0:0:0:
307,60,86056,6,0,P|342:117|346:184,1,135.9375,14|0,0:0|0:0,0:0:0:0:
346,184,86263,6,0,L|278:156,2,72.5000027656556,2|0|0,0:0|0:0|0:0,0:0:0:0:
346,184,86470,6,0,P|389:241|447:284,1,145,2|2,0:0|0:0,0:0:0:0:
447,284,86728,6,0,P|324:226|191:198,1,271.875010371209
191,197,87039,6,0,P|399:197|509:20,1,435
509,20,87401,6,0,P|195:104|87:191,1,453.125
98,179,87711,6,0,B|39:229|47:333|122:371|233:373|341:352|481:226|482:98|473:-11|384:-62|286:-84|167:-84|-5:5|28:176|72:296|175:350|299:374|414:375|485:279|444:205|285:183,1,1450,6|2,0:0|0:0,0:0:0:0:
291,184,88177,6,0,P|296:228|311:271,1,90.625
311,271,88332,6,0,L|371:311,2,72.5000027656556,2|0|0,0:0|0:0|0:0,0:0:0:0:
311,271,88539,2,0,L|238:269,2,72.5000027656556,14|0|0,0:0|0:0|0:0,0:0:0:0:
311,271,88746,6,0,P|357:244|390:201,1,108.75,2|0,0:0|0:0,0:0:0:0:
390,201,88952,2,0,P|444:201|493:180,1,108.75,2|0,0:0|0:0,0:0:0:0:
493,179,89159,6,0,P|412:172|350:121,1,163.125006222725
350,121,89366,2,0,P|353:201|311:270,1,163.125006222725,14|0,0:0|0:0,0:0:0:0:
311,270,89573,6,0,L|257:260,1,54.3750020742417,2|0,0:0|0:0,0:0:0:0:
257,260,89677,6,0,L|262:304,1,45.3125,2|0,0:0|0:0,0:0:0:0:
262,304,89780,6,0,L|153:316,1,108.75,2|0,0:0|0:0,0:0:0:0:
153,316,89987,6,0,L|149:270,1,45.3125,2|0,0:0|0:0,0:0:0:0:
149,270,90090,6,0,L|257:282,1,108.75
257,282,90297,6,0,L|260:236,1,45.3125
260,236,90401,6,0,L|151:248,1,108.75,2|0,0:0|0:0,0:0:0:0:
150,248,90608,6,0,P|73:229|32:161,1,163.125006222725,2|0,0:0|0:0,0:0:0:0:
32,161,90814,6,0,L|20:77,2,84.5833341399829,2|0|0,0:0|0:0|0:0,0:0:0:0:
32,161,91021,2,0,L|17:244,2,84.5833341399829,14|0|0,0:0|0:0|0:0,0:0:0:0:
32,161,91228,6,0,L|113:165,1,81.5625031113626,2|0,0:0|0:0,0:0:0:0:
113,164,91435,6,0,P|203:111|213:7,1,217.5,2|0,0:0|0:0,0:0:0:0:
214,8,91642,6,0,L|129:17,2,84.5833341399829,2|0|0,0:0|0:0|0:0,0:0:0:0:
214,8,91849,6,0,P|217:87|273:144,1,163.125006222725,14|0,0:0|0:0,0:0:0:0:
273,144,92056,6,0,L|408:131,1,135.9375,2|0,0:0|0:0,0:0:0:0:
408,131,92263,6,0,B|432:180|432:180|422:233,1,108.75,2|0,0:0|0:0,0:0:0:0:
422,233,92470,6,0,L|376:231,1,45.3125,2|0,0:0|0:0,0:0:0:0:
376,231,92573,6,0,B|372:285|372:285|337:326,1,108.75,2|0,0:0|0:0,0:0:0:0:
336,326,92780,6,0,L|297:301,1,45.3125,2|0,0:0|0:0,0:0:0:0:
297,301,92883,6,0,B|266:346|266:346|215:364,1,108.75,2|0,0:0|0:0,0:0:0:0:
215,364,93090,6,0,P|129:325|36:337,1,190.312501814961,2|0,0:0|0:0,0:0:0:0:
36,337,93297,6,0,L|15:267,2,72.5000027656556,2|0|0,0:0|0:0|0:0,0:0:0:0:
36,337,93504,6,0,L|90:349,1,45.3125,14|0,0:0|0:0,0:0:0:0:
80,346,93608,2,0,L|65:303,1,45.3125
65,303,93711,6,0,P|82:252|72:199,1,108.75,2|0,0:0|0:0,0:0:0:0:
72,199,93918,6,0,L|97:122,1,81.5625031113626,2|0,0:0|0:0,0:0:0:0:
97,121,94125,2,0,L|50:54,1,81.5625031113626,2|0,0:0|0:0,0:0:0:0:
50,54,94332,6,0,L|45:80,1,27.1875010371209,14|0,0:0|0:0,0:0:0:0:
45,80,94383,2,0,L|59:103,1,27.1875010371209
59,103,94435,2,0,L|54:129,1,27.1875010371209
54,129,94487,2,0,L|68:152,1,27.1875010371209
68,152,94539,2,0,L|63:178,1,27.1875010371209
63,178,94590,2,0,L|77:201,1,27.1875010371209
77,201,94642,2,0,L|72:227,1,27.1875010371209
72,227,94694,2,0,L|86:250,1,27.1875010371209
86,250,94746,6,0,L|71:302,1,54.3750020742417,2|0,0:0|0:0,0:0:0:0:
71,302,94849,2,0,L|121:321,1,54.3750020742417
121,321,94952,2,0,L|158:360,1,54.3750020742417,2|0,0:0|0:0,0:0:0:0:
158,359,95056,2,0,L|200:324,1,54.3750020742417
200,324,95159,2,0,L|252:310,1,54.3750020742417,14|0,0:0|0:0,0:0:0:0:
251,310,95263,2,0,L|242:256,1,54.3750020742417
242,256,95366,6,0,L|268:198,1,63.4375006049872,2|0,0:0|0:0,0:0:0:0:
268,198,95470,2,0,L|251:136,1,63.4375006049872,2|0,0:0|0:0,0:0:0:0:
251,136,95573,6,0,L|280:84,1,54.3750020742417,2|0,0:0|0:0,0:0:0:0:
277,88,95677,2,0,L|318:122,1,54.3750020742417
318,122,95780,6,0,L|316:9,1,108.750004148483,2|0,0:0|0:0,0:0:0:0:
316,13,95883,2,0,L|350:116,1,108.750004148483,2|0,0:0|0:0,0:0:0:0:
350,115,95987,6,0,L|378:85,1,40.7812515556813,14|0,0:0|0:0,0:0:0:0:
378,85,96090,2,0,L|381:125,1,40.7812515556813,2|0,0:0|0:0,0:0:0:0:
381,125,96194,6,0,L|423:110,1,45.3125,2|0,0:0|0:0,0:0:0:0:
423,110,96297,2,0,L|391:152,1,45.3125,2|0,0:0|0:0,0:0:0:0:
395,146,96401,6,0,B|430:271|430:271|449:298,1,163.125006222725,2|0,0:0|0:0,0:0:0:0:
449,298,96608,6,0,L|454:216,1,81.5625031113626,2|0,0:0|0:0,0:0:0:0:
454,216,96711,6,0,L|419:347,1,135.9375
419,347,96918,6,0,L|383:341,1,36.25
383,341,97021,2,0,L|355:365,1,36.25,2|0,0:0|0:0,0:0:0:0:
355,364,97125,2,0,L|319:358,1,36.25,2|0,0:0|0:0,0:0:0:0:
319,358,97228,6,0,L|354:255,1,108.750004148483,2|0,0:0|0:0,0:0:0:0:
354,255,97332,6,0,L|337:165,1,90.625
337,165,97435,6,0,L|353:94,1,72.5
353,94,97539,6,0,L|344:40,1,54.3750020742417,2|0,0:0|0:0,0:0:0:0:
344,40,97642,6,0,P|281:28|218:35,1,126.875001209974,6|2,0:0|0:0,0:0:0:0:
218,35,97797,6,0,L|183:93,1,54.3750020742417
189,81,97849,6,0,L|104:49,1,90.625,2|0,0:0|0:0,0:0:0:0:
104,49,97952,6,0,L|37:62,1,63.4375006049872,2|0,0:0|0:0,0:0:0:0:
41,61,98056,6,0,B|48:186|48:186|65:219,1,163.125006222725,2|0,0:0|0:0,0:0:0:0:
65,219,98263,2,0,B|190:226|190:226|223:243,1,163.125006222725,2|0,0:0|0:0,0:0:0:0:
223,243,98470,6,0,L|141:266,1,72.5,14|0,0:0|0:0,0:0:0:0:
153,262,98573,6,0,L|21:357,1,163.125006222725
21,357,98780,6,0,L|83:348,1,63.4375006049872,2|0,0:0|0:0,0:0:0:0:
83,348,98883,6,0,L|102:367,1,27.1875010371209,2|0,0:0|0:0,0:0:0:0:
102,367,98987,6,0,L|164:358,1,63.4375006049872
164,358,99090,6,0,L|183:377,1,27.1875010371209,2|0,0:0|0:0,0:0:0:0:
183,377,99194,6,0,L|345:362,1,163.125006222725
345,362,99401,6,0,L|364:381,1,27.1875010371209,2|0,0:0|0:0,0:0:0:0:
364,381,99504,6,0,L|500:370,1,135.9375,2|0,0:0|0:0,0:0:0:0:
499,369,99711,6,0,P|498:288|482:208,1,163.125006222725,2|0,0:0|0:0,0:0:0:0:
482,208,99918,6,0,L|428:199,1,54.3750020742417,2|0,0:0|0:0,0:0:0:0:
428,199,100021,2,0,L|477:177,1,54.3750020742417
477,176,100125,6,0,P|382:126|331:32,1,217.5,14|0,0:0|0:0,0:0:0:0:
331,32,100332,6,0,L|376:28,1,45.3125
376,28,100435,6,0,L|376:82,1,54.3750020742417
376,82,100487,2,0,L|352:131,1,54.3750020742417
352,131,100539,6,0,L|328:92,1,45.3125,2|0,0:0|0:0,0:0:0:0:
328,92,100590,2,0,L|283:81,1,45.3125
283,81,100642,6,0,L|267:133,1,54.3750020742417
267,133,100694,2,0,L|231:91,1,54.3750020742417
231,91,100746,6,0,L|178:164,1,90.625,2|0,0:0|0:0,0:0:0:0:
178,164,100849,6,0,L|203:151,1,27.1875010371209,2|0,0:0|0:0,0:0:0:0:
202,151,100901,2,0,L|228:156,1,27.1875010371209
228,156,100952,2,0,L|253:143,1,27.1875010371209,14|0,0:0|0:0,0:0:0:0:
252,143,101004,2,0,L|278:148,1,27.1875010371209
278,148,101056,2,0,L|303:135,1,27.1875010371209,2|0,0:0|0:0,0:0:0:0:
302,135,101108,2,0,L|328:140,1,27.1875010371209
328,140,101159,2,0,L|353:127,1,27.1875010371209,2|0,0:0|0:0,0:0:0:0:
352,127,101211,2,0,L|378:132,1,27.1875010371209
378,132,101263,2,0,L|403:119,1,27.1875010371209,2|0,0:0|0:0,0:0:0:0:
402,119,101314,2,0,L|428:124,1,27.1875010371209
428,124,101366,6,0,B|398:60|325:29|267:73|253:101|269:151|334:186|334:186|412:239|427:298|377:376|264:410|178:352|171:247|211:200,1,761.250029039384,6|0,0:0|0:0,0:0:0:0:
210,200,101780,6,0,L|193:130,1,72.5,14|0,0:0|0:0,0:0:0:0:
193,130,101883,2,0,L|206:42,1,72.5
203,58,101987,2,0,L|138:90,1,72.5,2|0,0:0|0:0,0:0:0:0:
138,90,102090,2,0,L|67:73,1,72.5,2|0,0:0|0:0,0:0:0:0:
67,73,102194,6,0,B|89:192|89:192|79:232,1,163.125006222725,2|0,0:0|0:0,0:0:0:0:
79,232,102401,6,0,L|9:252,1,72.5,2|0,0:0|0:0,0:0:0:0:
9,252,102504,2,0,L|77:275,1,72.5
77,275,102608,6,0,L|63:327,1,54.3750020742417,14|0,0:0|0:0,0:0:0:0:
63,327,102711,6,0,L|96:339,1,36.25,2|0,0:0|0:0,0:0:0:0:
96,339,102763,2,0,L|127:322,1,36.25,2|0,0:0|0:0,0:0:0:0:
127,321,102814,2,0,L|271:312,1,145,2|2,0:0|0:0,0:0:0:0:
271,312,103021,6,0,B|384:310|481:295|550:248|502:204|372:193|296:203,1,435.000016593934,2|2,0:0|0:0,0:0:0:0:
297,203,103280,6,0,L|224:209,1,72.5
224,208,103332,6,0,P|178:211|133:206,1,90.625
133,206,103435,6,0,B|87:226|87:226|105:268,2,96.6666666666667,14|0|0,0:0|0:0|0:0,0:0:0:0:
133,206,103642,2,0,B|181:217|181:217|170:263,2,96.6666666666667,2|0|0,0:0|0:0|0:0,0:0:0:0:
133,206,103849,6,0,L|43:194,1,90.625,2|0,0:0|0:0,0:0:0:0:
43,194,103952,2,0,L|137:174,1,90.625
131,175,104056,6,0,L|68:81,1,108.750004148483,2|0,0:0|0:0,0:0:0:0:
70,84,104159,6,0,B|41:9|210:-2|172:114|207:195|352:58|352:58|402:89|408:138|408:138|377:118,1,507.500004839897,2|2,0:0|0:0,0:0:0:0:
376,117,104418,6,0,L|389:188,1,72.5
389,188,104470,6,0,L|450:226,1,72.5,2|0,0:0|0:0,0:0:0:0:
450,226,104573,2,0,L|432:296,1,72.5,2|0,0:0|0:0,0:0:0:0:
432,296,104677,6,0,B|222:304|222:304|192:321,1,244.687509334088,6|0,0:0|0:0,0:0:0:0:
192,321,104883,6,0,L|101:328,1,90.625,2|0,0:0|0:0,0:0:0:0:
101,328,104987,2,0,L|22:372,1,90.625
22,372,105090,6,0,B|155:292|141:51|-8:200|-5:256|59:267|51:233,1,326.25001244545,14|0,0:0|0:0,0:0:0:0:
51,241,105194,6,0,L|53:284,1,27.1875010371209
52,268,105246,2,0,L|38:291,1,27.1875010371209
38,291,105297,2,0,L|61:327,1,27.1875010371209,2|0,0:0|0:0,0:0:0:0:
52,313,105349,2,0,L|52:339,1,27.1875010371209
52,340,105401,2,0,L|90:359,1,27.1875010371209,2|0,0:0|0:0,0:0:0:0:
75,352,105452,2,0,L|88:374,1,27.1875010371209
88,375,105504,6,0,L|178:366,1,90.625,2|0,0:0|0:0,0:0:0:0:
178,366,105608,6,0,L|192:294,1,72.5
192,294,105711,6,0,B|223:326|223:326|266:340,1,90.625,2|0,0:0|0:0,0:0:0:0:
266,340,105814,2,0,B|308:352|308:352|353:342,1,90.625,2|0,0:0|0:0,0:0:0:0:
353,342,105918,6,0,B|400:173|400:173|433:147,1,217.5,14|0,0:0|0:0,0:0:0:0:
433,147,106125,2,0,B|457:181|457:181|449:356,1,217.5,2|0,0:0|0:0,0:0:0:0:
449,356,106332,6,0,L|330:111,1,271.875,2|0,0:0|0:0,0:0:0:0:
330,111,106539,6,0,L|248:39,1,108.750004148483,2|0,0:0|0:0,0:0:0:0:
248,39,106642,6,0,L|206:307,1,271.875,2|0,0:0|0:0,0:0:0:0:
206,307,106849,6,0,L|104:345,1,108.750004148483,2|0,0:0|0:0,0:0:0:0:
104,345,106952,6,0,L|220:99,1,271.875,2|0,0:0|0:0,0:0:0:0:
219,99,107159,6,0,L|116:62,1,108.750004148483,14|0,0:0|0:0,0:0:0:0:
116,62,107263,6,0,L|84:29,1,45.3125,2|0,0:0|0:0,0:0:0:0:
84,29,107314,2,0,L|38:30,1,45.3125
38,30,107366,2,0,L|49:119,1,90.625,2|0,0:0|0:0,0:0:0:0:
49,119,107470,6,0,L|92:130,1,45.3125,2|0,0:0|0:0,0:0:0:0:
92,130,107521,2,0,L|137:132,1,45.3125
137,132,107573,2,0,L|180:143,1,45.3125,14|0,0:0|0:0,0:0:0:0:
180,143,107625,2,0,L|225:145,1,45.3125
225,145,107677,2,0,L|268:156,1,45.3125,2|0,0:0|0:0,0:0:0:0:
268,156,107728,2,0,L|313:158,1,45.3125
313,158,107780,2,0,L|356:169,1,45.3125,2|0,0:0|0:0,0:0:0:0:
356,169,107832,2,0,L|401:171,1,45.3125
401,171,107883,2,0,L|444:182,1,45.3125,2|0,0:0|0:0,0:0:0:0:
444,182,107935,2,0,L|489:184,1,45.3125
489,183,107987,6,0,P|458:286|374:352,1,217.5,2|0,0:0|3:0,0:0:0:0:
374,352,108194,2,0,P|269:327|197:248,1,217.5,0|0,0:0|3:0,0:0:0:0:
197,247,108401,2,0,P|235:147|322:85,1,217.5,0|0,0:0|3:0,0:0:0:0:
322,85,108608,2,0,P|352:188|328:293,1,217.5,0|0,0:0|3:0,0:0:0:0:
328,293,108814,6,0,L|278:314,1,54.3750020742417,0|0,0:0|3:0,0:0:0:0:
278,314,108918,2,0,L|240:353,1,54.3750020742417,0|0,0:0|3:0,0:0:0:0:
240,353,109021,2,0,L|189:333,1,54.3750020742417,0|0,0:0|3:0,0:0:0:0:
189,333,109125,2,0,L|139:355,1,54.3750020742417,0|0,0:0|3:0,0:0:0:0:
139,355,109228,2,0,L|105:312,1,54.3750020742417,0|0,0:0|3:0,0:0:0:0:
105,312,109332,2,0,L|85:368,1,54.3750020742417,0|0,0:0|3:0,0:0:0:0:
86,363,109435,2,0,L|73:311,1,54.3750020742417,0|0,0:0|3:0,0:0:0:0:
72,310,109539,2,0,L|60:363,1,54.3750020742417,0|0,0:0|3:0,0:0:0:0:
60,363,109642,6,0,P|246:3|401:377,1,1015.00000967979,6|0,0:0|3:0,0:0:0:0:
256,192,110108,12,0,111090,3:0:0:0:
