osu file format v14

[General]
AudioFilename: audio.mp3
AudioLeadIn: 0
PreviewTime: 153723
Countdown: 1
SampleSet: Normal
StackLeniency: 0
Mode: 0
LetterboxInBreaks: 0
WidescreenStoryboard: 1

[Editor]
Bookmarks: 42099,56113,70086,84142,98157,112171,126186,140201,154215,168230
DistanceSpacing: 1.5
BeatDivisor: 8
GridSize: 8
TimelineZoom: 2.69

[Metadata]
Title:D.∇.И.C.Е.! (kotonohouse Remix)
TitleUnicode:D.∇.И.C.Е.! (kotonohouse Remix)
Artist:DJ Yoshitaka
ArtistUnicode:DJ Yoshitaka
Creator:ikorza
Version:Grandmaster
Source:
Tags:AGELOW(LADY'S ONLY) TIME DILATION MIX D.A.N.C.E.! DANCE!
BeatmapID:1417858
BeatmapSetID:649955

[Difficulty]
HPDrainRate:7
CircleSize:3.69
OverallDifficulty:8
ApproachRate:9
SliderMultiplier:1.69
SliderTickRate:1

[Events]
//Background and Video events
0,0,"bg.png",0,0
//Break Periods
//Storyboard Layer 0 (Background)
//Storyboard Layer 1 (Fail)
//Storyboard Layer 2 (Pass)
//Storyboard Layer 3 (Foreground)
//Storyboard Sound Samples

[TimingPoints]
100,1714.28571428571,4,1,0,40,1,0
42099,437.956204379562,4,1,0,40,1,0
56113,-83.3333333333333,4,1,0,40,0,0
70128,-66.6666666666667,4,1,0,40,0,0
70785,-44.4444444444445,4,1,0,40,0,0
71004,-66.6666666666667,4,1,0,40,0,0
72536,-33.3333333333333,4,1,0,40,0,0
72755,-66.6666666666667,4,1,0,40,0,0
75164,-33.3333333333333,4,1,0,40,0,0
75383,-66.6666666666667,4,1,0,40,0,0
76040,-33.3333333333333,4,1,0,40,0,0
76259,-133.333333333333,4,1,0,40,0,0
77135,-66.6666666666667,4,1,0,40,0,0
77792,-33.3333333333333,4,1,0,40,0,0
78011,-66.6666666666667,4,1,0,40,0,0
78449,-133.333333333333,4,1,0,40,0,0
78887,-66.6666666666667,4,1,0,40,0,0
79544,-33.3333333333333,4,1,0,40,0,0
79763,-66.6666666666667,4,1,0,40,0,0
82171,-33.3333333333333,4,1,0,40,0,0
82609,-16.6666666666667,4,1,0,40,0,0
84142,-55.5555555555556,4,1,0,40,0,1
86770,-27.7777777777779,4,1,0,40,0,1
87646,-55.5555555555556,4,1,0,40,0,1
88522,-27.7777777777779,4,1,0,40,0,1
89398,-55.5555555555556,4,1,0,40,0,1
93777,-27.7777777777779,4,1,0,40,0,1
94653,-55.5555555555556,4,1,0,40,0,1
95529,-27.7777777777779,4,1,0,40,0,1
96405,-55.5555555555556,4,1,0,40,0,1
97281,-27.7777777777779,4,1,0,40,0,1
98157,-83.3333333333333,4,1,0,40,0,0
103057,656.934306569343,4,1,0,40,1,0
103412,437.956204379562,4,1,0,40,1,0
103412,-83.3333333333333,4,1,0,40,0,0
140201,-66.6666666666667,4,1,0,40,0,0
154215,-55.5555555555556,4,1,0,40,0,1
156842,-27.7777777777779,4,1,0,40,0,1
157718,-55.5555555555556,4,1,0,40,0,1
158594,-27.7777777777779,4,1,0,40,0,1
159470,-55.5555555555556,4,1,0,40,0,1
163849,-27.7777777777779,4,1,0,40,0,1
164725,-55.5555555555556,4,1,0,40,0,1
165601,-27.7777777777779,4,1,0,40,0,1
166477,-55.5555555555556,4,1,0,40,0,1
168230,-1E+69,4,1,0,40,0,0

[HitObjects]
256,192,37814,12,0,41989,0:0:0:0:
172,185,42099,6,0,L|256:192,1,84.5
308,137,42427,2,0,P|330:173|327:215,1,84.5
346,292,42755,2,0,P|325:256|327:221,1,63.375
397,236,42974,6,0,L|439:239,1,42.25
233,264,43193,2,0,L|191:261,1,42.25
34,203,43412,1,0,0:0:0:0:
39,201,43631,1,0,0:0:0:0:
126,192,43850,6,0,L|99:269,1,63.375
98,271,44069,2,0,P|119:306|117:342,1,63.375
42,324,44288,2,0,P|20:288|24:247,1,84.5
43,319,44726,1,0,0:0:0:0:
43,313,45164,1,0,0:0:0:0:
57,175,45602,6,0,L|63:90,1,84.5
23,247,45931,2,0,L|30:160,1,84.5
43,324,46259,2,0,L|49:244,1,63.375
95,201,46478,6,0,P|136:198|172:219,1,84.5
225,164,46807,1,0,0:0:0:0:
172,219,46916,2,0,P|207:240|249:237,1,84.5
292,124,47354,6,0,L|215:151,1,63.375
225,164,47573,2,0,P|246:199|244:235,1,63.375
171,219,47792,2,0,P|149:184|151:143,1,84.5
175,216,48230,1,0,0:0:0:0:
179,213,48558,1,0,0:0:0:0:
183,210,48887,1,0,0:0:0:0:
434,79,49106,6,0,L|518:86,1,84.5
382,24,49434,2,0,P|360:60|363:102,1,84.5
344,179,49763,2,0,P|365:143|363:108,1,63.375
292,124,49982,6,0,L|208:116,1,84.5
123,108,50310,1,0,0:0:0:0:
257,47,50420,2,0,L|208:115,1,84.5
257,47,50858,6,0,L|208:115,1,84.5
158,185,51186,1,0,0:0:0:0:
172,39,51296,2,0,L|207:115,1,84.5
172,39,51734,6,0,L|207:115,1,84.5
241,194,52062,1,0,0:0:0:0:
123,108,52171,2,0,L|206:115,1,84.5
191,266,52609,6,0,L|277:273,1,84.5
120,231,52938,2,0,L|206:238,1,84.5
44,252,53266,2,0,L|123:258,1,63.375
180,281,53485,6,0,P|183:240|162:204,1,84.5
217,150,53814,1,0,0:0:0:0:
162,204,53923,2,0,P|141:169|144:127,1,84.5
144,126,54361,6,0,P|147:84|126:48,1,84.5
71,102,54690,1,0,0:0:0:0:
219,65,54799,2,0,L|239:60,3,21.125
334,78,55018,1,0,0:0:0:0:
339,57,55128,1,0,0:0:0:0:
366,170,55237,5,0,0:0:0:0:
302,244,55456,1,0,0:0:0:0:
207,226,55675,1,0,0:0:0:0:
175,134,55894,1,0,0:0:0:0:
302,244,56113,6,0,L|352:288,1,50.6999984527588
378,310,56332,2,0,L|339:276,1,50.6999984527588
252,240,56551,6,0,L|319:245,1,50.6999984527588
353,248,56770,2,0,L|302:243,1,50.6999984527588
208,265,56989,6,0,L|300:211,1,101.399996905518
187,310,57317,6,0,L|232:213,1,101.399996905518
223,215,57646,1,0,0:0:0:0:
217,212,57755,1,0,0:0:0:0:
137,175,57865,6,0,P|115:130|124:84,1,76.0499976791382
125,81,58084,1,0,0:0:0:0:
142,62,58193,1,0,0:0:0:0:
192,123,58303,2,0,P|208:75|247:49,1,76.0499976791382
249,48,58522,1,0,0:0:0:0:
275,46,58631,1,0,0:0:0:0:
272,126,58741,6,0,L|229:217,1,101.399996905518
186,309,59069,2,0,L|231:212,1,101.399996905518
234,214,59398,1,0,0:0:0:0:
240,212,59507,1,0,0:0:0:0:
362,167,59617,6,0,P|409:181|437:219,1,76.0499976791382
440,220,59836,1,0,0:0:0:0:
444,246,59945,1,0,0:0:0:0:
365,244,60055,2,0,P|388:288|379:334,1,76.0499976791382
378,337,60274,1,0,0:0:0:0:
361,355,60383,1,0,0:0:0:0:
310,297,60493,6,0,L|215:263,1,101.399996905518
291,197,60821,1,0,0:0:0:0:
197,163,60931,2,0,L|214:262,1,101.399996905518
136,325,61259,1,0,0:0:0:0:
79,273,61369,6,0,P|57:318|66:364,1,76.0499976791382
136,325,61588,2,0,L|180:288,1,50.6999984527588
79,273,61807,6,0,P|124:295|170:286,1,76.0499976791382
131,216,62026,2,0,L|94:172,1,50.6999984527588
42,124,62244,6,0,P|20:169|29:215,1,76.0499976791382
99,176,62463,2,0,L|143:139,1,50.6999984527588
42,124,62682,6,0,P|87:146|133:137,1,76.0499976791382
94,67,62901,2,0,L|57:23,1,50.6999984527588
287,43,63120,6,0,L|236:38,1,50.6999984527588
186,33,63339,2,0,L|237:38,1,50.6999984527588
286,133,63558,6,0,L|235:138,1,50.6999984527588
186,143,63777,2,0,L|236:138,1,50.6999984527588
114,214,63996,6,0,L|186:143,1,101.399996905518
287,43,64325,6,0,L|215:114,1,101.399996905518
217,120,64653,1,0,0:0:0:0:
219,126,64763,1,0,0:0:0:0:
267,244,64872,6,0,P|314:230|345:191,1,76.0499976791382
345,191,65091,1,0,0:0:0:0:
350,165,65201,1,0,0:0:0:0:
271,169,65310,2,0,P|294:125|285:79,1,76.0499976791382
284,76,65529,1,0,0:0:0:0:
267,57,65639,1,0,0:0:0:0:
417,68,65748,6,0,L|345:139,1,101.399996905518
442,165,66077,1,0,0:0:0:0:
369,237,66186,2,0,L|344:139,1,101.399996905518
248,112,66515,1,0,0:0:0:0:
151,139,66624,6,0,L|127:229,1,76.0499976791382
126,237,66843,1,0,0:0:0:0:
121,262,66953,1,0,0:0:0:0:
248,112,67062,2,0,L|248:197,1,76.0499976791382
248,213,67281,1,0,0:0:0:0:
248,238,67390,1,0,0:0:0:0:
325,109,67500,6,0,P|308:61|263:34,1,101.399996905518
402,106,67828,1,0,0:0:0:0:
383,182,67938,2,0,P|341:156|325:109,1,101.399996905518
248,112,68266,1,0,0:0:0:0:
383,182,68376,6,0,P|433:179|468:149,1,76.0499976791382
401,106,68595,2,0,L|350:91,1,50.6999984527588
489,73,68814,6,0,P|486:22|456:-13,1,76.0499976791382
415,57,69033,2,0,L|398:111,1,50.6999984527588
489,73,70128,6,0,B|478:113|478:113|488:154|488:154|477:195,1,126.750004835129
410,73,70456,2,0,B|399:113|399:113|409:154|409:154|398:195,1,126.750004835129
331,73,70785,6,0,B|320:113|320:113|330:154|330:154|319:195,1,126.750004835129
358,261,71004,5,0,0:0:0:0:
319,195,71150,5,0,0:0:0:0:
281,262,71296,5,0,0:0:0:0:
397,195,71442,6,0,L|451:163,1,63.3750024175645
344,252,71880,6,0,P|317:197|342:141,1,126.750004835129
344,252,72208,2,0,P|282:246|246:197,1,126.750004835129
344,252,72536,6,0,P|307:302|247:309,1,126.750004835129
268,235,72755,5,0,0:0:0:0:
262,228,72865,1,0,0:0:0:0:
319,179,72974,1,0,0:0:0:0:
322,171,73084,1,0,0:0:0:0:
344,252,73193,6,0,P|307:302|247:309,1,126.750004835129
279,112,73631,6,0,B|268:152|268:152|278:193|278:193|266:240,1,126.750004835129
123,297,74069,2,0,B|163:308|163:308|204:298|204:298|251:310,1,126.750004835129
60,152,74507,2,0,B|49:192|49:192|59:233|59:233|47:280,1,126.750004835129
204,90,74836,2,0,B|164:79|164:79|123:89|123:89|76:77,1,126.750004835129
82,79,75164,6,0,B|71:119|71:119|81:160|81:160|70:201,1,126.750004835129
148,301,75383,6,0,P|204:276|260:302,1,126.750004835129
260,302,75712,2,0,P|203:326|147:300,1,126.750004835129
94,355,76040,6,0,P|69:298|95:242,1,126.750004835129
313,246,76259,6,0,P|337:302|311:358,1,126.750004835129
271,179,77135,6,0,B|260:219|260:219|270:260|270:260|258:307,1,126.750004835129
362,56,77463,2,0,B|351:96|351:96|361:137|361:137|350:178,1,126.750004835129
350,179,77792,6,0,B|339:219|339:219|349:260|349:260|338:301,1,126.750004835129
423,198,78011,5,0,0:0:0:0:
403,123,78120,1,0,0:0:0:0:
369,253,78230,2,0,L|344:347,1,63.3750024175645
403,123,78449,6,0,L|418:61,1,63.3750024175645
350,179,78887,6,0,P|408:201|462:171,1,126.750004835129
350,179,79215,2,0,P|361:240|413:271,1,126.750004835129
350,179,79544,6,0,P|303:220|301:280,1,126.750004835129
373,254,79763,5,0,0:0:0:0:
379,258,79872,1,0,0:0:0:0:
424,198,79982,1,0,0:0:0:0:
431,195,80091,1,0,0:0:0:0:
350,179,80201,6,0,P|303:220|301:280,1,126.750004835129
179,293,80639,6,0,B|219:282|219:282|260:292|260:292|301:281,1,126.750004835129
363,138,81077,2,0,B|374:178|374:178|364:219|364:219|374:260,1,126.750004835129
323,35,81515,2,0,B|363:24|363:24|404:34|404:34|451:22,1,126.750004835129
261,179,81844,2,0,B|250:139|250:139|260:98|260:98|248:51,1,126.750004835129
249,56,82171,6,0,B|289:45|289:45|330:55|330:55|371:44,1,126.750004835129
465,96,82390,6,0,P|408:69|352:94,1,126.750004835129
409,260,82609,6,0,P|433:204|408:147,1,126.750004835129
408,147,82719,2,0,P|384:203|409:260,1,126.750004835129
256,192,82828,12,0,83266,0:0:0:0:
488,342,84142,6,0,B|439:330|439:330|390:342|390:342|328:326,1,152.099995358277
71,204,84580,2,0,B|120:216|120:216|169:204|169:204|231:220,1,152.099995358277
392,274,85018,6,0,P|341:253|289:273,1,114.074996518707
269,306,85237,1,0,0:0:0:0:
392,274,85347,6,0,P|380:211|331:181,1,114.074996518707
303,183,85566,1,0,0:0:0:0:
392,274,85675,6,0,P|439:232|440:176,1,114.074996518707
459,28,85894,6,0,P|408:80|426:151,1,152.099995358277
269,306,86332,2,0,P|320:254|301:181,1,152.099995358277
246,233,86661,1,0,0:0:0:0:
198,333,86770,6,0,P|251:382|323:361,2,152.099995358277
119,260,87099,2,0,P|190:280|245:233,2,152.099995358277
172,203,87427,1,0,0:0:0:0:
42,240,87536,1,0,0:0:0:0:
79,370,87646,6,0,B|128:382|128:382|177:370|177:370|226:382,1,152.099995358277
94,217,88084,2,0,B|138:230|138:230|187:218|187:218|242:232,1,152.099995358277
312,304,88412,1,0,0:0:0:0:
296,182,88522,6,0,P|225:158|168:212,2,152.099995358277
225,108,88850,2,0,P|168:62|99:86,2,152.099995358277
156,137,89179,5,0,0:0:0:0:
286,174,89288,1,0,0:0:0:0:
323,44,89398,6,0,L|479:87,1,152.099995358277
156,137,89836,2,0,L|302:178,1,152.099995358277
225,108,90274,6,0,P|202:77|168:62,2,76.0499976791383
337,138,90602,2,0,P|374:134|404:111,2,76.0499976791383
255,218,90931,2,0,P|239:252|244:292,1,76.0499976791383
462,277,91150,6,0,B|413:265|413:265|364:277|364:277|315:265,1,152.099995358277
25,301,91588,2,0,B|74:313|74:313|123:301|123:301|172:313,1,152.099995358277
121,256,92026,6,0,P|172:235|224:255,1,114.074996518707
243,289,92245,1,0,0:0:0:0:
121,256,92354,6,0,P|133:193|182:163,1,114.074996518707
210,165,92600,1,0,0:0:0:0:
121,256,92683,6,0,P|74:214|73:158,1,114.074996518707
51,8,92901,6,0,P|102:60|86:132,1,152.099995358277
244,288,93340,2,0,P|193:234|211:163,1,152.099995358277
331,141,93668,1,0,0:0:0:0:
269,215,93777,6,0,P|284:143|233:92,2,152.099995358277
331,142,94106,2,0,P|383:90|367:19,2,152.099995358277
308,68,94434,1,0,0:0:0:0:
280,197,94544,1,0,0:0:0:0:
150,166,94653,6,0,B|199:154|199:154|248:166|248:166|310:150,1,152.099995358277
161,311,95091,2,0,B|210:299|210:299|260:311|260:311|309:299,1,152.099995358277
430,267,95420,1,0,0:0:0:0:
371,346,95529,6,0,P|383:273|330:224,2,152.099995358277
430,267,95858,2,0,P|417:194|470:145,2,152.099995358277
330,224,96186,1,0,0:0:0:0:
389,145,96296,1,0,0:0:0:0:
348,22,96405,6,0,L|334:173,1,152.099995358277
320,325,96843,2,0,L|334:174,1,152.099995358277
486,160,97281,6,0,L|334:173,1,152.099995358277
182,186,97719,2,0,L|334:173,1,152.099995358277
