osu file format v14

[General]
AudioFilename: audio.mp3
AudioLeadIn: 0
PreviewTime: 58415
Countdown: 0
SampleSet: Soft
StackLeniency: 0.7
Mode: 0
LetterboxInBreaks: 1
WidescreenStoryboard: 1

[Editor]
Bookmarks: 25415,42111,58285,75502,92198,100545
DistanceSpacing: 1.5
BeatDivisor: 4
GridSize: 8
TimelineZoom: 1

[Metadata]
Title:wish
TitleUnicode:wish
Artist:DJ YOSHITAKA feat. Sugimora Kotomi
ArtistUnicode:DJ YOSHITAKA feat. 杉村ことみ
Creator:happy30
Version:Hard
Source:Beatmania IIDX
Tags:
BeatmapID:1510987
BeatmapSetID:715115

[Difficulty]
HPDrainRate:7
CircleSize:4.2
OverallDifficulty:8
ApproachRate:8.6
SliderMultiplier:2.1
SliderTickRate:1

[Events]
//Background and Video events
0,0,"Konachan.com - 222433 sample.jpg",0,0
//Break Periods
//Storyboard Layer 0 (Background)
//Storyboard Layer 1 (Fail)
//Storyboard Layer 2 (Pass)
//Storyboard Layer 3 (Foreground)
//Storyboard Sound Samples

[TimingPoints]
372,521.739130434783,4,1,0,80,1,0
6763,-100,4,1,0,55,0,0
7024,-100,4,1,0,80,0,0
7285,-100,4,1,0,55,0,0
7545,-100,4,1,0,80,0,0
25024,-200,4,1,0,80,0,0
25806,-200,4,1,0,80,0,0
26458,-100,4,2,0,80,0,0
31806,-100,4,2,0,55,0,0
32067,-100,4,2,0,80,0,0
32328,-100,4,2,0,55,0,0
32589,-100,4,2,0,80,0,0
32850,-100,4,2,0,55,0,0
33111,-100,4,2,0,80,0,0
33372,-100,4,2,0,55,0,0
33632,-100,4,2,0,80,0,0
40154,-100,4,2,0,55,0,0
40415,-100,4,2,0,80,0,0
40676,-100,4,2,0,55,0,0
40937,-100,4,2,0,80,0,0
56850,-100,4,2,0,55,0,0
57111,-100,4,2,0,80,0,0
57372,-100,4,2,0,55,0,0
57632,-100,4,2,0,80,0,0
58806,-100,4,1,0,80,0,1
67024,-100,4,1,0,80,0,0
67154,-100,4,1,0,80,0,1
75502,-100,4,2,0,80,0,0
83980,-100,4,2,0,32,0,0
90502,-100,4,2,0,45,0,0
91024,-100,4,2,0,75,0,0
92198,-100,4,2,0,80,0,0
100545,-100,4,1,0,80,0,1
108763,-100,4,2,0,5,0,1
108893,-100,4,2,0,5,0,0

[Colours]
Combo1 : 255,255,128
Combo2 : 128,255,128
Combo3 : 0,128,255
Combo4 : 213,170,170

[HitObjects]
416,40,6632,5,0,0:0:0:0:
416,40,6893,1,0,1:0:0:0:
280,112,7154,5,0,0:0:0:0:
280,112,7414,1,0,0:0:0:0:
344,264,7676,5,0,1:0:0:0:
360,264,7806,2,0,P|384:208|400:160,1,105,0|0,1:0|1:0,2:0:0:0:
464,256,8198,6,0,P|451:283|440:312,1,52.5,0|0,1:0|1:0,2:0:0:0:
472,248,8458,1,0,1:0:0:0:
256,224,8719,6,0,P|243:251|232:280,1,52.5,4|0,1:0|2:0,2:0:0:0:
248,208,8980,1,0,1:0:0:0:
320,88,9241,1,8,2:0:0:0:
176,160,9502,1,2,2:0:0:0:
160,80,9632,1,0,2:0:0:0:
176,176,9763,2,0,L|128:304,1,105,0|0,1:0|1:0,2:0:0:0:
0,136,10285,2,0,P|56:120|112:144,1,105,8|0,1:2|2:0,2:0:0:0:
208,304,10806,6,0,P|221:331|232:360,1,52.5,0|0,1:0|2:0,2:0:0:0:
216,288,11067,1,0,1:0:0:0:
320,200,11328,1,8,2:0:0:0:
472,208,11589,1,2,2:0:0:0:
392,272,11850,2,0,L|216:272,1,157.5,0|0,1:0|1:0,2:0:0:0:
208,248,12372,1,8,1:2:0:0:
160,312,12502,1,0,2:0:0:0:
96,264,12632,1,0,1:0:0:0:
232,136,12893,6,0,P|245:163|256:192,1,52.5,0|0,1:0|2:0,2:0:0:0:
240,120,13154,1,0,1:0:0:0:
168,0,13415,1,8,2:0:0:0:
336,160,13676,1,2,2:0:0:0:
352,80,13806,1,0,2:0:0:0:
336,176,13937,2,0,L|384:304,1,105,0|0,1:0|1:0,2:0:0:0:
512,136,14459,2,0,P|456:120|400:144,1,105,8|0,1:2|2:0,2:0:0:0:
208,336,14980,6,0,P|264:352|320:328,1,105,0|0,1:0|2:2,2:0:0:0:
128,280,15502,2,0,L|8:280,1,105,0|0,1:0|2:2,2:0:0:0:
120,272,16024,1,0,1:0:0:0:
240,176,16285,1,0,2:0:0:0:
192,328,16545,1,0,1:0:0:0:
112,168,16806,1,0,2:0:0:0:
312,296,17067,6,0,P|325:323|336:352,1,52.5,4|0,1:0|2:0,2:0:0:0:
320,280,17328,1,0,1:0:0:0:
192,88,17589,1,8,2:0:0:0:
376,136,17850,1,2,2:0:0:0:
403,212,17980,1,0,2:0:0:0:
373,119,18111,2,0,L|400:-14,1,105,0|0,1:0|1:0,2:0:0:0:
496,296,18633,2,0,P|440:312|384:288,1,105,8|0,1:2|2:0,2:0:0:0:
128,288,19154,6,0,P|115:315|104:344,1,52.5,0|0,1:0|2:0,2:0:0:0:
120,272,19415,1,0,1:0:0:0:
200,112,19676,1,8,2:0:0:0:
256,312,19937,1,2,2:0:0:0:
32,200,20198,2,0,L|208:200,1,157.5,0|0,1:0|1:0,2:0:0:0:
216,176,20720,1,8,1:2:0:0:
264,240,20850,1,0,2:0:0:0:
328,192,20980,1,0,1:0:0:0:
472,304,21241,6,0,P|459:331|448:360,1,52.5,0|0,1:0|2:0,2:0:0:0:
464,288,21502,1,0,1:0:0:0:
384,80,21763,1,8,2:0:0:0:
240,256,22024,1,2,2:0:0:0:
224,176,22154,1,0,2:0:0:0:
240,272,22285,2,0,L|192:400,1,105,0|0,1:0|1:0,2:0:0:0:
0,136,22807,2,0,P|56:120|112:144,1,105,8|0,1:2|2:0,2:0:0:0:
304,336,23328,6,0,P|248:352|192:328,1,105,0|0,1:0|2:2,2:0:0:0:
384,280,23850,2,0,L|504:280,1,105,0|0,1:0|2:2,2:0:0:0:
392,272,24372,1,0,1:0:0:0:
272,176,24633,1,0,2:0:0:0:
320,328,24893,1,0,1:0:0:0:
400,168,25154,6,0,P|409:112|400:66,1,105,0|0,0:0|0:0,2:0:0:0:
192,64,25937,2,0,P|183:120|192:166,1,105,0|0,2:0|1:0,2:0:0:0:
256,224,26719,1,0,2:0:0:0:
280,144,26980,1,0,1:0:0:0:
144,224,27241,1,0,2:0:0:0:
336,352,27502,6,0,P|389:343|439:352,1,105,0|0,1:0|0:0,0:0:0:0:
472,288,27893,2,8,P|389:269|315:283,1,157.5,0|0,1:0|1:0,2:0:0:0:
96,104,28545,2,0,P|38:111|16:112,1,52.5,0|0,1:0|2:0,0:0:0:0:
160,152,28806,2,0,L|272:168,1,105,0|0,1:0|1:0,2:0:0:0:
392,192,29328,1,0,0:0:0:0:
176,352,29589,6,0,P|123:343|73:352,1,105,0|0,1:0|0:0,0:0:0:0:
40,288,29980,2,8,P|123:269|196:283,1,157.5,0|0,1:0|1:0,2:0:0:0:
328,296,30632,2,0,L|336:360,1,52.5,0|0,1:0|2:0,0:0:0:0:
335,285,30893,1,0,1:0:0:0:
464,216,31154,1,0,1:0:0:0:
328,152,31415,1,0,0:0:0:0:
112,272,31676,5,0,1:0:0:0:
112,272,31937,1,0,1:0:0:0:
248,200,32198,5,0,1:0:0:0:
248,200,32458,1,0,1:0:0:0:
192,48,32719,5,0,1:0:0:0:
192,48,32980,1,0,1:0:0:0:
56,120,33241,5,0,1:0:0:0:
56,120,33502,1,0,1:0:0:0:
112,264,33763,6,0,L|240:288,1,105,0|0,1:0|0:0,0:0:0:0:
328,192,34154,2,0,P|256:164|184:192,1,157.5,0|0,1:0|1:0,0:0:0:0:
368,336,34806,2,0,P|392:304|400:280,1,52.5,0|0,1:0|2:0,0:0:0:0:
354,353,35067,2,0,P|301:375|240:363,1,105,0|0,1:0|1:0,0:0:0:0:
184,192,35589,1,0,0:0:0:0:
280,40,35850,6,0,P|331:35|378:56,1,105,0|0,1:0|0:0,0:0:0:0:
352,240,36241,2,0,P|274:257|214:216,1,157.5,0|0,1:0|1:0,0:0:0:0:
312,104,36893,1,0,1:0:0:0:
432,184,37154,1,0,0:0:0:0:
392,328,37415,1,0,1:0:0:0:
248,360,37676,6,0,P|128:336|96:336,1,105,0|0,0:0|1:0,0:0:0:0:
8,288,38198,1,0,1:0:0:0:
16,144,38458,1,0,0:0:0:0:
152,200,38719,2,0,P|254:227|285:243,1,105,0|0,1:0|1:0,0:0:0:0:
262,236,39111,2,0,L|272:297,1,52.5,0|0,2:0|2:0,0:0:0:0:
400,120,39502,1,0,1:0:0:0:
256,144,39763,1,0,0:0:0:0:
112,120,40024,6,0,P|104:56|96:8,1,105,0|0,1:0|1:0,2:0:0:0:
96,112,40545,6,0,P|88:48|80:0,1,105,0|0,1:0|1:0,0:0:0:0:
8,128,41067,5,0,1:0:0:0:
40,192,41198,2,0,L|8:320,1,105,0|0,1:0|1:0,0:0:0:0:
56,192,41589,6,0,L|40:256,1,52.5,0|0,1:0|0:0,0:0:0:0:
128,128,41850,1,0,1:0:0:0:
112,288,42111,6,0,P|200:336|288:288,1,210,4|2,1:2|1:2,0:0:0:0:
432,288,42893,1,0,3:0:0:0:
432,288,43024,1,0,3:0:0:0:
432,288,43154,2,0,L|432:176,1,105,0|0,1:0|0:0,0:0:0:0:
344,64,43676,1,2,0:2:0:0:
248,176,43937,1,0,1:0:0:0:
112,120,44198,6,0,L|112:240,1,105,0|0,1:0|1:0,0:0:0:0:
0,320,44719,2,0,L|0:216,1,105,2|0,1:2|0:0,0:0:0:0:
0,215,45111,1,0,0:0:0:0:
0,215,45241,1,0,1:0:0:0:
208,168,45502,1,0,1:0:0:0:
168,312,45763,1,2,0:2:0:0:
312,272,46024,5,0,0:0:0:0:
312,272,46154,1,0,0:0:0:0:
312,272,46285,2,0,L|312:384,1,105,0|0,1:0|0:0,0:0:0:0:
440,304,46806,1,2,1:2:0:0:
400,160,47067,1,0,0:0:0:0:
400,160,47198,1,0,0:0:0:0:
400,160,47328,2,0,L|400:48,1,105,0|0,1:0|0:0,0:0:0:0:
280,136,47850,1,2,1:2:0:0:
216,264,48111,1,0,1:0:0:0:
320,360,48372,6,0,L|440:360,1,105,0|0,1:0|1:0,0:0:0:0:
216,264,48893,2,0,L|88:264,1,105,2|0,1:2|0:0,0:0:0:0:
111,264,49285,1,0,0:0:0:0:
111,264,49415,1,0,1:0:0:0:
56,128,49676,1,0,1:0:0:0:
200,152,49937,1,2,0:2:0:0:
344,136,50198,5,0,0:0:0:0:
344,136,50328,1,0,0:0:0:0:
344,136,50458,2,0,B|360:224|328:256|344:344,1,210,0|2,1:0|0:2,0:0:0:0:
472,272,51241,1,0,0:0:0:0:
472,272,51372,1,0,0:0:0:0:
472,272,51502,1,0,1:0:0:0:
416,136,51763,1,0,1:0:0:0:
312,240,52024,1,2,0:2:0:0:
200,336,52285,6,0,P|144:336|80:344,1,105,0|0,1:0|1:0,0:0:0:0:
192,192,52806,2,0,P|200:216|208:248,1,52.5,0|0,1:0|2:0,0:0:0:0:
187,175,53067,1,0,1:0:0:0:
56,80,53328,2,0,P|48:104|40:136,1,52.5,0|0,0:0|2:0,0:0:0:0:
64,64,53589,2,0,P|128:80|184:88,1,105,0|0,1:0|1:0,0:0:0:0:
328,48,54111,1,2,0:2:0:0:
384,176,54372,2,0,P|332:184|281:198,1,105,0|0,0:0|1:0,0:0:0:0:
256,224,54763,1,0,2:0:0:0:
192,184,54893,1,0,0:0:0:0:
40,320,55154,6,0,L|32:376,2,52.5,2|0|0,0:2|2:0|0:0,0:0:0:0:
120,312,55545,1,0,0:0:0:0:
192,352,55676,1,0,1:0:0:0:
368,328,55937,1,0,1:0:0:0:
440,200,56198,1,2,0:2:0:0:
400,56,56458,1,0,1:0:0:0:
184,272,56719,5,0,1:0:0:0:
184,272,56980,1,0,1:0:0:0:
264,152,57241,5,0,1:0:0:0:
264,152,57502,1,0,1:0:0:0:
136,72,57763,5,0,1:0:0:0:
136,72,57893,1,0,1:0:0:0:
64,200,58154,5,0,1:0:0:0:
64,200,58285,2,0,L|72:272,1,52.5,0|0,1:0|1:0,0:0:0:0:
192,208,58545,2,0,L|200:136,1,52.5,0|0,1:0|1:0,0:0:0:0:
312,208,58806,6,0,L|328:320,1,105,4|0,1:2|2:0,2:0:0:0:
328,328,59198,2,2,P|392:352|464:296,1,157.5,2|2,1:2|1:2,2:2:0:0:
432,136,59850,1,8,0:2:0:0:
348,327,60111,2,0,P|388:343|436:311,1,105,2|2,0:2|0:2,0:0:0:0:
344,192,60632,1,0,1:2:0:0:
128,288,60893,6,0,L|16:272,1,105,4|0,0:2|0:0,2:0:0:0:
8,272,61285,2,0,P|-12:219|22:153,1,105,2|0,0:2|2:0,2:0:0:0:
216,224,61676,2,0,P|236:277|192:368,1,157.5,2|0,0:2|2:0,0:0:0:0:
80,200,62198,1,2,0:2:0:0:
208,136,62458,1,10,0:2:0:0:
336,208,62719,1,0,0:0:0:0:
512,184,62980,6,0,L|496:72,1,105,4|0,0:2|2:0,2:0:0:0:
496,64,63372,2,0,P|432:40|364:72,1,105,2|0,0:2|2:2,2:0:0:0:
288,232,63763,2,0,P|352:256|420:224,1,105,2|0,0:2|1:2,0:0:0:0:
416,232,64154,1,0,1:0:0:0:
376,160,64285,1,0,0:0:0:0:
208,264,64545,2,0,L|200:368,1,105,2|2,0:2|0:2,2:0:0:0:
0,216,65067,5,4,0:2:0:0:
129,127,65328,1,0,0:0:0:0:
96,280,65589,5,4,0:2:0:0:
129,127,65850,1,0,0:0:0:0:
216,256,66111,5,4,0:2:0:0:
129,127,66372,1,0,0:0:0:0:
280,152,66632,5,4,0:2:0:0:
129,127,66893,1,0,0:0:0:0:
448,184,67154,6,0,L|432:296,1,105,4|0,0:2|2:0,2:0:0:0:
432,304,67546,2,2,P|368:328|296:272,1,157.5,2|2,1:2|1:2,2:2:0:0:
400,88,68198,1,8,0:2:0:0:
408,309,68459,2,0,P|368:325|320:293,1,105,2|2,0:2|0:2,0:0:0:0:
24,192,68980,1,0,1:2:0:0:
176,160,69241,6,0,L|288:176,1,105,4|0,0:2|0:0,2:0:0:0:
296,176,69633,2,0,P|316:229|282:295,1,105,2|0,0:2|2:0,2:0:0:0:
24,192,70024,2,0,P|4:139|48:48,1,157.5,2|0,0:2|2:0,0:0:0:0:
224,88,70546,1,2,0:2:0:0:
176,224,70806,1,10,0:2:0:0:
224,360,71067,1,0,0:0:0:0:
320,168,71328,6,0,L|432:184,1,105,4|0,0:2|2:0,2:0:0:0:
440,184,71720,2,0,P|464:248|432:316,1,105,2|0,0:2|2:2,2:0:0:0:
224,360,72111,2,0,P|200:296|232:228,1,105,2|0,0:2|0:2,0:0:0:0:
224,232,72502,1,0,0:0:0:0:
296,272,72633,1,0,0:0:0:0:
432,160,72893,2,0,L|440:56,1,105,2|2,0:2|0:2,2:0:0:0:
488,264,73415,5,4,0:2:0:0:
488,264,73676,1,0,0:0:0:0:
328,176,73937,1,0,2:2:0:0:
328,176,74458,1,0,0:0:0:0:
344,256,74589,1,0,0:0:0:0:
176,112,74850,5,0,0:0:0:0:
192,192,74980,2,0,L|200:256,1,52.5,0|0,3:1|3:0,2:0:0:0:
336,168,75241,2,0,L|328:104,1,52.5,0|0,3:0|3:0,2:0:0:0:
200,256,75502,5,0,1:0:0:0:
320,336,75763,1,0,1:0:0:0:
456,280,76024,1,0,1:0:0:0:
488,136,76285,1,0,1:0:0:0:
384,32,76545,6,0,L|296:40,1,52.5,0|0,1:0|1:0,1:0:0:0:
360,208,76806,2,0,L|272:216,1,52.5,0|0,1:0|1:0,1:0:0:0:
232,88,77067,1,0,1:0:0:0:
232,88,77328,1,0,1:0:0:0:
56,24,77589,5,0,1:0:0:0:
64,168,77850,1,0,1:0:0:0:
176,264,78111,1,0,1:0:0:0:
320,240,78372,1,0,1:0:0:0:
408,120,78632,6,0,L|480:128,1,52.5,0|0,1:0|1:0,1:0:0:0:
464,272,78893,1,0,1:0:0:0:
400,136,79024,2,0,L|280:120,1,105,0|0,1:0|1:0,1:0:0:0:
152,96,79545,1,0,1:0:0:0:
100,86,79676,5,0,1:0:0:0:
16,208,79937,1,0,1:0:0:0:
88,336,80198,1,0,1:0:0:0:
232,328,80458,1,0,1:0:0:0:
304,200,80719,6,0,L|312:144,1,52.5,0|0,1:0|1:0,1:0:0:0:
288,208,80980,1,0,1:0:0:0:
344,272,81111,2,0,P|432:287|512:320,1,157.5,0|0,1:0|1:0,1:0:0:0:
456,208,81763,5,0,1:0:0:0:
184,352,82024,1,8,1:0:0:0:
408,128,82285,1,0,1:0:0:0:
184,352,82545,1,8,2:0:0:0:
456,208,82806,1,0,1:0:0:0:
184,352,83067,1,2,1:3:0:0:
184,352,83589,6,0,L|112:352,1,52.5,0|0,1:0|1:0,1:0:0:0:
312,128,83850,1,4,1:2:0:0:
48,264,84111,6,2,L|240:264,1,157.5,0|2,1:0|1:0,1:0:0:0:
464,264,84893,2,0,L|272:264,1,157.5,2|2,1:0|1:0,1:0:0:0:
104,120,85676,1,2,1:0:0:0:
208,280,85937,1,0,1:0:0:0:
512,128,86198,6,2,L|320:128,1,157.5,0|2,1:0|1:0,1:0:0:0:
16,200,86980,2,0,L|208:200,1,157.5,2|2,1:0|1:0,1:0:0:0:
144,320,87502,2,0,L|256:320,1,105,0|2,1:0|1:0,1:0:0:0:
304,152,87893,1,0,1:0:0:0:
352,224,88024,6,0,L|480:224,1,105,0|2,1:0|1:0,1:0:0:0:
272,336,88676,1,2,1:0:0:0:
144,152,89067,1,0,1:0:0:0:
360,112,89458,1,2,1:0:0:0:
200,264,89850,1,2,1:0:0:0:
80,352,90111,6,0,L|200:352,1,105,4|2,1:0|1:0,1:0:0:0:
169,336,90632,2,0,L|64:336,1,105,0|2,1:3|1:1,1:3:0:0:
48,320,91154,2,0,L|168:320,1,105,6|0,1:0|2:0,1:0:0:0:
448,272,92198,6,0,P|400:296|360:264,1,105,2|0,0:0|2:0,0:0:0:0:
280,248,92589,2,0,L|296:352,1,105,2|0,0:0|0:0,0:0:0:0:
336,192,92980,2,0,P|288:168|200:240,1,157.5,2|0,0:0|2:0,0:0:0:0:
16,192,93502,2,0,P|64:216|120:80,1,210,2|0,0:0|2:0,0:0:0:0:
32,280,94545,6,0,P|72:328|80:352,1,52.5,2|0,0:0|0:0,0:0:0:0:
168,256,94806,2,0,P|208:208|216:184,1,52.5,2|0,0:0|0:0,0:0:0:0:
272,304,95067,2,0,P|352:312|440:328,1,157.5,2|0,0:0|0:0,0:0:0:0:
496,248,95589,2,0,P|410:231|280:216,1,210,2|0,0:0|0:0,0:0:0:0:
136,328,96632,6,0,P|85:331|16:344,1,105,2|0,0:0|0:0,0:0:0:0:
88,168,97154,2,0,P|139:176|192:180,1,105,2|0,0:0|0:0,0:0:0:0:
88,80,97676,2,0,P|16:104|24:232,1,210,2|0,0:0|0:0,0:0:0:0:
416,248,98458,5,4,1:0:0:0:
419,265,98719,1,0,1:0:0:0:
184,192,98980,1,0,1:0:0:0:
181,209,99241,1,0,1:0:0:0:
416,112,99502,5,0,1:0:0:0:
419,129,99632,1,0,1:0:0:0:
128,96,99893,1,0,1:0:0:0:
120,112,100024,2,0,L|120:176,1,52.5,0|0,1:0|1:0,0:0:0:0:
256,232,100285,2,0,L|256:179,1,52.5,0|0,1:0|1:0,0:0:0:0:
48,256,100545,6,0,L|48:400,1,105,4|0,1:2|0:0,2:0:0:0:
5,152,100937,2,0,P|45:96|141:104,1,157.5,2|2,1:2|0:2,2:0:0:0:
136,256,101589,1,0,0:0:0:0:
23,142,101850,2,0,P|51:101|121:107,1,105,2|10,0:2|1:2,0:0:0:0:
160,152,102241,1,0,0:0:0:0:
192,112,102372,2,0,L|264:112,1,52.5,0|0,0:0|1:0,2:0:0:0:
320,40,102632,6,0,P|328:112|344:184,1,105,4|0,0:2|0:0,2:0:0:0:
256,296,103024,2,0,P|248:224|232:152,1,105,2|0,0:2|2:0,2:0:0:0:
88,264,103415,2,0,P|78:315|73:367,1,105,0|0,0:2|1:0,2:0:0:0:
248,304,103806,1,0,0:0:0:0:
248,304,103937,2,0,L|360:312,1,105,2|10,0:2|0:2,0:0:0:0:
368,296,104328,2,0,L|293:291,1,52.5,0|0,0:0|0:0,2:0:0:0:
352,112,104719,6,0,L|464:104,1,105,4|0,0:2|0:0,2:0:0:0:
345,127,105111,1,2,0:2:0:0:
216,56,105502,1,2,0:2:0:0:
345,127,105763,2,0,P|352:168|352:200,1,52.5,4|0,0:2|1:2,2:0:0:0:
112,160,106024,2,0,P|104:88|104:32,1,105,0|8,0:0|0:2,0:0:0:0:
129,167,106415,2,0,L|113:223,1,52.5,0|0,0:0|1:0,2:0:0:0:
81,287,106676,1,0,0:0:0:0:
64,360,106806,5,4,0:2:0:0:
64,360,107067,1,0,0:0:0:0:
16,184,107328,5,4,0:2:0:0:
16,184,107589,1,0,0:0:0:0:
184,112,107850,5,4,0:2:0:0:
184,112,108111,1,0,0:0:0:0:
232,288,108372,5,4,0:2:0:0:
232,288,108633,1,0,0:0:0:0:
256,192,108763,12,0,110980,0:0:0:0:
