osu file format v14

[General]
AudioFilename: 2-03 High School Love.mp3
AudioLeadIn: 2000
PreviewTime: 46036
Countdown: 0
SampleSet: None
StackLeniency: 0.2
Mode: 0
LetterboxInBreaks: 1
WidescreenStoryboard: 0

[Editor]
DistanceSpacing: 0.57
BeatDivisor: 4
GridSize: 8
TimelineZoom: 1

[Metadata]
Title:HIGH SCHOOL LOVE
TitleUnicode:HIGH SCHOOL LOVE
Artist:DJ YOSHITAKA feat. DWP
ArtistUnicode:DJ YOSHITAKA feat. DWP
Creator:Ritzeh
Version:Insane
Source:pop'n music 14 FEVER!
Tags:beatmania IIDX 14 GOLD
BeatmapID:1738262
BeatmapSetID:829695

[Difficulty]
HPDrainRate:7
CircleSize:4
OverallDifficulty:8
ApproachRate:9
SliderMultiplier:1.8
SliderTickRate:1

[Events]
//Background and Video events
0,0,"BGGB.jpg",0,0
//Break Periods
2,86236,90436
//Storyboard Layer 0 (Background)
//Storyboard Layer 1 (Fail)
//Storyboard Layer 2 (Pass)
//Storyboard Layer 3 (Foreground)
//Storyboard Sound Samples

[TimingPoints]
370,333.333333333333,4,2,1,85,1,0

[Colours]
Combo1 : 255,204,128
Combo2 : 100,240,150
Combo3 : 97,214,240
Combo4 : 117,117,255

[HitObjects]
124,91,370,5,0,0:0:0:0:
124,91,703,2,0,P|178:77|248:81,1,90
345,109,1036,1,0,0:0:0:0:
262,152,1203,1,0,0:0:0:0:
295,36,1369,1,0,0:0:0:0:
427,69,1536,2,0,P|421:150|322:199,1,180
176,175,2036,6,0,P|229:155|279:152,1,90
64,241,2369,2,0,P|68:192|62:141,1,90
144,250,2703,1,0,0:0:0:0:
128,108,2869,1,0,0:0:0:0:
336,169,3036,6,0,P|287:190|237:193,1,90
380,81,3369,1,0,0:0:0:0:
242,31,3536,2,0,P|276:61|307:106,1,90
133,108,3869,2,0,P|178:103|232:115,1,90
450,163,4203,2,0,P|405:168|351:156,1,90
242,31,4536,1,0,0:0:0:0:
276,182,4702,1,0,0:0:0:0:
380,81,4869,1,0,0:0:0:0:
221,111,5036,1,0,0:0:0:0:
298,364,5369,1,0,0:0:0:0:
175,252,5703,5,0,0:0:0:0:
175,252,6036,2,0,P|170:207|150:156,1,90
84,48,6369,1,0,0:0:0:0:
75,134,6536,1,0,0:0:0:0:
154,165,6703,1,0,0:0:0:0:
331,39,6869,2,0,P|244:45|159:84,1,180
20,204,7369,6,0,P|57:163|77:127,1,90
70,284,7703,2,0,P|58:338|59:379,1,90
20,204,8036,1,0,0:0:0:0:
151,272,8203,1,0,0:0:0:0:
353,170,8369,6,0,P|311:183|256:185,1,90
74,133,8703,1,0,0:0:0:0:
318,25,8869,2,0,P|307:78|291:111,1,90
160,5,9203,2,0,P|208:29|236:53,1,90
346,267,9536,2,0,P|319:230|302:179,1,90
318,25,9869,1,0,0:0:0:0:
416,132,10036,1,0,0:0:0:0:
291,110,10203,1,0,0:0:0:0:
472,1,10369,6,0,P|430:20|374:59,1,90
372,68,10620,1,0,0:0:0:0:
341,101,10703,1,0,0:0:0:0:
334,144,10786,1,0,0:0:0:0:
351,184,10870,1,0,0:0:0:0:
388,208,10953,1,0,0:0:0:0:
432,208,11036,5,0,0:0:0:0:
341,101,11203,1,0,0:0:0:0:
393,304,11536,1,0,0:0:0:0:
509,160,11869,1,0,0:0:0:0:
332,195,12203,1,0,0:0:0:0:
307,16,12536,1,0,0:0:0:0:
254,146,12703,1,0,0:0:0:0:
171,117,12869,2,0,P|210:141|256:145,1,90
236,63,13203,1,0,0:0:0:0:
174,244,13369,1,0,0:0:0:0:
253,145,13536,1,0,0:0:0:0:
293,304,13703,5,0,0:0:0:0:
273,223,13869,1,0,0:0:0:0:
385,322,14036,1,0,0:0:0:0:
435,144,14203,1,0,0:0:0:0:
293,304,14536,1,0,0:0:0:0:
92,240,14869,1,0,0:0:0:0:
102,29,15203,1,0,0:0:0:0:
285,43,15369,2,0,P|232:49|177:38,1,90
348,112,15703,1,0,0:0:0:0:
384,30,15869,1,0,0:0:0:0:
512,152,16036,2,0,P|468:111|435:94,1,90
285,43,16369,5,0,0:0:0:0:
352,145,16536,1,0,0:0:0:0:
373,62,16703,1,0,0:0:0:0:
264,128,16869,2,0,P|255:175|270:241,1,90
416,273,17203,2,0,P|378:242|314:221,1,90
210,330,17536,2,0,P|255:313|305:267,1,90
264,128,17869,1,0,0:0:0:0:
135,97,18036,2,0,P|167:141|184:184,1,90
224,57,18369,1,0,0:0:0:0:
94,223,18536,1,0,0:0:0:0:
135,97,18703,1,0,0:0:0:0:
180,173,18869,1,0,0:0:0:0:
346,96,19036,6,0,P|286:112|249:143,1,90
223,250,19369,1,0,0:0:0:0:
302,204,19536,1,0,0:0:0:0:
99,137,19703,2,0,P|152:168|200:172,1,90
263,127,20036,1,0,0:0:0:0:
302,204,20203,1,0,0:0:0:0:
439,32,20369,5,0,0:0:0:0:
383,225,20536,1,0,0:0:0:0:
343,29,20703,1,0,0:0:0:0:
363,126,20869,1,0,0:0:0:0:
207,221,21036,1,0,0:0:0:0:
229,214,21119,1,0,0:0:0:0:
251,208,21202,1,0,0:0:0:0:
273,206,21285,1,0,0:0:0:0:
295,205,21369,1,0,0:0:0:0:
318,206,21452,1,0,0:0:0:0:
340,210,21535,1,0,0:0:0:0:
362,216,21619,1,0,0:0:0:0:
383,225,21702,5,0,0:0:0:0:
207,221,22036,1,0,0:0:0:0:
215,55,22369,1,0,0:0:0:0:
166,135,22536,1,0,0:0:0:0:
308,235,22703,1,0,0:0:0:0:
307,65,22869,2,0,P|280:113|149:126,1,180
307,65,23369,1,0,0:0:0:0:
308,235,23703,2,0,P|324:184|353:137,1,90
503,112,24036,1,0,0:0:0:0:
409,90,24203,1,0,0:0:0:0:
442,293,24369,6,0,P|417:245|388:216,1,90
189,192,24703,1,0,0:0:0:0:
294,167,24869,1,0,0:0:0:0:
235,384,25036,2,0,P|219:342|214:298,1,90
294,167,25369,1,0,0:0:0:0:
319,270,25535,1,0,0:0:0:0:
222,110,25703,6,0,P|188:77|146:60,1,90
134,61,25953,1,0,0:0:0:0:
120,62,26036,1,0,0:0:0:0:
107,65,26119,1,0,0:0:0:0:
95,72,26203,1,0,0:0:0:0:
86,82,26286,1,0,0:0:0:0:
82,94,26369,1,0,0:0:0:0:
145,209,26536,1,0,0:0:0:0:
297,58,26703,1,0,0:0:0:0:
297,58,27036,6,0,P|341:75|405:80,1,90
224,111,27369,1,0,0:0:0:0:
218,23,27536,1,0,0:0:0:0:
307,144,27703,1,0,0:0:0:0:
297,58,27869,1,0,0:0:0:0:
231,200,28036,1,0,0:0:0:0:
392,191,28203,2,0,P|314:231|232:201,1,180
399,303,28703,1,0,0:0:0:0:
392,191,28869,1,0,0:0:0:0:
237,380,29036,2,0,P|273:347|320:330,1,90
481,358,29369,1,0,0:0:0:0:
481,358,29703,6,0,P|502:271|490:182,1,180
427,36,30203,1,0,0:0:0:0:
240,163,30369,2,0,P|284:163|326:146,1,90
427,36,30703,1,0,0:0:0:0:
391,203,30869,1,0,0:0:0:0:
500,92,31036,6,0,P|457:104|414:132,1,90
160,201,31369,2,0,P|202:188|245:160,1,90
348,52,31703,1,0,0:0:0:0:
391,203,31869,1,0,0:0:0:0:
241,164,32036,1,0,0:0:0:0:
181,323,32203,6,0,P|231:262|239:152,1,180
99,84,32703,1,0,0:0:0:0:
143,177,32869,1,0,0:0:0:0:
305,82,33036,1,0,0:0:0:0:
347,179,33203,1,0,0:0:0:0:
241,164,33369,1,0,0:0:0:0:
258,338,33536,6,0,P|270:284|234:154,1,180
158,260,34036,1,0,0:0:0:0:
258,338,34203,1,0,0:0:0:0:
476,189,34369,1,0,0:0:0:0:
490,330,34536,1,0,0:0:0:0:
371,272,34703,1,0,0:0:0:0:
385,102,34869,6,0,P|352:195|375:279,1,180
292,45,35369,1,0,0:0:0:0:
257,147,35536,1,0,0:0:0:0:
370,271,35703,1,0,0:0:0:0:
385,102,35869,1,0,0:0:0:0:
257,147,36036,1,0,0:0:0:0:
99,76,36203,6,0,P|184:89|270:167,1,180
235,294,36703,1,0,0:0:0:0:
306,228,36869,1,0,0:0:0:0:
167,357,37036,1,0,0:0:0:0:
143,270,37203,1,0,0:0:0:0:
327,322,37369,1,0,0:0:0:0:
478,236,37536,6,0,P|413:295|305:322,1,180
493,337,38036,1,0,0:0:0:0:
478,236,38203,1,0,0:0:0:0:
478,236,38286,1,0,0:0:0:0:
478,236,38369,1,0,0:0:0:0:
408,384,38536,1,0,0:0:0:0:
372,222,38703,1,0,0:0:0:0:
326,321,38869,1,0,0:0:0:0:
65,247,39036,6,0,P|110:246|175:278,1,90
253,366,39369,2,0,P|207:359|148:319,1,90
326,321,39703,1,0,0:0:0:0:
242,267,39869,1,0,0:0:0:0:
322,108,40036,1,0,0:0:0:0:
320,238,40203,1,0,0:0:0:0:
246,75,40369,6,0,P|204:58|159:57,1,90
80,233,40703,1,0,0:0:0:0:
74,125,40869,1,0,0:0:0:0:
251,167,41036,2,0,P|206:163|164:176,1,90
141,314,41369,1,0,0:0:0:0:
214,240,41536,1,0,0:0:0:0:
52,321,41703,6,0,P|96:323|140:313,1,90
308,255,42036,1,0,0:0:0:0:
237,327,42203,1,0,0:0:0:0:
93,225,42369,2,0,P|82:181|85:136,1,90
194,49,42703,1,0,0:0:0:0:
162,172,42869,1,0,0:0:0:0:
40,49,43036,5,0,0:0:0:0:
15,254,43203,1,0,0:0:0:0:
116,74,43369,1,0,0:0:0:0:
93,280,43536,1,0,0:0:0:0:
280,191,43703,1,0,0:0:0:0:
302,187,43786,1,0,0:0:0:0:
324,188,43869,1,0,0:0:0:0:
346,193,43953,1,0,0:0:0:0:
367,201,44036,1,0,0:0:0:0:
387,212,44119,1,0,0:0:0:0:
404,227,44203,1,0,0:0:0:0:
418,244,44286,1,0,0:0:0:0:
429,264,44369,5,0,0:0:0:0:
285,371,44536,1,0,0:0:0:0:
280,191,44703,1,0,0:0:0:0:
63,337,46036,6,0,P|100:318|149:276,1,90
230,179,46369,1,0,0:0:0:0:
144,198,46536,1,0,0:0:0:0:
216,339,46703,1,0,0:0:0:0:
312,209,46869,1,0,0:0:0:0:
312,209,47203,1,0,0:0:0:0:
237,67,47369,1,0,0:0:0:0:
237,67,47453,1,0,0:0:0:0:
237,67,47536,1,0,0:0:0:0:
408,92,47703,2,0,P|355:107|292:106,1,90
508,94,48036,2,0,P|481:142|435:185,1,90
229,179,48369,5,0,0:0:0:0:
367,69,48536,1,0,0:0:0:0:
425,239,48703,1,0,0:0:0:0:
229,179,48869,2,0,P|289:112|368:69,1,180
425,239,49369,1,0,0:0:0:0:
247,270,49536,1,0,0:0:0:0:
247,270,49619,1,0,0:0:0:0:
247,270,49703,1,0,0:0:0:0:
352,324,49869,1,0,0:0:0:0:
329,180,50036,1,0,0:0:0:0:
247,270,50203,1,0,0:0:0:0:
82,184,50369,2,0,P|123:205|170:252,1,90
222,384,50703,2,0,P|181:363|134:316,1,90
229,184,51036,6,0,P|188:205|141:252,1,90
66,372,51369,1,0,0:0:0:0:
74,279,51536,1,0,0:0:0:0:
155,233,51703,1,0,0:0:0:0:
316,301,51869,2,0,P|260:275|224:268,1,90
395,177,52203,2,0,P|354:197|303:209,1,90
426,93,52536,1,0,0:0:0:0:
487,252,52703,2,0,P|486:192|479:153,1,90
374,274,53036,2,0,P|373:324|381:381,1,90
311,208,53369,2,0,P|297:256|290:313,1,90,0|0,0:3|0:3,0:3:0:0:
151,139,53703,6,0,P|196:174|226:216,1,90
214,358,54036,1,0,0:0:0:0:
138,226,54203,2,0,P|145:274|136:334,1,90
151,139,54536,2,0,P|184:55|264:4,1,180
64,173,55036,5,0,0:0:0:0:
213,198,55203,1,0,0:0:0:0:
256,6,55369,1,0,0:0:0:0:
285,143,55536,1,0,0:0:0:0:
393,96,55703,1,0,0:0:0:0:
473,181,55869,1,0,0:0:0:0:
477,193,55953,1,0,0:0:0:0:
480,205,56036,1,0,0:0:0:0:
481,218,56119,1,0,0:0:0:0:
480,231,56203,1,0,0:0:0:0:
478,244,56286,1,0,0:0:0:0:
130,284,56703,6,0,P|175:276|236:287,1,90
35,271,57036,1,0,0:0:0:0:
71,356,57203,1,0,0:0:0:0:
220,193,57369,1,0,0:0:0:0:
268,348,57536,2,0,P|224:357|179:354,1,90
130,284,57869,1,0,0:0:0:0:
281,129,58036,2,0,P|239:165|214:209,1,90
396,203,58369,2,0,P|340:199|292:212,1,90
41,282,58703,2,0,P|97:290|146:276,1,90
17,134,59036,5,0,0:0:0:0:
86,214,59203,1,0,0:0:0:0:
192,215,59369,1,0,0:0:0:0:
68,45,59536,2,0,P|104:133|75:230,1,180
68,45,60036,1,0,0:0:0:0:
191,140,60203,1,0,0:0:0:0:
191,140,60286,1,0,0:0:0:0:
191,140,60369,1,0,0:0:0:0:
271,19,60536,1,0,0:0:0:0:
169,33,60703,1,0,0:0:0:0:
311,171,60869,1,0,0:0:0:0:
432,69,61036,2,0,P|387:77|323:101,1,90
276,256,61369,2,0,P|322:257|386:233,1,90
131,180,61703,5,0,0:0:0:0:
172,307,61869,1,0,0:0:0:0:
59,382,62036,1,0,0:0:0:0:
64,246,62203,1,0,0:0:0:0:
317,182,62536,1,0,0:0:0:0:
51,132,62869,1,0,0:0:0:0:
313,68,63203,5,0,0:0:0:0:
454,148,63369,2,0,P|487:179|517:236,1,90
393,43,63703,1,0,0:0:0:0:
393,200,63869,1,0,0:0:0:0:
221,156,64036,2,0,P|199:115|190:52,1,90
198,282,64369,5,0,0:0:0:0:
307,149,64536,1,0,0:0:0:0:
278,317,64703,1,0,0:0:0:0:
190,72,64869,1,0,0:0:0:0:
104,328,65203,1,0,0:0:0:0:
307,149,65536,1,0,0:0:0:0:
42,199,65869,5,0,0:0:0:0:
186,51,66036,1,0,0:0:0:0:
202,149,66203,1,0,0:0:0:0:
49,112,66369,2,0,P|93:135|127:189,1,90
181,298,66703,2,0,P|137:275|103:221,1,90
286,131,67036,5,0,0:0:0:0:
296,338,67203,1,0,0:0:0:0:
112,244,67369,1,0,0:0:0:0:
319,233,67536,1,0,0:0:0:0:
72,122,67869,1,0,0:0:0:0:
10,384,68203,1,0,0:0:0:0:
174,170,68536,5,0,0:0:0:0:
296,338,68703,2,0,P|251:349|196:348,1,90
68,295,69036,2,0,P|112:283|167:284,1,90
296,338,69369,1,0,0:0:0:0:
276,199,69536,1,0,0:0:0:0:
68,295,69703,5,0,0:0:0:0:
25,183,69869,1,0,0:0:0:0:
142,207,70036,1,0,0:0:0:0:
99,95,70202,1,0,0:0:0:0:
321,190,70369,1,0,0:0:0:0:
334,75,70536,1,0,0:0:0:0:
223,122,70703,1,0,0:0:0:0:
229,241,70869,1,0,0:0:0:0:
503,95,71036,5,0,0:0:0:0:
512,308,71203,1,0,0:0:0:0:
405,144,71369,1,0,0:0:0:0:
366,281,71536,1,0,0:0:0:0:
512,231,71703,1,0,0:0:0:0:
512,231,71786,1,0,0:0:0:0:
512,231,71869,1,0,0:0:0:0:
512,231,71953,1,0,0:0:0:0:
255,190,72203,5,0,0:0:0:0:
88,175,72369,1,0,0:0:0:0:
88,175,72453,1,0,0:0:0:0:
88,175,72536,1,0,0:0:0:0:
200,289,72703,1,0,0:0:0:0:
229,272,72786,1,0,0:0:0:0:
261,263,72869,1,0,0:0:0:0:
295,263,72952,1,0,0:0:0:0:
327,271,73036,1,0,0:0:0:0:
146,234,73203,1,0,0:0:0:0:
150,49,73369,1,0,0:0:0:0:
255,190,73536,1,0,0:0:0:0:
255,190,73869,5,0,0:0:0:0:
467,112,74036,1,0,0:0:0:0:
436,126,74119,1,0,0:0:0:0:
404,136,74202,1,0,0:0:0:0:
371,143,74285,1,0,0:0:0:0:
337,145,74369,1,0,0:0:0:0:
202,121,74536,1,0,0:0:0:0:
381,50,74703,1,0,0:0:0:0:
255,190,74869,1,0,0:0:0:0:
255,190,75203,5,0,0:0:0:0:
401,311,75369,1,0,0:0:0:0:
397,342,75453,1,0,0:0:0:0:
332,224,75619,1,0,0:0:0:0:
199,249,75786,1,0,0:0:0:0:
301,351,75953,1,0,0:0:0:0:
293,380,76037,1,0,0:0:0:0:
255,190,76203,1,0,0:0:0:0:
380,96,76536,5,0,0:0:0:0:
342,71,76619,1,0,0:0:0:0:
300,55,76702,1,0,0:0:0:0:
255,50,76785,1,0,0:0:0:0:
211,54,76869,1,0,0:0:0:0:
168,68,76952,1,0,0:0:0:0:
130,92,77035,1,0,0:0:0:0:
255,190,77203,1,0,0:0:0:0:
380,96,77369,1,0,0:0:0:0:
130,92,77536,1,0,0:0:0:0:
130,292,77869,5,0,0:0:0:0:
0,190,78036,1,0,0:0:0:0:
191,141,78203,1,0,0:0:0:0:
191,141,78286,1,0,0:0:0:0:
191,141,78369,1,0,0:0:0:0:
324,240,78536,1,0,0:0:0:0:
324,240,78619,1,0,0:0:0:0:
324,240,78703,1,0,0:0:0:0:
216,240,78869,1,0,0:0:0:0:
455,277,79036,5,0,0:0:0:0:
410,282,79119,1,0,0:0:0:0:
371,303,79202,1,0,0:0:0:0:
340,336,79285,1,0,0:0:0:0:
323,377,79369,1,0,0:0:0:0:
316,153,79536,1,0,0:0:0:0:
325,181,79619,1,0,0:0:0:0:
327,211,79702,1,0,0:0:0:0:
324,240,79785,1,0,0:0:0:0:
479,94,79953,1,0,0:0:0:0:
469,118,80036,1,0,0:0:0:0:
457,141,80119,1,0,0:0:0:0:
442,165,80202,1,0,0:0:0:0:
424,184,80286,1,0,0:0:0:0:
404,202,80369,6,0,P|368:226|317:240,1,90
242,215,80703,1,0,0:0:0:0:
239,384,80869,2,0,P|256:341|261:272,1,90
217,135,81203,1,0,0:0:0:0:
65,326,81369,1,0,0:0:0:0:
98,323,81452,1,0,0:0:0:0:
130,313,81535,1,0,0:0:0:0:
160,297,81618,1,0,0:0:0:0:
186,275,81702,1,0,0:0:0:0:
301,153,81869,5,0,0:0:0:0:
158,196,82119,1,0,0:0:0:0:
323,239,82369,1,0,0:0:0:0:
217,135,82619,1,0,0:0:0:0:
242,215,82786,1,0,0:0:0:0:
301,153,82953,1,0,0:0:0:0:
301,153,83036,5,0,0:0:0:0:
345,156,83119,1,0,0:0:0:0:
382,180,83202,1,0,0:0:0:0:
404,219,83285,1,0,0:0:0:0:
404,263,83369,1,0,0:0:0:0:
359,266,83452,1,0,0:0:0:0:
317,282,83535,1,0,0:0:0:0:
282,310,83618,1,0,0:0:0:0:
257,348,83702,5,0,0:0:0:0:
232,310,83786,1,0,0:0:0:0:
197,282,83869,1,0,0:0:0:0:
156,266,83953,1,0,0:0:0:0:
111,263,84036,1,0,0:0:0:0:
110,219,84120,1,0,0:0:0:0:
132,180,84203,1,0,0:0:0:0:
169,156,84286,1,0,0:0:0:0:
214,153,84369,5,0,0:0:0:0:
257,348,84536,1,0,0:0:0:0:
301,153,84703,1,0,0:0:0:0:
214,233,84869,1,0,0:0:0:0:
301,233,85036,1,0,0:0:0:0:
214,153,85203,1,0,0:0:0:0:
301,153,85369,1,0,0:0:0:0:
257,348,85536,1,0,0:0:0:0:
257,348,86036,1,0,0:0:0:0:
148,140,91036,6,0,P|168:182|174:257,1,90
109,277,91369,1,0,0:0:0:0:
84,195,91536,1,0,0:0:0:0:
213,87,91869,1,0,0:0:0:0:
256,234,92203,1,0,0:0:0:0:
421,223,92369,2,0,P|380:239|336:271,1,90
447,137,92703,2,0,P|429:177|420:231,1,90
336,81,93036,1,0,0:0:0:0:
256,234,93369,1,0,0:0:0:0:
109,130,93703,6,0,P|158:116|199:95,1,90
315,42,94036,1,0,0:0:0:0:
274,123,94203,1,0,0:0:0:0:
396,67,94369,1,0,0:0:0:0:
357,233,94536,2,0,P|357:177|348:130,1,90
274,123,94869,1,0,0:0:0:0:
164,301,95036,5,0,0:0:0:0:
109,130,95203,1,0,0:0:0:0:
247,269,95369,1,0,0:0:0:0:
192,98,95536,1,0,0:0:0:0:
90,257,95703,1,0,0:0:0:0:
107,276,95787,1,0,0:0:0:0:
128,290,95870,1,0,0:0:0:0:
152,298,95953,1,0,0:0:0:0:
178,300,96037,1,0,0:0:0:0:
203,296,96120,1,0,0:0:0:0:
226,285,96203,1,0,0:0:0:0:
246,269,96286,1,0,0:0:0:0:
361,66,96703,6,0,P|343:103|343:159,1,90
416,270,97036,1,0,0:0:0:0:
425,127,97203,1,0,0:0:0:0:
332,306,97369,1,0,0:0:0:0:
188,196,97536,1,0,0:0:0:0:
188,196,97869,5,0,0:0:0:0:
336,226,98036,1,0,0:0:0:0:
204,87,98203,1,0,0:0:0:0:
352,110,98369,2,0,P|318:138|272:145,1,90
405,42,98703,2,0,P|446:56|475:93,1,90
324,35,99036,5,0,0:0:0:0:
273,145,99203,1,0,0:0:0:0:
81,98,99369,1,0,0:0:0:0:
107,309,99536,2,0,P|169:245|255:222,1,180
141,176,100036,1,0,0:0:0:0:
107,309,100203,1,0,0:0:0:0:
107,309,100286,1,0,0:0:0:0:
107,309,100369,1,0,0:0:0:0:
61,220,100536,1,0,0:0:0:0:
254,222,100703,1,0,0:0:0:0:
217,132,100869,1,0,0:0:0:0:
404,140,101036,2,0,P|359:150|279:143,1,90
128,142,101369,2,0,P|173:132|253:139,1,90
371,226,101703,5,0,0:0:0:0:
219,292,101869,1,0,0:0:0:0:
315,150,102036,1,0,0:0:0:0:
163,216,102202,1,0,0:0:0:0:
406,351,102536,1,0,0:0:0:0:
467,84,102869,1,0,0:0:0:0:
312,338,103203,1,0,0:0:0:0:
453,232,103369,1,0,0:0:0:0:
295,146,103536,1,0,0:0:0:0:
163,270,103703,1,0,0:0:0:0:
212,145,103869,1,0,0:0:0:0:
236,312,104036,2,0,P|201:342|127:361,1,90,0|0,0:0|0:0,3:0:0:0:
390,334,104369,5,0,0:0:0:0:
381,150,104536,1,0,0:0:0:0:
283,166,104703,1,0,0:0:0:0:
443,252,104869,1,0,0:0:0:0:
497,84,105203,1,0,0:0:0:0:
229,118,105536,1,0,0:0:0:0:
390,334,105869,1,0,0:0:0:0:
113,327,106036,1,0,0:0:0:0:
221,180,106203,1,0,0:0:0:0:
77,241,106369,2,0,P|42:275|22:314,1,90
183,96,106703,1,0,0:0:0:0:
261,263,106870,1,0,0:0:0:0:
39,157,107036,5,0,0:0:0:0:
183,96,107203,1,0,0:0:0:0:
161,235,107369,1,0,0:0:0:0:
81,53,107536,1,0,0:0:0:0:
338,131,107869,1,0,0:0:0:0:
218,373,108203,1,0,0:0:0:0:
230,198,108536,1,0,0:0:0:0:
378,301,108703,2,0,P|337:285|273:276,1,90
75,276,109036,2,0,P|116:292|180:301,1,90
370,212,109369,1,0,0:0:0:0:
301,358,109536,1,0,0:0:0:0:
187,96,109703,5,0,0:0:0:0:
203,181,109869,1,0,0:0:0:0:
120,134,110036,1,0,0:0:0:0:
136,219,110203,1,0,0:0:0:0:
358,56,110369,1,0,0:0:0:0:
338,221,110536,1,0,0:0:0:0:
265,128,110703,1,0,0:0:0:0:
429,148,110869,1,0,0:0:0:0:
272,37,111036,5,0,0:0:0:0:
272,37,111119,1,0,0:0:0:0:
272,37,111203,1,0,0:0:0:0:
91,53,111369,2,0,P|138:40|183:12,1,90
91,53,111703,5,0,0:0:0:0:
67,63,111786,1,0,0:0:0:0:
46,78,111869,1,0,0:0:0:0:
29,97,111952,1,0,0:0:0:0:
17,120,112036,1,0,0:0:0:0:
