osu file format v14

[General]
AudioFilename: audio.mp3
AudioLeadIn: 0
PreviewTime: 108738
Countdown: 0
SampleSet: Normal
StackLeniency: 0.6
Mode: 0
LetterboxInBreaks: 0
WidescreenStoryboard: 0

[Editor]
DistanceSpacing: 1.1
BeatDivisor: 4
GridSize: 4
TimelineZoom: 1.259999

[Metadata]
Title:CaptivAte ~chikai~
TitleUnicode:CaptivAte~誓い~
Artist:DJ YOSHITAKA feat. A/I
ArtistUnicode:DJ YOSHITAKA feat. A/I
Creator:PandaHero
Version:Hyper
Source:beatmania IIDX 14 GOLD
Tags:DanceDanceRevolution SuperNOVA2 ddr nostalish requiem bemani konami custom drive
BeatmapID:1802983
BeatmapSetID:845416

[Difficulty]
HPDrainRate:5.5
CircleSize:3.8
OverallDifficulty:7
ApproachRate:7.5
SliderMultiplier:1.4
SliderTickRate:1

[Events]
//Background and Video events
0,0,"maxresdefault.jpg",0,0
//Break Periods
2,86907,88319
2,89907,91507
2,92907,94319
2,95907,97319
//Storyboard Layer 0 (Background)
//Storyboard Layer 1 (Fail)
//Storyboard Layer 2 (Pass)
//Storyboard Layer 3 (Foreground)
//Storyboard Sound Samples

[TimingPoints]
846,750,4,2,0,20,1,0
846,-125,4,2,0,20,0,0
3846,-125,4,2,0,25,0,0
6846,-125,4,2,0,27,0,0
9846,-125,4,2,0,29,0,0
10596,-125,4,2,0,33,0,0
11346,-125,4,2,0,36,0,0
12189,-125,4,2,0,10,0,0
12283,-125,4,2,0,15,0,0
12377,-125,4,2,0,20,0,0
12471,-125,4,2,0,25,0,0
12564,-125,4,2,0,30,0,0
12658,-125,4,2,0,35,0,0
12752,-125,4,2,0,40,0,0
14332,375,4,1,0,50,1,1
14425,-100,4,1,0,50,0,0
21644,-100,4,1,0,45,0,0
21832,-100,4,1,0,40,0,0
22582,-100,4,1,0,35,0,0
23332,-142.857142857143,4,1,0,30,0,0
25582,-100,4,1,0,50,0,0
26332,-100,4,1,0,60,0,0
36832,-200,4,1,0,60,0,0
37582,-100,4,1,0,55,0,0
38707,-83.3333333333333,4,1,0,70,0,0
50332,-83.3333333333333,4,1,0,70,0,1
50613,-83.3333333333333,4,1,0,70,0,0
56332,-83.3333333333333,4,1,0,70,0,1
56613,-83.3333333333333,4,1,0,70,0,0
57832,-83.3333333333333,4,1,0,70,0,1
58113,-83.3333333333333,4,1,0,70,0,0
59332,-83.3333333333333,4,1,0,70,0,1
59425,-83.3333333333333,4,1,0,70,0,0
61582,-142.857142857143,4,1,0,60,0,0
62332,-100,4,1,0,60,0,1
62707,-100,4,1,0,60,0,0
86332,-100,4,1,0,60,0,1
86425,-100,4,1,0,60,0,0
86707,-100,4,1,0,45,0,1
86800,-200,4,1,0,45,0,0
89144,-200,4,1,0,30,0,0
92332,-200,4,1,0,50,0,0
92707,-200,4,1,0,30,0,0
98332,-142.857142857143,4,2,0,50,0,0
104332,-100,4,2,0,55,0,0
105832,-100,4,2,0,58,0,0
107707,-100,4,2,0,62,0,0
108082,-100,4,2,0,65,0,0
108457,-100,4,2,0,68,0,0
108832,-76.9230769230769,4,1,0,73,0,1
108925,-76.9230769230769,4,1,0,73,0,0
110332,-76.9230769230769,4,1,0,73,0,1
110425,-76.9230769230769,4,1,0,73,0,0
110707,-76.9230769230769,4,1,0,75,0,1
119425,-76.9230769230769,4,1,0,55,0,1
120832,-100,4,1,0,75,0,0
121582,-100,4,1,0,70,0,0
122707,-100,4,1,0,60,0,0
122800,-100,4,2,0,35,0,0
123832,-100,4,2,0,30,0,0
124019,-100,4,2,0,25,0,0
124207,-100,4,2,0,20,0,0
124394,-100,4,2,0,15,0,0
124582,-100,4,2,0,10,0,0

[Colours]
Combo1 : 17,254,176
Combo2 : 173,255,95
Combo3 : 255,88,100
Combo4 : 255,94,55

[HitObjects]
93,99,846,6,0,P|148:79|227:69,2,112,6|2|2,0:0|1:2|1:2,0:0:0:0:
42,247,3096,1,2,1:2:0:0:
198,259,3846,2,0,P|253:249|305:230,1,112,2|2,0:0|1:2,0:0:0:0:
438,146,5346,1,2,1:2:0:0:
434,302,6096,1,2,1:2:0:0:
242,362,6846,6,0,P|229:295|233:237,1,112,6|2,0:0|1:2,0:0:0:0:
341,139,8346,2,0,P|354:72|350:14,1,112,2|2,1:2|1:2,0:0:0:0:
195,25,9846,1,2,1:2:0:0:
59,103,10596,1,6,1:2:0:0:
201,169,11346,1,2,1:2:0:0:
337,90,12096,1,6,1:2:0:0:
195,25,12846,1,2,0:0:0:0:
452,328,14332,6,0,P|380:309|330:306,1,105,4|0,0:0|3:0,0:0:0:0:
322,312,14707,2,0,L|323:220,1,70,8|2,0:2|0:2,0:0:0:0:
259,186,15082,1,2,0:2:0:0:
215,257,15269,1,0,0:0:0:0:
156,196,15457,1,8,0:2:0:0:
190,119,15644,1,2,3:3:0:0:
292,95,15832,6,0,P|345:111|421:120,2,105,4|2|8,0:2|3:2|3:2,0:0:0:0:
209,28,16582,2,0,P|156:12|80:3,2,105,4|2|8,0:2|3:2|3:2,0:0:0:0:
197,132,17332,6,0,L|185:296,1,140,4|8,0:0|0:2,0:0:0:0:
113,312,17894,1,2,0:2:0:0:
44,263,18082,2,0,P|35:203|35:156,1,105,0|0,0:0|3:0,0:0:0:0:
54,138,18457,2,0,L|135:150,1,70,8|2,0:2|0:3,0:0:0:0:
218,193,18832,6,0,P|259:181|346:169,1,105,4|0,0:2|3:2,0:0:0:0:
344,185,19207,1,2,0:2:0:0:
310,261,19394,1,8,3:2:0:0:
376,312,19582,2,0,P|424:293|498:289,2,105,0|0|2,0:0|0:0|3:0,0:0:0:0:
291,365,20332,5,4,0:0:0:0:
291,365,20707,2,0,P|243:348|210:338,1,70,8|2,0:2|0:2,0:0:0:0:
141,352,21082,2,0,P|145:297|136:240,1,105,0|0,0:0|3:0,0:0:0:0:
114,233,21457,2,0,P|75:241|27:247,1,70,8|2,0:2|3:0,0:0:0:0:
79,144,21832,6,0,B|109:131|109:131|221:155,1,140,4|0,0:2|0:0,0:0:0:0:
295,175,22394,1,2,3:0:0:0:
308,91,22582,2,0,L|314:12,1,70,4|0,0:2|0:0,0:0:0:0:
393,46,22957,2,0,L|396:123,1,70,8|2,0:2|3:0,0:0:0:0:
404,199,23332,1,0,0:0:0:0:
256,192,23519,12,4,25582,0:2:0:0:
55,272,26332,6,0,B|126:245|112:305|224:271,1,140,6|8,0:2|0:2,0:0:0:0:
276,327,26894,1,0,0:0:0:0:
334,247,27082,2,0,P|337:211|334:153,1,70,6|0,0:2|0:0,0:0:0:0:
256,120,27457,2,0,P|253:84|256:26,1,70,8|0,0:2|0:0,0:0:0:0:
346,19,27832,6,0,P|421:39|455:112,1,140,6|8,0:2|0:2,0:0:0:0:
398,170,28394,1,0,0:0:0:0:
299,169,28582,2,0,L|199:157,1,70,6|0,0:2|0:0,0:0:0:0:
149,217,28957,1,8,0:2:0:0:
216,287,29144,1,8,0:2:0:0:
216,287,29238,1,0,0:0:0:0:
216,287,29332,6,0,P|281:281|361:308,1,140,6|8,0:2|0:2,0:0:0:0:
278,368,29894,1,0,0:0:0:0:
179,361,30082,2,0,P|138:360|97:354,1,70,6|0,0:2|0:0,0:0:0:0:
36,289,30457,2,0,P|37:248|43:207,1,70,8|0,0:2|0:0,0:0:0:0:
94,136,30832,6,0,P|154:162|207:163,2,105,6|0|0,0:2|0:0|0:0,0:0:0:0:
79,38,31582,2,0,P|159:15|188:21,1,105,6|0,0:2|0:0,0:0:0:0:
199,31,31957,1,8,0:2:0:0:
296,24,32144,1,8,0:2:0:0:
286,121,32332,6,0,P|264:209|265:260,1,140,6|8,0:2|0:2,0:0:0:0:
312,343,32894,1,0,0:0:0:0:
213,346,33082,2,0,P|153:346|98:355,2,105,6|0|0,0:2|0:0|0:0,0:0:0:0:
312,343,33832,6,0,P|359:356|441:355,1,105,6|0,0:2|2:0,0:0:0:0:
436,370,34207,2,0,P|438:324|445:287,1,70,8|0,0:2|0:0,0:0:0:0:
489,214,34582,2,0,P|454:156|371:146,1,140,6|8,0:2|0:2,0:0:0:0:
293,170,35144,1,8,0:2:0:0:
260,77,35332,6,0,L|314:75,3,35,6|0|2|2,1:2|3:0|3:0|3:0,0:0:0:0:
180,122,35707,2,0,L|126:120,3,35,8|0|2|0,3:2|3:0|3:0|3:0,0:0:0:0:
256,182,36082,2,0,L|310:180,3,35,6|0|2|2,0:2|0:0|0:3|0:3,0:0:0:0:
176,232,36457,2,0,L|122:230,3,35,8|0|2|0,0:2|0:0|0:3|0:0,0:0:0:0:
249,310,36832,6,0,P|299:326|349:353,1,105,6|0,0:2|0:0,0:0:0:0:
432,297,37582,6,0,P|436:247|450:180,2,105,2|2|2,0:2|3:0|3:0,0:0:0:0:
321,244,38332,5,4,0:0:0:0:
321,244,38707,2,0,P|280:241|235:240,1,83.9999974365235,6|0,0:0|0:0,0:0:0:0:
151,286,39082,2,0,P|99:304|12:288,2,125.999996154785,2|2|2,0:0|0:0|0:3,0:0:0:0:
176,300,39738,1,0,3:0:0:0:
200,316,39832,5,2,0:0:0:0:
262,245,40019,1,0,0:0:0:0:
196,179,40207,1,8,0:0:0:0:
268,121,40394,2,0,P|354:158|390:234,1,167.999994873047,2|2,0:0|0:0,0:0:0:0:
453,154,40957,2,0,P|452:100|458:46,1,83.9999974365235,8|2,0:2|0:0,0:0:0:0:
342,32,41332,6,0,P|260:37|188:35,1,125.999996154785,4|0,0:2|0:0,0:0:0:0:
191,53,41707,2,0,P|139:49|102:49,1,83.9999974365235,8|0,0:0|0:0,0:0:0:0:
43,116,42082,1,2,0:0:0:0:
99,188,42269,1,0,0:0:0:0:
185,156,42457,1,8,0:0:0:0:
116,276,42644,1,2,0:3:0:0:
116,276,42738,1,0,3:0:0:0:
116,276,42832,6,0,P|109:338|115:387,2,83.9999974365235,0|0|8,0:0|0:0|0:0,0:0:0:0:
201,246,43394,2,0,B|288:227|272:285|386:260,1,167.999994873047,2|0,0:0|0:0,0:0:0:0:
452,232,43957,1,8,0:0:0:0:
479,143,44144,1,2,0:0:0:0:
377,57,44332,6,0,P|365:111|367:208,1,125.999996154785,6|0,0:0|3:0,0:0:0:0:
388,196,44707,2,0,P|406:274|404:309,1,83.9999974365235,8|2,0:0|0:0,0:0:0:0:
315,297,45082,1,2,0:0:0:0:
315,297,45175,1,0,3:0:0:0:
251,364,45363,1,2,3:1:0:0:
251,364,45457,2,0,P|199:351|141:341,1,83.9999974365235,8|2,0:0|0:3,0:0:0:0:
51,355,45832,6,0,P|63:301|61:204,1,125.999996154785,6|0,0:0|3:0,0:0:0:0:
40,216,46207,2,0,P|22:138|24:103,1,83.9999974365235,8|2,0:0|0:0,0:0:0:0:
70,55,46582,1,2,0:0:0:0:
70,55,46675,1,0,0:0:0:0:
162,64,46863,1,2,3:1:0:0:
162,64,46957,1,8,0:0:0:0:
214,149,47144,1,2,0:3:0:0:
214,149,47238,1,2,0:3:0:0:
214,149,47332,6,0,P|199:228|201:335,1,167.999994873047,4|8,0:0|0:0,0:0:0:0:
291,308,47894,1,0,0:0:0:0:
367,360,48082,2,0,P|388:291|400:262,1,83.9999974365235,2|0,0:0|0:0,0:0:0:0:
476,240,48457,2,0,P|455:171|443:142,1,83.9999974365235,8|2,0:0|0:0,0:0:0:0:
342,102,48832,6,0,B|237:80|259:135|157:108,1,167.999994873047,6|8,0:0|0:0,0:0:0:0:
101,59,49394,1,0,0:0:0:0:
178,8,49582,2,0,P|239:9|270:15,1,83.9999974365235,2|2,0:0|0:0,0:0:0:0:
101,59,49957,2,0,P|59:64|17:63,1,83.9999974365235,8|2,0:0|0:0,0:0:0:0:
124,137,50332,6,0,P|139:191|145:316,1,167.999994873047,6|8,0:0|0:0,0:0:0:0:
61,339,50894,1,2,0:2:0:0:
177,381,51082,2,0,P|226:357|348:324,1,167.999994873047,2|8,0:0|0:0,0:0:0:0:
457,354,51644,1,2,0:3:0:0:
457,354,51738,1,0,3:0:0:0:
457,354,51832,6,0,P|454:297|439:248,1,83.9999974365235,6|0,0:0|0:0,0:0:0:0:
366,225,52207,1,8,0:0:0:0:
244,266,52394,2,0,P|218:204|294:120,1,167.999994873047,2|0,0:3|0:0,0:0:0:0:
243,37,52957,2,0,P|204:53|127:55,1,83.9999974365235,8|8,0:0|0:2,0:0:0:0:
335,63,53332,6,0,P|403:60|506:77,1,167.999994873047,6|8,0:0|0:0,0:0:0:0:
455,155,53894,1,2,0:2:0:0:
340,207,54082,2,0,P|272:210|169:193,1,167.999994873047,2|8,0:0|0:0,0:0:0:0:
59,238,54644,1,2,0:3:0:0:
59,238,54738,1,0,3:0:0:0:
59,238,54832,6,0,P|50:297|50:344,2,83.9999974365235,6|0|8,0:0|0:0|0:0,0:0:0:0:
67,112,55394,2,0,P|137:66|232:81,1,167.999994873047,2|0,0:3|0:0,0:0:0:0:
263,154,55957,1,8,0:0:0:0:
184,202,56144,1,8,0:2:0:0:
303,245,56332,6,0,P|309:307|306:370,1,125.999996154785,6|0,0:0|3:0,0:0:0:0:
335,361,56707,2,0,P|395:351|437:355,1,83.9999974365235,8|2,0:0|0:2,0:0:0:0:
485,288,57082,1,2,0:0:0:0:
485,288,57175,1,0,0:0:0:0:
462,198,57363,1,0,0:0:0:0:
462,198,57457,1,8,0:0:0:0:
372,175,57644,1,2,0:3:0:0:
246,197,57832,6,0,P|239:134|242:71,1,125.999996154785,6|0,0:0|3:0,0:0:0:0:
214,81,58207,2,0,P|154:91|112:87,1,83.9999974365235,8|2,0:0|0:2,0:0:0:0:
44,121,58582,1,2,0:0:0:0:
44,121,58675,1,0,0:0:0:0:
73,208,58863,1,0,0:0:0:0:
73,208,58957,1,8,0:0:0:0:
165,205,59144,1,2,0:3:0:0:
165,205,59238,1,0,0:0:0:0:
165,205,59332,6,0,P|182:282|179:385,1,167.999994873047,6|8,0:0|0:0,0:0:0:0:
181,370,59894,1,0,0:0:0:0:
258,320,60082,2,0,P|335:305|371:306,1,83.9999974365235,6|0,0:0|0:0,0:0:0:0:
459,360,60457,2,0,P|382:375|346:374,1,83.9999974365235,8|0,0:0|0:0,0:0:0:0:
315,221,60832,2,0,P|332:148|432:108,1,167.999994873047,6|8,0:0|0:0,0:0:0:0:
496,135,61394,1,0,0:0:0:0:
397,24,61582,6,0,B|343:42|343:42|242:31,1,146.999995513916,4|0,0:2|2:0,0:0:0:0:
168,117,62332,6,0,L|183:277,1,140,6|8,0:0|0:2,0:0:0:0:
108,321,62894,2,0,L|85:235,1,70,4|0,0:2|0:0,0:0:0:0:
6,353,63269,2,0,L|16:260,1,70,4|8,0:2|0:2,0:0:0:0:
31,186,63644,1,2,0:0:0:0:
119,143,63832,6,0,L|199:166,2,70,2|0|8,0:0|0:0|0:2,0:0:0:0:
43,80,64394,2,0,P|74:23|173:26,1,140,4|0,0:2|0:0,0:0:0:0:
221,69,64957,2,0,P|259:71|319:66,1,70,8|0,0:2|0:0,0:0:0:0:
379,112,65332,6,0,L|370:276,1,140,2|8,0:0|0:2,0:0:0:0:
466,272,65894,1,2,0:0:0:0:
466,272,66082,2,0,L|462:106,1,140,2|8,0:0|0:2,0:0:0:0:
421,43,66644,5,0,0:0:0:0:
421,43,66738,1,0,0:0:0:0:
421,43,66832,1,2,0:0:0:0:
323,51,67019,1,0,0:0:0:0:
311,148,67207,1,8,0:2:0:0:
396,195,67394,1,2,0:0:0:0:
143,141,67769,1,2,0:0:0:0:
274,352,68144,1,2,0:0:0:0:
274,352,68332,6,0,P|265:260|257:193,1,140,6|8,0:0|0:2,0:0:0:0:
255,115,68894,2,0,L|352:131,1,70,2|0,0:0|0:0,0:0:0:0:
280,38,69269,2,0,L|183:22,1,70,2|8,0:0|0:2,0:0:0:0:
114,42,69644,1,2,0:0:0:0:
58,123,69832,6,0,L|65:285,1,140,2|8,0:0|0:2,0:0:0:0:
141,323,70394,2,0,P|180:268|147:197,1,140,4|0,0:2|0:0,0:0:0:0:
255,199,70957,1,8,0:2:0:0:
325,266,71144,1,2,0:0:0:0:
325,266,71238,1,0,0:0:0:0:
325,266,71332,6,0,P|311:313|311:358,2,70,2|0|8,0:0|0:0|0:2,0:0:0:0:
408,217,71894,1,2,0:0:0:0:
408,217,72082,2,0,P|428:291|434:375,1,140,2|8,0:0|0:2,0:0:0:0:
459,104,72832,5,2,0:0:0:0:
365,131,73019,1,0,0:0:0:0:
299,58,73207,1,8,0:2:0:0:
391,25,73394,1,0,0:0:0:0:
365,131,73582,1,2,0:0:0:0:
268,143,73769,2,0,L|217:144,2,35,2|0|8,0:0|0:0|0:2,0:0:0:0:
335,214,74144,1,2,0:0:0:0:
247,258,74332,6,0,P|188:228|97:209,1,140,6|8,0:0|0:2,0:0:0:0:
35,265,74894,1,4,0:2:0:0:
35,265,74988,1,2,0:0:0:0:
35,265,75082,2,0,P|36:337|45:384,2,105,2|2|4,0:0|0:0|0:2,0:0:0:0:
44,167,75832,6,0,P|64:108|77:12,1,140,6|8,0:0|0:2,0:0:0:0:
165,71,76394,1,4,0:2:0:0:
165,71,76488,1,2,0:0:0:0:
165,71,76582,2,0,P|235:86|268:82,2,105,2|2|4,0:0|0:0|0:2,0:0:0:0:
170,169,77332,6,0,P|141:240|158:324,1,140,6|8,0:0|0:2,0:0:0:0:
228,357,77894,1,4,0:2:0:0:
228,357,77988,1,2,0:0:0:0:
228,357,78082,2,0,P|290:335|387:333,1,140,2|8,0:0|0:2,0:0:0:0:
457,355,78644,5,4,0:2:0:0:
457,355,78738,1,2,0:0:0:0:
457,355,78832,1,6,0:0:0:0:
490,263,79019,1,0,0:0:0:0:
402,217,79207,2,0,P|356:223|321:218,1,70,8|0,0:2|0:0,0:0:0:0:
362,126,79582,2,0,P|409:120|480:129,2,105,2|2|4,0:0|0:0|0:2,0:0:0:0:
264,140,80332,6,0,P|254:64|205:16,1,140,6|8,0:0|0:0,0:0:0:0:
124,65,80894,1,4,0:2:0:0:
124,65,80988,1,2,0:0:0:0:
124,65,81082,2,0,P|63:65|17:57,2,105,2|0|4,0:0|0:0|0:2,0:0:0:0:
188,139,81832,6,0,L|200:310,1,140,6|8,0:0|0:0,0:0:0:0:
102,299,82394,2,0,L|107:217,2,70,2|0|0,0:0|0:0|0:0,0:0:0:0:
174,365,82957,2,0,L|273:357,1,70,10|0,0:0|0:0,0:0:0:0:
324,302,83332,6,0,L|377:305,3,35,4|0|0|0,0:0|0:0|0:0|0:0,0:0:0:0:
278,223,83707,2,0,L|225:226,3,35,8|0|0|0,0:0|0:0|0:0|0:0,0:0:0:0:
332,148,84082,2,0,P|381:166|438:162,2,105,2|2|2,0:0|0:0|0:0,0:0:0:0:
217,80,84832,6,0,B|200:149|200:149|226:211|226:211|206:300,1,210,6|0,0:0|0:0,0:0:0:0:
119,318,85582,2,0,L|144:206,2,105,2|2|2,0:0|0:3|0:3,0:0:0:0:
203,367,86332,1,4,0:2:0:0:
203,367,86707,1,4,0:0:0:0:
306,364,89144,5,0,0:0:0:0:
306,364,89332,1,4,2:3:0:0:
199,300,89707,1,4,2:3:0:0:
209,101,92332,5,2,2:3:0:0:
316,37,92707,1,4,2:3:0:0:
306,364,95144,5,0,0:0:0:0:
306,364,95332,1,4,2:3:0:0:
199,300,95707,1,4,2:3:0:0:
353,168,98144,5,0,0:0:0:0:
353,168,98332,1,4,1:2:0:0:
181,76,98707,6,0,P|198:139|192:185,1,97.9999970092774,4|2,1:0|0:3,0:0:0:0:
170,240,99269,1,0,3:0:0:0:
105,275,99457,2,0,P|88:338|94:384,2,97.9999970092774
242,222,100582,1,0,0:0:0:0:
341,330,100957,1,2,0:3:0:0:
422,321,101144,1,0,1:0:0:0:
422,321,101332,6,0,L|410:207,1,97.9999970092774,0|0,1:0|1:0,0:0:0:0:
301,126,102082,1,0,0:0:0:0:
171,195,102457,1,0,0:0:0:0:
213,54,102832,2,0,P|249:49|329:27,2,97.9999970092774
69,21,103957,2,0,L|3:28,1,48.9999985046387,2|0,0:3|1:0,0:0:0:0:
102,92,104332,1,4,1:2:0:0:
352,166,104707,6,0,B|395:144|395:144|509:166,1,140,4|2,1:0|0:3,0:0:0:0:
478,237,105269,1,2,3:2:0:0:
418,286,105457,2,0,L|406:374,1,70,0|2,0:0|3:2,0:0:0:0:
329,301,105832,2,0,L|346:222,1,70,2|0,0:3|3:0,0:0:0:0:
274,198,106207,6,0,P|204:224|198:294,1,140,0|0,0:0|0:0,0:0:0:0:
214,355,106769,1,0,3:0:0:0:
138,340,106957,2,0,L|50:338,1,70,0|2,0:0|3:2,0:0:0:0:
10,254,107332,2,0,L|106:256,1,70,2|0,0:3|3:0,0:0:0:0:
256,192,107707,12,4,108832,1:2:0:0:
198,231,109582,6,0,P|189:283|187:376,2,136.499993751526,4|4|4,0:2|0:2|0:2,0:0:0:0:
302,157,110332,6,0,P|417:191|478:178,1,181.999991668702,4|12,0:2|0:0,0:0:0:0:
203,22,111082,2,0,P|207:163|201:186,1,136.499993751526,2|0,0:0|0:2,0:0:0:0:
184,185,111457,2,0,P|180:246|185:285,1,90.9999958343508,8|8,0:0|0:2,0:0:0:0:
66,327,111832,6,0,P|50:250|30:184,2,136.499993751526,2|2|2,0:0|0:0|0:0,0:0:0:0:
189,357,112582,2,0,P|288:339|332:339,1,136.499993751526,2|2,0:0|0:0,0:0:0:0:
351,362,112957,2,0,P|405:366|448:361,1,90.9999958343508,8|2,0:0|0:0,0:0:0:0:
480,240,113332,6,0,P|386:232|328:208,1,136.499993751526,2|2,0:0|0:0,0:0:0:0:
311,227,113707,1,8,0:0:0:0:
311,99,113894,1,2,0:0:0:0:
190,140,114082,2,0,P|195:217|190:315,1,136.499993751526,2|2,0:0|0:0,0:0:0:0:
161,294,114457,1,8,0:0:0:0:
44,246,114644,1,2,0:0:0:0:
69,120,114832,6,0,P|99:66|171:19,1,136.499993751526,2|2,0:0|0:0,0:0:0:0:
186,47,115207,2,0,P|262:54|288:52,1,90.9999958343508,8|2,0:0|0:0,0:0:0:0:
363,145,115582,2,0,P|287:138|261:140,1,90.9999958343508,2|0,0:0|0:0,0:0:0:0:
238,153,115863,1,2,0:0:0:0:
212,179,115957,1,8,0:0:0:0:
281,296,116144,1,2,0:0:0:0:
281,296,116332,6,0,P|359:293|436:300,2,136.499993751526,6|2|2,0:0|0:0|0:0,0:0:0:0:
181,375,117082,2,0,P|90:353|34:348,1,136.499993751526,2|2,0:0|0:0,0:0:0:0:
12,360,117457,2,0,P|25:298|43:242,1,90.9999958343508,8|2,0:0|0:0,0:0:0:0:
78,151,117832,2,0,P|169:173|225:178,1,136.499993751526,6|2,0:0|0:0,0:0:0:0:
245,191,118207,2,0,P|257:147|265:102,1,90.9999958343508,8|2,0:0|0:0,0:0:0:0:
362,193,118582,6,0,P|349:236|341:281,1,90.9999958343508,6|0,0:0|0:0,0:0:0:0:
372,300,118863,1,2,0:0:0:0:
404,317,118957,1,8,0:0:0:0:
490,224,119144,1,2,0:0:0:0:
414,120,119332,1,6,0:0:0:0:
256,192,119425,12,4,120832,0:0:0:0:
216,164,121582,6,0,P|291:153|335:157,2,105,4|4|4,0:2|0:2|0:2,0:0:0:0:
141,228,122332,1,4,0:2:0:0:
389,270,122707,1,4,0:0:0:0:
256,192,122800,12,0,124582,0:0:0:0:
