osu file format v14

[General]
AudioFilename: audio.mp3
AudioLeadIn: 0
PreviewTime: 108738
Countdown: 0
SampleSet: Soft
StackLeniency: 0.7
Mode: 0
LetterboxInBreaks: 0
WidescreenStoryboard: 0

[Editor]
DistanceSpacing: 0.8
BeatDivisor: 8
GridSize: 4
TimelineZoom: 2.16

[Metadata]
Title:CaptivAte ~chikai~
TitleUnicode:CaptivAte~誓い~
Artist:DJ YOSHITAKA feat. A/I
ArtistUnicode:DJ YOSHITAKA feat. A/I
Creator:PandaHero
Version:Another
Source:beatmania IIDX 14 GOLD
Tags:DanceDanceRevolution SuperNOVA2 ddr nostalish requiem bemani konami custom drive
BeatmapID:1768332
BeatmapSetID:845416

[Difficulty]
HPDrainRate:8
CircleSize:4
OverallDifficulty:8
ApproachRate:9
SliderMultiplier:1.6
SliderTickRate:1

[Events]
//Background and Video events
0,0,"maxresdefault.jpg",0,0
//Break Periods
2,89907,91732
2,95907,97544
//Storyboard Layer 0 (Background)
//Storyboard Layer 1 (Fail)
//Storyboard Layer 2 (Pass)
//Storyboard Layer 3 (Foreground)
//Storyboard Sound Samples

[TimingPoints]
846,750,4,2,0,20,1,0
3846,-100,4,2,0,25,0,0
6846,-100,4,2,0,27,0,0
9846,-100,4,2,0,29,0,0
10596,-100,4,2,0,33,0,0
11346,-100,4,2,0,36,0,0
12189,-100,4,2,0,10,0,0
12283,-100,4,2,0,15,0,0
12377,-100,4,2,0,20,0,0
12471,-100,4,2,0,25,0,0
12564,-100,4,2,0,30,0,0
12658,-100,4,2,0,35,0,0
12752,-100,4,2,0,40,0,0
14332,375,4,1,0,50,1,1
14425,-100,4,1,0,50,0,0
21644,-100,4,1,0,45,0,0
21832,-142.857142857143,4,1,0,40,0,0
22582,-142.857142857143,4,1,0,35,0,0
23332,-142.857142857143,4,1,0,30,0,0
25582,-100,4,1,0,50,0,0
25957,-66.6666666666667,4,1,0,45,0,0
26332,-83.3333333333333,4,1,0,60,0,0
36832,-83.3333333333333,4,1,0,15,0,0
37019,-83.3333333333333,4,1,0,25,0,0
37207,-83.3333333333333,4,1,0,35,0,0
37300,-83.3333333333333,4,1,0,40,0,0
37394,-83.3333333333333,4,1,0,45,0,0
37488,-83.3333333333333,4,1,0,50,0,0
37582,-142.857142857143,4,1,0,55,0,0
38332,-200,4,1,0,55,0,0
38707,-66.6666666666667,4,1,0,70,0,0
50332,-66.6666666666667,4,1,0,70,0,1
50613,-66.6666666666667,4,1,0,70,0,0
56332,-66.6666666666667,4,1,0,70,0,1
56613,-66.6666666666667,4,1,0,70,0,0
57832,-66.6666666666667,4,1,0,70,0,1
58113,-66.6666666666667,4,1,0,70,0,0
59332,-66.6666666666667,4,1,0,70,0,1
59425,-66.6666666666667,4,1,0,70,0,0
61582,-333.333333333333,4,1,0,60,0,0
62332,-83.3333333333333,4,1,0,60,0,1
62707,-83.3333333333333,4,1,0,60,0,0
86332,-83.3333333333333,4,1,0,60,0,1
86425,-83.3333333333333,4,1,0,60,0,0
86707,-83.3333333333333,4,1,0,45,0,1
86800,-83.3333333333333,4,1,0,45,0,0
89144,-83.3333333333333,4,1,0,30,0,0
92332,-200,4,1,0,50,0,0
92707,-200,4,1,0,30,0,0
98332,-142.857142857143,4,2,0,50,0,0
104332,-100,4,2,0,55,0,0
105832,-100,4,2,0,58,0,0
107707,-100,4,2,0,62,0,0
108082,-100,4,2,0,65,0,0
108457,-100,4,2,0,68,0,0
108832,-100,4,1,0,73,0,1
108925,-50,4,1,0,73,0,0
110332,-100,4,1,0,73,0,1
110519,-100,4,1,0,73,0,0
110707,-66.6666666666667,4,1,0,75,0,1
119425,-66.6666666666667,4,1,0,55,0,1
120082,-66.6666666666667,4,1,0,25,0,1
120175,-66.6666666666667,4,1,0,30,0,1
120269,-66.6666666666667,4,1,0,35,0,1
120363,-66.6666666666667,4,1,0,45,0,1
120457,-66.6666666666667,4,1,0,50,0,1
120550,-66.6666666666667,4,1,0,55,0,1
120644,-66.6666666666667,4,1,0,60,0,1
120738,-66.6666666666667,4,1,0,75,0,1
120832,-100,4,1,0,25,0,0
121207,-100,4,1,0,50,0,0
121300,-100,4,1,0,55,0,0
121394,-100,4,1,0,60,0,0
121488,-100,4,1,0,65,0,0
121582,-100,4,1,0,70,0,0
122707,-100,4,1,0,60,0,0
122800,-100,4,2,0,35,0,0
123832,-100,4,2,0,30,0,0
124019,-100,4,2,0,25,0,0
124207,-100,4,2,0,20,0,0
124394,-100,4,2,0,15,0,0
124582,-100,4,2,0,10,0,0

[Colours]
Combo1 : 17,254,176
Combo2 : 173,255,95
Combo3 : 255,88,100
Combo4 : 255,94,55

[HitObjects]
36,345,846,6,0,P|72:337|103:335,2,53.3333333333333,6|0|2,0:0|0:0|0:0,0:0:0:0:
105,221,1596,2,0,P|167:234|230:251,1,106.666666666667,2|0,1:2|2:0,0:0:0:0:
211,75,2346,2,0,P|263:110|312:149,1,106.666666666667,2|0,1:2|2:0,0:0:0:0:
370,8,3096,2,0,P|405:60|433:106,1,106.666666666667,2|2,1:2|0:0,0:0:0:0:
354,357,3846,5,2,0:0:0:0:
255,308,4096,1,0,0:0:0:0:
174,365,4346,1,2,0:0:0:0:
312,228,4596,2,0,P|296:149|280:104,1,106.666666666667,2|0,1:2|2:0,0:0:0:0:
386,305,5346,2,0,P|403:215|405:186,1,106.666666666667,2|0,1:2|2:0,0:0:0:0:
457,358,6096,1,2,1:2:0:0:
457,358,6596,1,2,1:2:0:0:
380,208,6846,5,6,0:0:0:0:
373,315,7096,1,0,0:0:0:0:
467,266,7346,1,2,0:0:0:0:
380,184,7596,5,2,1:2:0:0:
394,290,7846,1,0,0:0:0:0:
477,224,8096,1,2,0:0:0:0:
376,160,8346,5,2,1:2:0:0:
410,262,8596,1,0,0:0:0:0:
479,181,8846,1,2,0:0:0:0:
368,137,9096,5,2,1:2:0:0:
421,231,9346,1,0,0:0:0:0:
473,139,9596,1,2,0:0:0:0:
356,117,9846,5,2,1:2:0:0:
356,117,10346,1,2,0:0:0:0:
228,148,10596,1,6,1:2:0:0:
228,148,11096,1,2,0:0:0:0:
374,225,11346,1,2,1:2:0:0:
374,225,11846,1,2,0:0:0:0:
246,57,12096,1,6,1:2:0:0:
256,192,12189,12,2,12846,0:0:0:0:
46,131,14332,6,0,P|114:120|192:82,1,120,4|0,0:0|3:0,0:0:0:0:
176,113,14707,2,0,L|173:219,1,80,8|2,0:2|0:2,0:0:0:0:
183,210,14988,1,0,0:0:0:0:
192,227,15082,1,2,0:2:0:0:
292,247,15269,1,0,0:0:0:0:
254,334,15457,1,8,0:2:0:0:
297,159,15644,1,2,3:3:0:0:
308,142,15738,1,2,3:3:0:0:
321,127,15832,6,0,P|366:80|413:49,2,120,4|2|8,0:2|3:2|3:2,0:0:0:0:
191,257,16582,2,0,P|146:304|99:335,2,120,4|2|8,0:2|3:2|3:2,0:0:0:0:
401,334,17332,5,4,0:0:0:0:
401,334,17425,1,2,0:0:0:0:
201,156,17707,1,8,0:2:0:0:
108,196,17894,1,2,0:2:0:0:
20,147,18082,2,0,P|35:55|51:15,1,120,0|0,0:0|3:0,0:0:0:0:
63,24,18457,1,8,0:2:0:0:
307,113,18644,1,2,0:3:0:0:
287,118,18738,1,2,0:3:0:0:
268,125,18832,6,0,P|266:193|257:268,1,120,4|0,0:2|3:2,0:0:0:0:
97,306,19207,2,0,P|137:294|201:293,1,80,2|8,0:2|3:2,0:0:0:0:
358,333,19582,2,0,P|318:345|254:346,1,80
153,207,19957,1,8,0:2:0:0:
191,88,20144,1,2,3:0:0:0:
346,132,20332,6,0,P|404:139|485:93,1,120,4|0,0:0|3:0,0:0:0:0:
471,127,20707,1,8,0:2:0:0:
481,28,20894,1,2,0:2:0:0:
419,220,21082,2,0,L|403:350,1,120,0|0,0:0|3:0,0:0:0:0:
386,348,21457,1,8,0:2:0:0:
227,368,21644,1,2,3:0:0:0:
210,357,21738,1,2,3:0:0:0:
192,349,21832,6,0,P|152:336|87:321,2,83.9999974365235,4|2|2,0:2|3:2|3:0,0:0:0:0:
191,227,22582,2,0,P|155:204|100:175,2,83.9999974365235,4|2|2,0:2|3:2|3:0,0:0:0:0:
279,268,23332,1,0,0:0:0:0:
256,192,23425,12,0,24832,0:0:0:0:
330,106,25582,6,0,P|308:155|290:206,1,80,4|0,0:2|2:0,0:0:0:0:
186,35,25957,2,2,B|186:43|186:43|190:47|190:47|186:51|186:51|190:55|190:55|186:59|186:59|190:63|190:63|186:67|186:67|190:71|190:71|186:75|186:75|190:79|190:79|186:83|186:83|190:87|190:87|186:91|186:91|190:95|190:95|186:99|186:99|190:103|190:103|186:107|186:107|190:111|190:111|186:115|186:115|190:119|190:119|186:123|186:123|190:127|190:127|186:131|186:131|190:135|190:135|186:139|186:139|190:143|190:143|186:147|186:147|190:151|190:151|186:155|186:155|190:159|190:159|186:163|186:163|186:175,1,180.000006866455,2|0,0:0|2:0,0:0:0:0:
180,207,26332,6,0,P|106:198|10:209,1,143.999995605469,6|0,0:2|2:0,0:0:0:0:
36,203,26707,1,8,0:2:0:0:
206,299,26894,1,0,0:0:0:0:
274,177,27082,2,0,P|284:89|307:25,1,143.999995605469,6|0,0:2|2:0,0:0:0:0:
301,36,27457,1,8,0:2:0:0:
395,158,27644,1,0,0:0:0:0:
395,158,27738,1,0,0:0:0:0:
395,158,27832,6,0,P|396:231|386:322,1,143.999995605469,6|0,0:2|2:0,0:0:0:0:
502,224,28207,2,0,P|492:283|486:349,1,95.9999970703126,8|0,0:2|0:0,0:0:0:0:
321,364,28582,2,0,P|199:342|151:342,1,143.999995605469,6|0,0:2|2:0,0:0:0:0:
179,341,28957,1,8,0:2:0:0:
48,355,29144,1,8,0:2:0:0:
186,203,29332,5,6,0:2:0:0:
186,203,29707,1,8,0:2:0:0:
132,282,29894,1,0,0:0:0:0:
40,173,30082,2,0,P|64:99|103:29,1,143.999995605469,6|0,0:2|2:0,0:0:0:0:
95,40,30457,1,8,0:2:0:0:
344,196,30644,1,0,0:0:0:0:
344,196,30738,1,0,0:0:0:0:
344,196,30832,6,0,P|338:140|311:48,1,143.999995605469,6|0,0:2|2:0,0:0:0:0:
438,170,31207,2,0,P|428:108|412:50,1,95.9999970703126,8|0,0:2|0:0,0:0:0:0:
151,246,31582,1,6,0:2:0:0:
219,353,31769,1,0,0:0:0:0:
325,292,31957,1,8,0:2:0:0:
257,185,32144,1,8,0:2:0:0:
52,266,32332,6,0,P|46:201|59:106,1,143.999995605469,6|0,0:2|2:0,0:0:0:0:
54,123,32707,1,8,0:2:0:0:
124,53,32894,1,0,0:0:0:0:
218,84,33082,1,6,0:2:0:0:
215,184,33269,1,0,0:0:0:0:
218,84,33457,1,8,0:2:0:0:
377,44,33644,1,0,0:0:0:0:
377,44,33738,1,0,0:0:0:0:
377,44,33832,6,0,P|408:115|430:185,1,143.999995605469,6|0,0:2|2:0,0:0:0:0:
428,177,34207,1,8,0:2:0:0:
355,290,34394,1,0,0:0:0:0:
226,291,34582,2,0,P|169:261|77:199,2,143.999995605469,6|2|8,0:2|0:3|0:2,0:0:0:0:
379,363,35332,5,6,1:2:0:0:
393,361,35425,1,0,3:0:0:0:
407,359,35519,1,2,3:0:0:0:
421,358,35613,1,2,3:0:0:0:
458,349,35707,5,8,3:2:0:0:
484,321,35800,1,0,3:0:0:0:
485,282,35894,1,2,3:0:0:0:
470,246,35988,1,0,3:0:0:0:
417,222,36082,5,6,0:2:0:0:
359,225,36175,1,0,0:0:0:0:
305,247,36269,1,2,0:3:0:0:
247,239,36363,1,2,0:3:0:0:
204,199,36457,1,8,0:2:0:0:
216,143,36550,1,0,0:0:0:0:
269,122,36644,1,2,0:3:0:0:
304,76,36738,1,0,0:0:0:0:
271,28,36832,6,0,L|237:29,14,23.9999992675781,6|0|0|0|0|0|0|0|0|0|0|0|0|0|0,0:2|0:0|0:0|0:0|0:0|0:0|0:0|0:0|0:0|0:0|0:0|0:0|0:0|0:0|0:0,0:0:0:0:
304,47,37582,5,2,0:2:0:0:
475,118,37863,5,2,3:0:0:0:
386,271,38144,5,2,3:0:0:0:
218,139,38332,6,0,L|259:148,1,40,4|0,0:0|2:0,0:0:0:0:
149,185,38707,6,0,B|96:197|96:197|-4:185,1,120.000004577637,6|0,0:0|0:0,0:0:0:0:
116,348,39082,2,0,B|194:328|194:328|305:351,1,180.000006866455,2|2,0:0|3:1,0:0:0:0:
316,364,39457,1,8,0:0:0:0:
380,255,39644,1,2,0:3:0:0:
380,255,39738,1,0,3:0:0:0:
380,255,39832,5,2,0:0:0:0:
248,180,40019,1,0,0:0:0:0:
267,268,40207,1,8,0:0:0:0:
359,163,40394,1,2,0:0:0:0:
359,163,40488,1,0,3:0:0:0:
359,163,40582,2,0,P|362:91|351:42,1,120.000004577637,0|2,0:0|0:0,0:0:0:0:
485,127,40957,1,8,0:2:0:0:
446,283,41144,1,2,0:0:0:0:
294,244,41332,6,0,L|208:229,2,60.0000022888184,4|0|2,0:2|3:1|0:0,0:0:0:0:
333,356,41707,1,8,0:0:0:0:
329,219,41894,1,0,0:0:0:0:
144,272,42082,2,0,P|77:305|-3:305,1,120.000004577637,2|0,0:0|0:0,0:0:0:0:
32,309,42363,1,2,3:1:0:0:
32,309,42457,1,8,0:0:0:0:
28,129,42644,1,2,0:3:0:0:
28,129,42738,1,0,3:0:0:0:
28,129,42832,5,0,0:0:0:0:
149,180,43019,1,0,0:0:0:0:
41,223,43207,1,8,0:0:0:0:
123,72,43394,1,2,0:0:0:0:
41,223,43582,2,0,P|35:284|30:359,1,120.000004577637,2|0,0:0|0:0,0:0:0:0:
60,349,43863,1,2,3:1:0:0:
89,354,43957,1,8,0:0:0:0:
196,244,44144,1,2,0:0:0:0:
349,347,44332,6,0,P|348:263|333:157,1,180.000006866455,6|0,0:0|3:0,0:0:0:0:
314,146,44707,1,8,0:0:0:0:
189,165,44894,1,2,0:0:0:0:
421,264,45082,1,2,0:0:0:0:
421,264,45175,1,0,3:0:0:0:
476,161,45363,1,2,3:1:0:0:
476,161,45457,1,8,0:0:0:0:
310,44,45644,1,2,0:3:0:0:
310,44,45738,1,0,3:0:0:0:
310,44,45832,6,0,P|218:58|124:55,1,180.000006866455,6|0,0:0|3:0,0:0:0:0:
131,55,46207,1,8,0:0:0:0:
26,32,46394,1,2,0:0:0:0:
66,128,46582,1,2,0:0:0:0:
86,149,46675,2,0,L|75:323,1,120.000004577637,0|2,0:0|3:1,0:0:0:0:
57,290,46957,1,8,0:0:0:0:
225,348,47144,5,2,0:3:0:0:
221,318,47238,1,2,0:3:0:0:
217,288,47332,1,0,0:0:0:0:
211,258,47425,1,2,0:3:0:0:
206,228,47519,1,2,0:3:0:0:
430,282,47707,1,8,0:0:0:0:
347,370,47894,1,0,0:0:0:0:
299,160,48082,5,2,0:0:0:0:
299,160,48175,1,0,3:0:0:0:
377,66,48363,1,2,3:1:0:0:
377,66,48457,1,8,0:0:0:0:
251,54,48644,1,2,0:0:0:0:
448,187,48832,6,0,P|471:257|461:387,1,180.000006866455,6|0,0:0|3:0,0:0:0:0:
438,357,49207,1,8,0:0:0:0:
277,321,49394,1,0,0:0:0:0:
359,182,49582,1,2,0:0:0:0:
159,360,49769,1,2,0:0:0:0:
191,57,49957,1,8,0:0:0:0:
235,210,50144,1,2,0:0:0:0:
102,37,50332,6,0,P|19:80|11:164,1,180.000006866455,6|0,0:0|3:0,0:0:0:0:
30,180,50707,1,8,0:0:0:0:
147,180,50894,1,2,0:2:0:0:
133,368,51082,2,0,P|130:308|102:242,1,120.000004577637,2|0,0:0|0:0,0:0:0:0:
34,291,51457,1,8,0:0:0:0:
149,104,51644,1,2,0:3:0:0:
177,112,51738,1,0,3:0:0:0:
205,120,51832,6,0,P|271:108|327:67,1,120.000004577637,6|0,0:0|0:0,0:0:0:0:
419,10,52207,1,8,0:0:0:0:
363,208,52394,1,2,0:3:0:0:
363,208,52488,1,0,3:0:0:0:
363,208,52582,2,0,P|327:284|336:349,2,120.000004577637,2|0|8,0:0|0:0|0:0,0:0:0:0:
424,314,53144,1,8,0:2:0:0:
245,384,53332,6,0,P|223:296|178:197,1,180.000006866455,6|0,0:0|3:0,0:0:0:0:
157,211,53707,1,8,0:0:0:0:
72,253,53894,1,2,0:2:0:0:
33,48,54082,2,0,P|40:110|52:171,1,120.000004577637,2|0,0:0|0:0,0:0:0:0:
146,122,54457,1,8,0:0:0:0:
80,259,54644,1,2,0:3:0:0:
80,259,54738,1,0,3:0:0:0:
80,259,54832,5,6,0:0:0:0:
172,307,55019,1,0,0:0:0:0:
83,357,55207,1,8,0:0:0:0:
178,210,55394,1,2,0:3:0:0:
178,210,55488,1,0,3:0:0:0:
178,210,55582,2,0,P|221:159|285:108,1,120.000004577637,2|0,0:0|0:0,0:0:0:0:
485,206,55957,1,8,0:0:0:0:
370,126,56144,1,8,0:2:0:0:
477,70,56332,6,0,P|470:123|464:287,1,180.000006866455,6|0,0:0|3:0,0:0:0:0:
447,275,56707,2,0,P|390:260|327:255,1,120.000004577637,8|2,0:0|0:2,0:0:0:0:
148,316,57082,2,0,P|205:331|268:336,1,120.000004577637,2|0,0:0|0:0,0:0:0:0:
342,166,57457,1,8,0:0:0:0:
249,37,57644,1,2,0:3:0:0:
230,60,57738,1,0,3:0:0:0:
206,78,57832,6,0,P|127:86|8:72,1,180.000006866455,6|0,0:0|3:0,0:0:0:0:
24,106,58207,2,0,P|19:152|24:229,1,120.000004577637,8|2,0:0|0:2,0:0:0:0:
176,328,58582,2,0,P|181:282|176:205,1,120.000004577637,2|0,0:0|0:0,0:0:0:0:
68,312,58957,1,8,0:0:0:0:
112,138,59144,1,2,0:3:0:0:
112,138,59238,1,0,0:0:0:0:
112,138,59332,5,6,0:0:0:0:
129,114,59425,1,0,0:0:0:0:
153,96,59519,1,0,0:0:0:0:
182,88,59613,1,0,0:0:0:0:
211,82,59707,1,8,0:0:0:0:
240,87,59800,1,0,0:0:0:0:
268,97,59894,1,0,0:0:0:0:
297,100,59988,1,0,0:0:0:0:
326,97,60082,1,6,0:0:0:0:
352,84,60175,1,0,0:0:0:0:
373,63,60269,1,0,0:0:0:0:
390,38,60363,1,0,0:0:0:0:
431,62,60457,5,8,0:0:0:0:
444,107,60550,1,0,0:0:0:0:
447,154,60644,1,0,0:0:0:0:
431,199,60738,1,0,0:0:0:0:
438,246,60832,6,0,L|489:252,6,30.0000011444092,6|0|0|0|0|0|0,0:0|0:0|0:0|0:0|0:0|0:0|0:0,0:0:0:0:
351,302,61207,2,0,L|300:296,6,30.0000011444092
439,358,61582,1,4,0:2:0:0:
439,358,62332,6,0,P|380:339|218:336,1,191.999994140625,6|8,0:0|0:2,0:0:0:0:
81,329,62894,2,0,P|145:313|192:271,1,95.9999970703126,4|0,0:2|0:0,0:0:0:0:
269,158,63269,2,0,P|246:214|235:281,1,95.9999970703126,4|8,0:2|0:2,0:0:0:0:
195,93,63644,1,2,0:0:0:0:
282,41,63832,6,0,P|314:56|395:62,2,95.9999970703126,2|0|8,0:0|0:0|0:2,0:0:0:0:
123,0,64394,2,0,P|44:48|53:168,1,191.999994140625,4|0,0:2|0:0,0:0:0:0:
139,242,64957,2,0,P|137:186|129:138,1,95.9999970703126,8|0,0:2|0:0,0:0:0:0:
130,359,65332,5,2,0:0:0:0:
130,359,65707,1,8,0:2:0:0:
252,243,65894,1,2,0:0:0:0:
351,284,66082,2,0,P|353:228|361:166,1,95.9999970703126,2|0,0:0|0:0,0:0:0:0:
417,363,66457,1,8,0:2:0:0:
282,109,66644,5,0,0:0:0:0:
282,109,66738,1,0,0:0:0:0:
282,109,66832,1,2,0:0:0:0:
461,156,67019,1,0,0:0:0:0:
469,46,67207,1,8,0:2:0:0:
377,96,67394,1,2,0:0:0:0:
377,96,67488,1,0,0:0:0:0:
377,96,67582,1,0,0:0:0:0:
461,156,67769,1,2,0:0:0:0:
469,46,67957,1,8,0:2:0:0:
323,257,68144,1,2,0:0:0:0:
232,200,68332,6,0,P|211:96|182:9,1,191.999994140625,6|8,0:0|0:2,0:0:0:0:
18,169,68894,2,0,P|23:106|29:56,1,95.9999970703126,2|0,0:0|0:0,0:0:0:0:
127,247,69269,2,0,P|123:199|115:139,1,95.9999970703126,2|8,0:0|0:2,0:0:0:0:
68,320,69644,1,2,0:0:0:0:
177,346,69832,6,0,B|282:308|276:375|370:340,1,191.999994140625,2|8,0:0|0:2,0:0:0:0:
474,226,70394,1,4,0:2:0:0:
474,226,70582,2,0,P|395:224|341:209,1,95.9999970703126
263,181,70957,1,8,0:2:0:0:
337,29,71144,1,2,0:0:0:0:
337,29,71238,1,0,0:0:0:0:
337,29,71332,5,2,0:0:0:0:
355,129,71519,1,0,0:0:0:0:
185,108,71707,1,8,0:2:0:0:
272,92,71894,1,2,0:0:0:0:
263,181,72082,2,0,P|241:269|241:345,1,143.999995605469,2|0,0:0|3:0,0:0:0:0:
240,360,72457,2,0,P|168:346|129:348,1,95.9999970703126,8|0,0:2|0:0,0:0:0:0:
387,262,72832,6,0,P|459:276|498:274,2,95.9999970703126,2|0|8,0:0|0:0|0:2,0:0:0:0:
239,232,73394,1,0,0:0:0:0:
374,148,73582,1,2,0:0:0:0:
191,102,73769,1,2,0:0:0:0:
155,116,73863,1,0,0:0:0:0:
116,110,73957,1,8,0:2:0:0:
94,78,74050,1,0,0:0:0:0:
63,53,74144,1,2,0:0:0:0:
30,73,74238,1,0,0:0:0:0:
24,111,74332,6,0,P|16:202|10:309,1,191.999994140625,6|8,0:0|0:2,0:0:0:0:
221,362,74894,1,4,0:2:0:0:
221,362,74988,1,2,0:0:0:0:
221,362,75082,1,2,0:0:0:0:
240,205,75363,5,2,0:0:0:0:
261,47,75644,5,4,0:2:0:0:
340,92,75832,6,0,P|442:83|493:12,1,191.999994140625,6|8,0:0|0:2,0:0:0:0:
268,55,76394,1,4,0:2:0:0:
268,55,76488,1,2,0:0:0:0:
268,55,76582,1,2,0:0:0:0:
107,203,76863,5,2,0:0:0:0:
345,253,77144,5,4,0:2:0:0:
240,170,77332,6,0,P|225:233|223:291,1,95.9999970703126,6|0,0:0|0:0,0:0:0:0:
272,351,77707,1,8,0:2:0:0:
422,236,77894,1,4,0:2:0:0:
422,236,77988,1,2,0:0:0:0:
422,236,78082,2,0,P|402:133|368:45,1,191.999994140625,2|8,0:0|0:2,0:0:0:0:
108,284,78644,1,4,0:2:0:0:
93,271,78738,1,2,0:0:0:0:
80,256,78832,6,0,P|89:200|102:137,1,95.9999970703126,6|0,0:0|0:0,0:0:0:0:
241,354,79207,2,0,P|232:298|219:235,1,95.9999970703126,8|0,0:2|0:0,0:0:0:0:
173,34,79582,5,2,0:0:0:0:
346,112,79863,5,2,0:0:0:0:
177,182,80144,5,4,0:2:0:0:
250,102,80332,6,0,P|324:69|439:44,1,191.999994140625,6|8,0:0|0:0,0:0:0:0:
334,243,80894,1,4,0:2:0:0:
316,234,80988,1,2,0:0:0:0:
296,235,81082,2,0,P|276:285|271:379,2,143.999995605469,2|0|4,0:0|0:0|0:2,0:0:0:0:
460,132,81832,5,6,0:0:0:0:
321,104,82019,1,0,0:0:0:0:
243,165,82207,1,8,0:0:0:0:
102,154,82394,1,2,0:0:0:0:
22,204,82582,2,0,P|7:268|4:326,1,95.9999970703126
180,103,82957,2,0,P|195:39|198:-19,1,95.9999970703126,10|0,0:0|0:0,0:0:0:0:
146,291,83332,5,4,0:0:0:0:
183,300,83425,1,0,0:0:0:0:
220,309,83519,1,0,0:0:0:0:
257,319,83613,1,0,0:0:0:0:
291,301,83707,1,8,0:0:0:0:
328,312,83800,1,0,0:0:0:0:
366,321,83894,1,0,0:0:0:0:
403,330,83988,1,0,0:0:0:0:
436,311,84082,6,0,L|443:276,6,23.9999992675781,2|0|0|0|0|0|2,0:0|0:0|0:0|0:0|0:0|0:0|0:0,0:0:0:0:
390,224,84457,2,0,L|390:184,6,23.9999992675781,8|0|0|0|2|0|0,0:0|0:0|0:0|0:0|0:0|0:0|0:0,0:0:0:0:
459,156,84832,1,6,0:0:0:0:
459,156,85582,5,2,0:0:0:0:
330,171,85863,5,2,0:3:0:0:
201,186,86144,5,2,0:3:0:0:
73,205,86332,5,4,0:2:0:0:
73,205,86707,1,4,0:0:0:0:
256,192,86800,12,0,89144,0:0:0:0:
73,205,89332,5,4,2:3:0:0:
199,240,89707,1,4,2:3:0:0:
422,118,92332,5,2,2:3:0:0:
296,153,92707,1,4,2:3:0:0:
256,192,92800,12,0,95144,0:0:0:0:
73,205,95332,5,4,2:3:0:0:
199,240,95707,1,4,2:3:0:0:
303,42,98144,5,0,0:0:0:0:
303,42,98332,1,4,1:2:0:0:
303,42,98707,6,0,P|291:120|294:174,1,111.999996582031,4|2,1:0|0:3,0:0:0:0:
350,209,99269,1,0,3:0:0:0:
350,209,99457,2,0,L|343:278,1,55.9999982910157,0|0,0:0|3:0,0:0:0:0:
423,259,99832,2,0,L|404:329,1,55.9999982910157,0|0,0:0|3:0,0:0:0:0:
310,340,100207,6,0,L|268:334,2,27.9999991455078,0|0|0,0:0|0:0|3:0,0:0:0:0:
262,262,100582,2,0,L|220:256,2,27.9999991455078,0|0|0,0:0|0:0|3:0,0:0:0:0:
239,178,100957,1,2,0:3:0:0:
142,151,101144,1,0,1:0:0:0:
142,151,101332,6,0,P|142:203|135:275,1,111.999996582031,0|0,1:0|1:0,0:0:0:0:
59,272,101894,1,0,3:0:0:0:
59,272,102082,2,0,L|52:222,2,27.9999991455078,0|0|0,0:0|0:0|3:0,0:0:0:0:
107,331,102457,2,0,L|114:381,2,27.9999991455078,0|0|0,0:0|0:0|3:0,0:0:0:0:
154,266,102832,6,0,L|224:270,1,55.9999982910157,0|0,0:0|3:0,0:0:0:0:
272,216,103207,2,0,L|352:224,1,55.9999982910157,0|0,0:0|3:0,0:0:0:0:
255,129,103582,2,0,P|188:104|135:117,1,111.999996582031,0|2,0:0|0:3,0:0:0:0:
149,110,104144,1,0,1:0:0:0:
288,26,104332,1,4,1:2:0:0:
288,26,104707,6,0,L|462:36,1,160,4|2,1:0|0:3,0:0:0:0:
488,126,105269,1,2,3:2:0:0:
400,131,105457,1,0,0:0:0:0:
400,131,105550,1,0,0:0:0:0:
400,131,105644,1,2,3:2:0:0:
338,217,105832,1,2,0:3:0:0:
446,221,106019,1,0,3:0:0:0:
400,131,106207,1,0,0:0:0:0:
400,131,106300,1,0,0:0:0:0:
400,131,106394,1,2,3:2:0:0:
294,117,106582,5,0,0:0:0:0:
294,117,106675,1,0,0:0:0:0:
294,117,106769,1,0,3:0:0:0:
226,185,106957,1,0,0:0:0:0:
226,185,107050,1,0,0:0:0:0:
226,185,107144,1,2,3:2:0:0:
281,278,107332,1,2,0:3:0:0:
281,278,107425,1,0,0:0:0:0:
281,278,107519,1,0,3:0:0:0:
381,248,107707,5,0,3:0:0:0:
381,248,107800,1,0,3:0:0:0:
381,248,107894,5,0,1:0:0:0:
375,208,107988,1,0,1:0:0:0:
347,178,108082,1,0,1:0:0:0:
313,177,108175,1,0,1:0:0:0:
276,161,108269,1,0,1:0:0:0:
238,174,108363,1,0,1:0:0:0:
179,186,108457,5,0,1:0:0:0:
126,157,108550,1,0,1:0:0:0:
109,99,108644,1,0,1:0:0:0:
131,43,108738,1,0,1:0:0:0:
187,22,108832,1,4,1:2:0:0:
187,22,109582,5,4,0:2:0:0:
57,353,109863,5,4,0:2:0:0:
433,250,110144,5,4,0:2:0:0:
92,156,110332,6,0,P|105:110|113:56,1,80,4|0,1:2|2:0,0:0:0:0:
182,193,110707,6,0,P|166:281|173:386,1,180.000006866455,12|0,0:0|2:0,0:0:0:0:
206,365,111082,1,2,0:0:0:0:
328,219,111269,1,2,0:0:0:0:
363,221,111363,1,8,0:2:0:0:
490,143,111550,1,2,0:0:0:0:
453,143,111644,1,8,0:2:0:0:
233,31,111832,6,0,P|163:52|76:56,1,120.000004577637,2|0,0:0|2:0,0:0:0:0:
81,50,112113,1,2,0:0:0:0:
48,35,112207,1,8,0:0:0:0:
230,231,112394,1,2,0:0:0:0:
58,311,112582,1,2,0:0:0:0:
105,155,112769,1,8,0:2:0:0:
105,155,112863,1,2,0:0:0:0:
210,357,113050,1,8,0:2:0:0:
210,357,113144,1,2,0:0:0:0:
231,138,113332,6,0,P|255:79|299:0,1,120.000004577637,2|0,0:0|2:0,0:0:0:0:
316,21,113613,1,2,0:0:0:0:
351,23,113707,1,8,0:0:0:0:
486,158,113894,1,2,0:0:0:0:
361,212,114082,2,0,P|337:271|314:358,1,120.000004577637,2|2,0:0|2:3,0:0:0:0:
342,354,114363,1,2,0:0:0:0:
372,373,114457,1,8,0:0:0:0:
407,377,114550,1,2,0:3:0:0:
442,371,114644,1,2,0:0:0:0:
349,114,114832,5,2,0:0:0:0:
59,197,115019,1,8,0:2:0:0:
95,202,115113,1,2,0:0:0:0:
222,87,115300,1,8,0:2:0:0:
186,82,115394,1,2,0:0:0:0:
37,315,115582,5,2,0:0:0:0:
327,232,115769,1,8,0:2:0:0:
291,227,115863,1,2,0:0:0:0:
164,342,116050,1,8,0:2:0:0:
200,347,116144,1,2,0:0:0:0:
235,351,116238,1,2,0:3:0:0:
270,358,116332,6,0,P|281:271|269:143,1,180.000006866455,6|2,0:0|2:1,0:0:0:0:
250,153,116707,1,8,0:0:0:0:
104,79,116894,1,2,0:0:0:0:
250,18,117082,1,2,0:0:0:0:
399,86,117269,1,8,0:2:0:0:
399,86,117363,1,2,0:0:0:0:
256,158,117550,1,8,0:2:0:0:
256,158,117644,1,2,0:0:0:0:
399,86,117832,5,6,0:0:0:0:
254,23,118019,1,8,0:2:0:0:
254,23,118113,1,2,0:0:0:0:
109,83,118300,1,8,0:2:0:0:
109,83,118394,1,2,0:0:0:0:
256,158,118582,5,6,0:0:0:0:
113,87,118769,1,8,0:2:0:0:
113,87,118863,1,2,0:0:0:0:
258,27,119050,1,8,0:2:0:0:
258,27,119144,1,2,0:0:0:0:
251,192,119332,5,6,0:0:0:0:
252,209,119425,1,0,0:0:0:0:
251,227,119519,1,0,0:0:0:0:
250,245,119613,1,2,0:0:0:0:
282,280,119707,1,8,0:0:0:0:
283,297,119800,1,0,0:0:0:0:
282,315,119894,1,2,0:0:0:0:
281,333,119988,1,0,0:0:0:0:
235,349,120082,6,0,L|235:380,14,30.0000011444092
167,305,120832,6,0,L|167:277,14,20
97,344,121582,5,4,0:2:0:0:
32,161,121863,5,4,0:2:0:0:
203,32,122144,5,4,0:2:0:0:
378,160,122332,5,4,0:2:0:0:
378,160,122707,1,4,0:0:0:0:
256,192,122800,12,0,124582,0:0:0:0:
