osu file format v14

[General]
AudioFilename: audio.mp3
AudioLeadIn: 0
PreviewTime: 56415
Countdown: 0
SampleSet: Soft
StackLeniency: 0.7
Mode: 0
LetterboxInBreaks: 1
WidescreenStoryboard: 0

[Editor]
DistanceSpacing: 1.2
BeatDivisor: 4
GridSize: 8
TimelineZoom: 1.3

[Metadata]
Title:CaptivAte ~Sabaki~
TitleUnicode:CaptivAte ~裁き~
Artist:DJ YOSHITAKA feat. A/I
ArtistUnicode:DJ YOSHITAKA feat. A/I
Creator:semaphore
Version:Standard
Source:beatmania IIDX 14 GOLD
Tags:la cataline lc reiji-rj icebeam evilelvis jounzan natteke desu guitarfreaks & drummania v2 video rhythm game japanese electronic NOSTALISH REQUIEM
BeatmapID:3380760
BeatmapSetID:1656289

[Difficulty]
HPDrainRate:4
CircleSize:3
OverallDifficulty:4
ApproachRate:5
SliderMultiplier:1
SliderTickRate:1

[Events]
//Background and Video events
0,0,"bg.jpg",0,0
//Break Periods
2,81620,87886
//Storyboard Layer 0 (Background)
//Storyboard Layer 1 (Fail)
//Storyboard Layer 2 (Pass)
//Storyboard Layer 3 (Foreground)
//Storyboard Layer 4 (Overlay)
//Storyboard Sound Samples

[TimingPoints]
1087,333.333333333333,4,2,0,30,1,0
1087,-125,4,2,0,30,0,0
11753,-111.111111111111,4,1,0,50,0,0
11836,-111.111111111111,4,2,0,70,0,0
12170,-111.111111111111,4,1,0,50,0,0
13503,-111.111111111111,4,2,0,70,0,0
17003,-111.111111111111,4,1,0,50,0,0
17170,-111.111111111111,4,2,0,70,0,0
17503,-111.111111111111,4,1,0,50,0,0
18836,-111.111111111111,4,2,0,60,0,0
21420,-111.111111111111,4,2,0,70,0,0
22420,-111.111111111111,4,2,0,20,0,1
23753,-125,4,1,0,50,0,0
23836,-125,4,2,0,70,0,0
24503,-125,4,1,0,50,0,0
26670,-125,4,2,0,70,0,0
27670,-125,4,1,0,50,0,0
27836,-125,4,2,0,70,0,0
28170,-125,4,1,0,50,0,0
30503,-125,4,2,0,70,0,0
30836,-125,4,1,0,50,0,0
31503,-125,4,2,0,70,0,0
31670,-125,4,1,0,50,0,0
31836,-125,4,2,0,70,0,0
33003,-125,4,1,0,50,0,0
33170,-125,4,2,0,70,0,0
33670,-125,4,1,0,50,0,0
34003,-125,4,2,0,70,0,0
34336,-125,4,1,0,50,0,0
34503,-125,4,2,0,70,0,0
35170,-125,4,1,0,50,0,0
36836,-125,4,2,0,70,0,0
37003,-125,4,1,0,50,0,0
37170,-125,4,2,0,70,0,0
38336,-125,4,1,0,50,0,0
38503,-125,4,2,0,70,0,0
38836,-125,4,1,0,50,0,0
41170,-125,4,2,0,70,0,0
41503,-125,4,1,0,50,0,0
42170,-125,4,2,0,70,0,0
42336,-125,4,1,0,50,0,0
42503,-125,4,2,0,70,0,0
43670,-125,4,1,0,50,0,0
43836,-125,4,2,0,70,0,0
44336,-125,4,1,0,50,0,0
44670,-125,4,2,0,70,0,0
45086,-125,4,1,0,30,0,0
46003,-125,4,2,0,50,0,0
47003,-125,4,1,0,30,0,0
48503,-125,4,2,0,50,0,0
49670,-125,4,1,0,30,0,0
51336,-125,4,2,0,50,0,0
52336,-125,4,1,0,30,0,0
53170,-125,4,2,0,50,0,0
53670,-125,4,1,0,30,0,0
54003,-125,4,2,0,50,0,0
55003,-125,4,1,0,30,0,0
57086,-100,4,1,0,60,0,1
57336,-100,4,2,0,80,0,1
57836,-100,4,1,0,60,0,1
58003,-100,4,2,0,80,0,1
58336,-100,4,1,0,60,0,1
58670,-100,4,2,0,80,0,1
58836,-100,4,1,0,60,0,1
59336,-100,4,2,0,80,0,1
59670,-100,4,1,0,60,0,1
60003,-100,4,2,0,80,0,1
61003,-100,4,1,0,60,0,1
61170,-100,4,2,0,80,0,1
61503,-100,4,1,0,60,0,1
62503,-100,4,2,0,80,0,1
63170,-100,4,1,0,60,0,1
63836,-100,4,2,0,80,0,1
64170,-100,4,1,0,60,0,1
65170,-100,4,2,0,80,0,1
66170,-100,4,1,0,60,0,1
66503,-100,4,2,0,80,0,1
67003,-100,4,1,0,60,0,1
67170,-100,4,2,0,80,0,1
67670,-100,4,1,0,60,0,1
67836,-100,4,2,0,80,0,1
68503,-100,4,1,0,60,0,1
68670,-100,4,2,0,80,0,1
69003,-100,4,1,0,60,0,1
69336,-100,4,2,0,80,0,1
69503,-100,4,1,0,60,0,1
70003,-100,4,2,0,80,0,1
70336,-100,4,1,0,60,0,1
70503,-100,4,2,0,80,0,1
71170,-100,4,1,0,60,0,1
71836,-100,4,2,0,80,0,1
72336,-100,4,1,0,60,0,1
73170,-100,4,2,0,80,0,1
73836,-100,4,1,0,60,0,1
74503,-100,4,2,0,80,0,1
74836,-100,4,1,0,60,0,1
75836,-100,4,2,0,80,0,1
76503,-100,4,1,0,60,0,1
77170,-100,4,2,0,80,0,1
77670,-100,4,1,0,60,0,1
77836,-100,4,2,0,80,0,1
78420,-100,4,1,0,80,0,0
89086,-111.111111111111,4,1,0,60,0,0
89170,-111.111111111111,4,2,0,80,0,0
89836,-111.111111111111,4,1,0,60,0,0
90503,-111.111111111111,4,2,0,80,0,0
90836,-111.111111111111,4,1,0,60,0,0
91836,-111.111111111111,4,2,0,80,0,0
92836,-111.111111111111,4,1,0,60,0,0
93170,-111.111111111111,4,2,0,80,0,0
93836,-111.111111111111,4,1,0,60,0,0
94503,-111.111111111111,4,2,0,80,0,0
95170,-111.111111111111,4,1,0,60,0,0
95836,-111.111111111111,4,2,0,80,0,0
96336,-111.111111111111,4,1,0,60,0,0
96503,-111.111111111111,4,2,0,80,0,0
97003,-111.111111111111,4,1,0,50,0,0
103753,-111.111111111111,4,2,0,5,0,0

[Colours]
Combo1 : 61,109,209
Combo2 : 193,28,90
Combo3 : 55,169,206
Combo4 : 213,47,142
SliderBorder : 255,255,255

[HitObjects]
152,352,1087,6,0,P|160:296|160:192,1,160,6|0,0:0|0:0,0:0:0:0:
144,88,2086,1,2,0:0:0:0:
56,144,2420,2,0,P|48:200|48:304,1,160,2|2,0:0|0:0,0:0:0:0:
208,296,3753,5,2,0:0:0:0:
304,328,4086,2,0,L|464:320,1,160,2|2,0:0|0:0,0:0:0:0:
336,224,5420,1,2,0:0:0:0:
240,192,5753,2,0,L|166:197,2,60,2|0|2,0:0|0:0|0:0,0:0:0:0:
264,168,6420,6,0,P|272:80|264:0,1,160,6|0,0:0|0:0,0:0:0:0:
168,0,7420,1,2,0:0:0:0:
64,8,7753,2,0,P|56:96|64:176,1,160,2|2,0:0|0:0,0:0:0:0:
72,328,9086,1,2,0:0:0:0:
144,256,9420,2,0,L|304:248,1,160,2|2,0:0|0:0,0:0:0:0:
384,184,10420,1,6,0:0:0:0:
384,184,11753,6,0,P|392:136|384:80,1,89.9999972534181,4|8,0:0|0:0,0:0:0:0:
379,50,12253,1,0,0:0:0:0:
272,64,12586,1,0,0:0:0:0:
168,48,12920,1,0,0:0:0:0:
64,72,13253,1,0,0:0:0:0:
64,72,13420,2,0,P|64:128|72:176,1,89.9999972534181
152,232,14086,1,2,0:0:0:0:
104,328,14420,6,0,B|168:296|216:360|280:336,1,179.999994506836,4|2,0:0|0:0,0:0:0:0:
384,368,15420,1,0,0:0:0:0:
480,328,15753,2,0,P|504:248|496:152,1,179.999994506836,2|2,0:0|0:0,0:0:0:0:
400,96,16753,1,2,0:0:0:0:
304,144,17086,6,0,P|272:144|208:136,1,89.9999972534181,4|8,0:0|0:0,0:0:0:0:
170,128,17586,1,0,0:0:0:0:
104,40,17920,1,0,0:0:0:0:
48,128,18253,1,0,0:0:0:0:
104,224,18586,1,0,0:0:0:0:
104,224,18753,2,0,P|160:224|208:232,1,89.9999972534181,0|8,0:0|0:0,0:0:0:0:
272,304,19420,1,8,0:0:0:0:
184,368,19753,6,0,L|88:360,1,89.9999972534181,8|8,0:0|0:0,0:0:0:0:
0,304,20420,2,0,L|8:208,1,89.9999972534181,8|8,0:0|0:0,0:0:0:0:
112,184,21086,2,0,L|208:168,1,89.9999972534181,8|8,0:0|0:0,0:0:0:0:
304,184,21753,1,8,0:0:0:0:
408,160,22086,1,8,0:0:0:0:
376,56,22420,1,4,0:0:0:0:
376,56,23753,6,0,P|336:48|280:48,1,80,4|8,0:0|0:0,0:0:0:0:
264,64,24253,2,0,L|256:152,1,80
320,232,24920,1,0,0:0:0:0:
320,232,25086,2,0,P|328:280|312:352,1,120
216,320,25920,1,0,0:0:0:0:
120,352,26253,1,0,0:0:0:0:
120,352,26420,6,0,L|40:344,1,80,0|8,0:0|0:0,0:0:0:0:
48,240,27086,2,0,L|56:160,1,80,2|8,0:0|0:0,0:0:0:0:
160,168,27753,2,0,L|240:176,1,80,0|8,0:0|0:0,0:0:0:0:
280,184,28253,1,0,0:0:0:0:
360,248,28586,2,0,L|352:296,2,40
392,232,29086,6,0,P|424:168|416:32,1,200,4|0,0:0|0:0,0:0:0:0:
328,8,30253,1,0,0:0:0:0:
328,8,30420,2,0,L|240:16,1,80,0|8,0:0|0:0,0:0:0:0:
208,24,30920,1,0,0:0:0:0:
104,8,31253,1,0,0:0:0:0:
40,88,31586,1,2,0:0:0:0:
40,88,31753,6,0,P|40:136|48:176,1,80,0|8,0:0|0:0,0:0:0:0:
136,216,32420,2,0,P|142:176|141:136,1,80,2|8,0:0|0:0,0:0:0:0:
248,136,33086,1,0,0:0:0:0:
248,136,33253,2,0,L|376:136,1,120,4|0,0:0|0:0,0:0:0:0:
472,152,34086,1,8,0:0:0:0:
480,256,34420,6,0,P|480:304|472:336,1,80,4|8,0:0|0:0,0:0:0:0:
456,368,34920,2,0,L|368:360,1,80,2|0,0:0|0:0,0:0:0:0:
280,320,35586,1,0,0:0:0:0:
280,320,35753,2,0,P|232:336|152:328,1,120
64,296,36586,1,0,0:0:0:0:
136,216,36920,1,2,0:0:0:0:
136,216,37086,6,0,P|180:213|232:216,1,80,0|8,0:0|0:0,0:0:0:0:
320,216,37753,2,0,P|317:171|320:120,1,80,2|8,0:0|0:0,0:0:0:0:
320,32,38420,2,0,P|275:34|224:32,1,80,0|8,0:0|0:0,0:0:0:0:
200,40,38920,1,0,0:0:0:0:
96,16,39253,2,0,L|56:0,2,40
104,56,39753,6,0,P|112:112|88:264,1,200,4|0,0:0|0:0,0:0:0:0:
40,344,40920,1,0,0:0:0:0:
40,344,41086,2,0,L|120:352,1,80,0|8,0:0|0:0,0:0:0:0:
160,352,41586,1,0,0:0:0:0:
264,328,41920,1,0,0:0:0:0:
192,256,42253,1,2,0:0:0:0:
192,256,42420,6,0,P|186:216|188:171,1,80,0|8,0:0|0:0,0:0:0:0:
280,128,43086,2,0,P|281:167|275:207,1,80,2|8,0:0|0:0,0:0:0:0:
352,272,43753,1,0,0:0:0:0:
352,272,43920,2,0,L|480:264,1,120,4|0,0:0|0:0,0:0:0:0:
480,160,44753,1,8,0:0:0:0:
488,56,45086,6,0,L|312:40,1,160,4|0,0:0|0:0,0:0:0:0:
224,48,46086,1,8,0:0:0:0:
120,24,46420,1,2,0:0:0:0:
0,128,47086,1,0,0:0:0:0:
40,280,47753,6,0,P|87:277|200:280,1,160
232,280,48586,1,0,0:0:0:0:
304,360,48920,1,8,0:0:0:0:
304,360,49086,1,8,0:0:0:0:
384,296,49420,1,2,0:0:0:0:
448,376,49753,1,0,0:0:0:0:
441,200,50420,6,0,L|305:184,1,120,4|0,0:0|0:0,0:0:0:0:
288,192,51086,1,0,0:0:0:0:
192,200,51420,1,8,0:0:0:0:
96,184,51753,1,2,0:0:0:0:
256,80,52420,1,0,0:0:0:0:
416,184,53086,6,0,L|400:280,1,80,0|8,0:0|0:0,0:0:0:0:
384,368,53753,1,0,0:0:0:0:
280,344,54086,1,8,0:0:0:0:
304,240,54420,2,0,L|304:152,1,80,2|0,0:0|0:0,0:0:0:0:
272,64,55086,1,0,0:0:0:0:
168,88,55420,1,0,0:0:0:0:
200,184,55753,1,4,0:0:0:0:
200,184,57086,6,0,L|80:192,1,100,4|8,0:0|0:0,0:0:0:0:
56,200,57586,2,0,P|48:128|48:80,1,100,4|0,0:0|0:0,0:0:0:0:
56,56,58086,1,8,0:0:0:0:
200,32,58420,1,0,0:0:0:0:
200,32,58586,2,0,L|264:24,1,50,0|8,0:0|0:0,0:0:0:0:
288,8,58920,2,0,P|296:56|296:120,1,100,0|4,0:0|0:0,0:0:0:0:
184,144,59586,1,2,0:0:0:0:
184,144,59753,6,0,B|184:192|192:256|192:256,1,100,4|8,0:0|0:0,0:0:0:0:
200,288,60253,2,0,P|272:264|344:280,1,150,4|8,0:0|0:0,0:0:0:0:
448,352,61086,2,0,P|464:304|456:248,1,100,4|8,0:0|0:0,0:0:0:0:
432,216,61586,1,0,0:0:0:0:
312,168,61920,2,0,L|248:168,2,50,0|0|4,0:0|0:0|0:0,0:0:0:0:
344,136,62420,6,0,P|392:136|456:128,1,100,4|8,0:0|0:0,0:0:0:0:
488,128,62920,2,0,L|496:16,1,100,2|0,0:0|0:0,0:0:0:0:
368,16,63586,1,0,0:0:0:0:
368,16,63753,2,0,P|312:24|248:16,1,100,0|8,0:0|0:0,0:0:0:0:
224,8,64253,2,0,L|216:112,1,100,0|4,0:0|0:0,0:0:0:0:
48,208,65086,6,0,P|32:160|40:56,1,150,4|0,0:0|0:0,0:0:0:0:
72,32,65753,2,0,L|176:24,1,100,2|8,0:0|0:0,0:0:0:0:
200,40,66253,1,0,0:0:0:0:
232,56,66420,1,4,0:0:0:0:
360,40,66753,1,2,0:0:0:0:
384,168,67086,1,4,0:0:0:0:
256,184,67420,1,2,0:0:0:0:
176,288,67753,6,0,P|128:280|72:280,1,100,4|8,0:0|0:0,0:0:0:0:
32,288,68253,2,0,L|24:184,1,100,2|0,0:0|0:0,0:0:0:0:
40,144,68753,1,8,0:0:0:0:
128,48,69086,1,0,0:0:0:0:
128,48,69253,2,0,L|192:48,1,50
224,40,69586,2,0,P|228:89|224:152,1,100,0|4,0:0|0:0,0:0:0:0:
264,272,70253,1,2,0:0:0:0:
264,272,70420,6,0,P|264:304|272:384,1,100,4|8,0:0|0:0,0:0:0:0:
312,384,70920,1,2,0:0:0:0:
440,360,71253,1,4,0:0:0:0:
424,232,71586,1,0,0:0:0:0:
424,232,71753,2,0,P|416:176|416:112,1,100,4|8,0:0|0:0,0:0:0:0:
448,8,72420,1,0,0:0:0:0:
320,16,72753,1,0,0:0:0:0:
192,32,73086,6,0,P|200:88|200:144,1,100,4|8,0:0|0:0,0:0:0:0:
216,176,73586,2,0,L|104:184,1,100,2|4,0:0|0:0,0:0:0:0:
0,240,74253,1,0,0:0:0:0:
0,240,74420,2,0,P|0:296|8:352,1,100,4|8,0:0|0:0,0:0:0:0:
40,368,74920,2,0,L|152:360,1,100,0|4,0:0|0:0,0:0:0:0:
248,288,75586,1,0,0:0:0:0:
248,288,75753,6,0,P|304:296|368:296,1,100,4|8,0:0|0:0,0:0:0:0:
440,200,76420,1,2,0:0:0:0:
440,200,76587,2,0,P|384:192|320:192,1,100
304,168,77086,1,4,0:0:0:0:
176,176,77420,1,2,0:0:0:0:
168,48,77753,1,4,0:0:0:0:
296,32,78086,1,2,0:0:0:0:
408,96,78420,5,4,0:0:0:0:
256,192,78586,12,4,81420,0:0:0:0:
392,88,89086,6,0,L|400:192,1,89.9999972534181,4|8,0:0|0:0,0:0:0:0:
400,216,89586,1,0,0:0:0:0:
496,264,89920,1,0,0:0:0:0:
472,368,90253,1,0,0:0:0:0:
472,368,90420,2,0,L|376:360,1,89.9999972534181,0|8,0:0|0:0,0:0:0:0:
352,336,90920,1,0,0:0:0:0:
296,240,91253,1,0,0:0:0:0:
184,360,91753,6,0,L|48:352,1,134.999995880127,4|0,0:0|0:0,0:0:0:0:
16,336,92420,2,0,P|0:272|8:184,1,134.999995880127,4|0,0:0|0:0,0:0:0:0:
32,184,93086,1,0,0:0:0:0:
56,168,93253,2,0,P|64:104|64:72,1,89.9999972534181,4|2,0:0|0:0,0:0:0:0:
176,56,93920,1,0,0:0:0:0:
176,56,94086,1,0,0:0:0:0:
208,160,94420,6,0,P|200:208|200:352,1,179.999994506836,4|2,0:0|0:0,0:0:0:0:
232,368,95253,2,0,L|328:360,1,89.9999972534181
352,336,95753,1,0,0:0:0:0:
464,352,96086,1,8,0:0:0:0:
512,240,96420,2,0,L|504:136,1,89.9999972534181,0|8,0:0|0:0,0:0:0:0:
408,88,97086,6,0,L|392:184,1,89.9999972534181,2|2,0:0|0:0,0:0:0:0:
296,240,97753,2,0,L|280:144,1,89.9999972534181,2|2,0:0|0:0,0:0:0:0:
216,48,98420,1,2,0:0:0:0:
104,32,98753,1,2,0:0:0:0:
80,144,99086,1,2,0:0:0:0:
192,160,99420,1,2,0:0:0:0:
264,240,99753,5,4,0:0:0:0:
256,192,99920,12,4,103754,0:0:0:0:
