osu file format v14

[General]
AudioFilename: audio.mp3
AudioLeadIn: 0
PreviewTime: 56415
Countdown: 0
SampleSet: Soft
StackLeniency: 0.7
Mode: 0
LetterboxInBreaks: 1
WidescreenStoryboard: 0

[Editor]
DistanceSpacing: 1.5
BeatDivisor: 4
GridSize: 4
TimelineZoom: 3.699999

[Metadata]
Title:CaptivAte ~Sabaki~
TitleUnicode:CaptivAte ~裁き~
Artist:DJ YOSHITAKA feat. A/I
ArtistUnicode:DJ YOSHITAKA feat. A/I
Creator:semaphore
Version:Reiji's Another
Source:beatmania IIDX 14 GOLD
Tags:la cataline lc reiji-rj icebeam evilelvis jounzan natteke desu guitarfreaks & drummania v2 video rhythm game japanese electronic NOSTALISH REQUIEM
BeatmapID:3530101
BeatmapSetID:1656289

[Difficulty]
HPDrainRate:6
CircleSize:4
OverallDifficulty:7
ApproachRate:8
SliderMultiplier:1.6
SliderTickRate:1

[Events]
//Background and Video events
0,0,"bg.jpg",0,0
//Break Periods
2,81620,88336
//Storyboard Layer 0 (Background)
//Storyboard Layer 1 (Fail)
//Storyboard Layer 2 (Pass)
//Storyboard Layer 3 (Foreground)
//Storyboard Layer 4 (Overlay)
//Storyboard Sound Samples

[TimingPoints]
1087,333.333333333333,4,2,0,30,1,0
1087,-133.333333333333,4,2,0,30,0,0
10336,-133.333333333333,4,2,0,30,0,0
10503,-133.333333333333,4,2,0,5,0,0
10753,-133.333333333333,4,2,0,10,0,0
11086,-133.333333333333,4,2,0,15,0,0
11420,-133.333333333333,4,2,0,20,0,0
11753,-100,4,2,0,100,0,0
11836,-100,4,2,0,70,0,0
12170,-100,4,1,0,50,0,0
13503,-100,4,2,0,70,0,0
17503,-100,4,1,0,50,0,0
18503,-100,4,1,0,30,0,0
21086,-100,4,2,0,50,0,0
21170,-100,4,2,0,100,0,0
21753,-100,4,2,0,50,0,0
21836,-100,4,2,0,100,0,0
22420,-100,4,2,0,100,0,1
23670,-100,4,1,0,50,0,0
23836,-100,4,2,0,70,0,0
24503,-100,4,1,0,50,0,0
25170,-100,4,2,0,70,0,0
25503,-100,4,1,0,50,0,0
26003,-100,4,2,0,40,0,0
26170,-100,4,1,0,50,0,0
26503,-100,4,2,0,70,0,0
27503,-100,4,1,0,50,0,0
27836,-100,4,2,0,70,0,0
28170,-100,4,1,0,50,0,0
28336,-100,4,2,0,70,0,0
28670,-100,4,1,0,30,0,0
28836,-100,4,1,0,35,0,0
28920,-100,4,1,0,40,0,0
29003,-100,4,1,0,45,0,0
29086,-100,4,2,0,70,0,0
29836,-100,4,1,0,50,0,0
30503,-100,4,2,0,70,0,0
30836,-100,4,1,0,50,0,0
31003,-100,4,2,0,70,0,0
31420,-100,4,2,0,40,0,0
31503,-100,4,2,0,70,0,0
33170,-100,4,2,0,50,0,0
33336,-100,4,2,0,70,0,0
33670,-100,4,1,0,50,0,0
34336,-100,4,2,0,70,0,0
35170,-100,4,1,0,50,0,0
35836,-100,4,2,0,70,0,0
36170,-100,4,1,0,50,0,0
36336,-100,4,2,0,70,0,0
36503,-100,4,1,0,50,0,0
36670,-100,4,2,0,70,0,0
36753,-100,4,2,0,40,0,0
36836,-100,4,1,0,50,0,0
37170,-100,4,2,0,70,0,0
38170,-100,4,1,0,50,0,0
38503,-100,4,2,0,70,0,0
38836,-100,4,1,0,50,0,0
39003,-100,4,2,0,70,0,0
39170,-100,4,1,0,35,0,0
39336,-100,4,1,0,40,0,0
39503,-100,4,1,0,45,0,0
39670,-100,4,1,0,50,0,0
39836,-100,4,2,0,70,0,0
40836,-100,4,1,0,50,0,0
41170,-100,4,2,0,70,0,0
41503,-100,4,1,0,50,0,0
41670,-100,4,2,0,70,0,0
42086,-100,4,2,0,40,0,0
42170,-100,4,2,0,70,0,0
43836,-100,4,2,0,50,0,0
44003,-100,4,2,0,70,0,0
44336,-100,4,1,0,50,0,0
45086,-133.333333333333,4,1,0,30,0,0
45170,-133.333333333333,4,2,0,50,0,0
45503,-133.333333333333,4,1,0,30,0,0
45670,-133.333333333333,4,2,0,50,0,0
46003,-133.333333333333,4,1,0,30,0,0
46170,-133.333333333333,4,2,0,50,0,0
46503,-133.333333333333,4,1,0,30,0,0
46670,-133.333333333333,4,2,0,50,0,0
46836,-133.333333333333,4,1,0,30,0,0
47003,-133.333333333333,4,2,0,50,0,0
47670,-133.333333333333,4,1,0,30,0,0
47836,-133.333333333333,4,2,0,50,0,0
48170,-133.333333333333,4,1,0,30,0,0
48503,-133.333333333333,4,2,0,50,0,0
49170,-133.333333333333,4,1,0,30,0,0
49336,-133.333333333333,4,2,0,50,0,0
49670,-133.333333333333,4,1,0,30,0,0
49836,-133.333333333333,4,2,0,50,0,0
50170,-133.333333333333,4,1,0,30,0,0
50336,-133.333333333333,4,2,0,50,0,0
50836,-133.333333333333,4,1,0,30,0,0
51003,-133.333333333333,4,2,0,50,0,0
51336,-133.333333333333,4,1,0,30,0,0
51503,-133.333333333333,4,2,0,50,0,0
51836,-133.333333333333,4,1,0,30,0,0
52003,-133.333333333333,4,2,0,50,0,0
52170,-133.333333333333,4,1,0,30,0,0
52336,-133.333333333333,4,2,0,50,0,0
53003,-133.333333333333,4,1,0,30,0,0
53170,-133.333333333333,4,2,0,50,0,0
53586,-133.333333333333,4,1,0,30,0,0
53670,-133.333333333333,4,2,0,50,0,0
54336,-133.333333333333,4,1,0,30,0,0
54503,-133.333333333333,4,2,0,5,0,0
55753,-133.333333333333,4,1,0,60,0,0
56336,-133.333333333333,4,2,0,60,0,0
57086,-100,4,1,0,80,0,1
57170,-100,4,2,0,80,0,1
57836,-100,4,1,0,60,0,1
58003,-100,4,2,0,80,0,1
58420,-100,4,1,0,60,0,1
58503,-100,4,2,0,80,0,1
58836,-100,4,1,0,60,0,1
59003,-100,4,2,0,80,0,1
59670,-100,4,1,0,60,0,1
59836,-100,4,2,0,80,0,1
60503,-100,4,1,0,60,0,1
60670,-100,4,2,0,80,0,1
60836,-100,4,1,0,60,0,1
61170,-100,4,2,0,80,0,1
61503,-100,4,1,0,60,0,1
62503,-100,4,2,0,80,0,1
63170,-100,4,1,0,60,0,1
63336,-100,4,2,0,80,0,1
63503,-100,4,1,0,60,0,1
63836,-100,4,2,0,80,0,1
64170,-100,4,1,0,60,0,1
64336,-100,4,2,0,80,0,1
65836,-100,4,1,0,60,0,1
66003,-100,4,2,0,80,0,1
66170,-100,4,1,0,60,0,1
67836,-100,4,2,0,80,0,1
68503,-100,4,1,0,60,0,1
68670,-100,4,2,0,80,0,1
68836,-100,4,1,0,60,0,1
69170,-100,4,2,0,80,0,1
69503,-100,4,1,0,60,0,1
69670,-100,4,2,0,80,0,1
71170,-100,4,1,0,60,0,1
71336,-100,4,2,0,80,0,1
71503,-100,4,1,0,60,0,1
71836,-100,4,2,0,60,0,1
72086,-100,4,2,0,80,0,1
72336,-100,4,1,0,60,0,1
73170,-100,4,2,0,80,0,1
73836,-100,4,1,0,60,0,1
74003,-100,4,2,0,80,0,1
74170,-100,4,1,0,60,0,1
74503,-100,4,2,0,80,0,1
74836,-100,4,1,0,60,0,1
75003,-100,4,2,0,80,0,1
76503,-100,4,1,0,60,0,1
76670,-100,4,2,0,80,0,1
76836,-100,4,1,0,60,0,1
78420,-100,4,1,0,80,0,0
78503,-100,4,2,0,80,0,0
89836,-100,4,1,0,60,0,0
90503,-100,4,2,0,80,0,0
90836,-100,4,1,0,60,0,0
91003,-100,4,2,0,80,0,0
91420,-100,4,2,0,60,0,0
91503,-100,4,2,0,80,0,0
91670,-100,4,1,0,60,0,0
91836,-100,4,2,0,80,0,0
92503,-100,4,1,0,60,0,0
92670,-100,4,2,0,80,0,0
92836,-100,4,1,0,60,0,0
93170,-100,4,2,0,80,0,0
93836,-100,4,1,0,60,0,0
94336,-100,4,2,0,80,0,0
95170,-100,4,1,0,60,0,0
95836,-100,4,2,0,80,0,0
96586,-100,4,2,0,60,0,0
96753,-100,4,2,0,80,0,0
97086,-100,4,1,0,30,0,0
98420,-100,4,1,0,35,0,0
99086,-100,4,1,0,40,0,0
99836,-100,4,2,0,5,0,0

[Colours]
Combo1 : 61,109,209
Combo2 : 193,28,90
Combo3 : 55,169,206
Combo4 : 213,47,142
SliderBorder : 255,255,255

[HitObjects]
305,128,1087,6,0,B|352:92|420:112,1,119.999996423721,2|0,0:0|0:0,0:0:0:0:
203,244,1753,2,0,B|144:276|88:260,1,119.999996423721,0|2,0:0|0:0,0:0:0:0:
252,120,2420,2,0,B|288:176|224:236|256:300,1,179.999994635582
253,295,3086,1,2,0:0:0:0:
384,320,3753,2,0,B|356:260|392:204,1,119.999996423721
128,64,4420,2,0,B|156:124|120:180,1,119.999996423721,2|0,0:0|0:0,0:0:0:0:
121,178,5420,1,2,0:0:0:0:
124,328,5753,5,0,0:0:0:0:
256,280,6003,1,2,0:0:0:0:
388,328,6253,1,0,0:0:0:0:
352,200,6420,2,0,B|332:136|368:80,1,119.999996423721,0|0,0:0|0:0,0:0:0:0:
252,80,7086,1,0,0:0:0:0:
464,160,7420,1,2,0:0:0:0:
208,248,7753,6,0,B|140:252|104:304,1,119.999996423721
304,248,8420,2,0,B|372:252|408:304,1,120.000004577637,2|0,0:0|0:0,0:0:0:0:
256,336,9086,1,2,0:0:0:0:
256,336,9420,2,0,B|209:233|299:206|256:103,1,240.000009155274
256,103,10420,1,2,0:0:0:0:
256,192,10503,12,0,11586,0:0:0:0:
184,148,11753,5,4,0:0:0:0:
168,68,11920,1,0,0:0:0:0:
88,84,12086,1,2,0:0:0:0:
108,176,12253,1,0,0:0:0:0:
108,176,12586,1,0,0:0:0:0:
108,176,12920,1,0,0:0:0:0:
108,176,13253,1,0,0:0:0:0:
212,116,13420,2,0,B|308:97|355:165,1,160
472,282,13920,2,0,P|406:323|321:317,1,160,2|0,0:0|0:0,0:0:0:0:
72,232,14420,5,0,0:0:0:0:
288,68,15086,1,2,0:0:0:0:
380,328,15753,1,0,0:0:0:0:
88,172,16420,2,0,B|112:108|96:44,2,120,2|0|0,0:0|0:0|0:0,0:0:0:0:
164,248,17086,5,4,0:0:0:0:
192,344,17253,1,0,0:0:0:0:
284,320,17420,1,2,0:0:0:0:
272,229,17586,1,0,0:0:0:0:
272,229,17920,1,0,0:0:0:0:
272,229,18253,1,0,0:0:0:0:
272,229,18586,1,0,0:0:0:0:
376,176,18753,5,0,0:0:0:0:
384,156,18836,1,0,0:0:0:0:
392,136,18920,1,0,0:0:0:0:
264,80,19086,1,0,0:0:0:0:
124,116,19253,1,0,0:0:0:0:
128,136,19336,1,0,0:0:0:0:
132,156,19420,1,0,0:0:0:0:
136,176,19503,1,0,0:0:0:0:
140,196,19586,1,0,0:0:0:0:
120,316,19753,5,0,0:0:0:0:
140,320,19836,1,0,0:0:0:0:
160,320,19920,1,0,0:0:0:0:
180,316,20003,1,0,0:0:0:0:
200,308,20086,1,0,0:0:0:0:
216,296,20170,1,0,0:0:0:0:
232,284,20253,1,0,0:0:0:0:
244,268,20336,1,0,0:0:0:0:
256,252,20420,5,0,0:0:0:0:
268,268,20503,1,0,0:0:0:0:
280,284,20586,1,0,0:0:0:0:
296,296,20669,1,0,0:0:0:0:
312,308,20753,1,0,0:0:0:0:
332,316,20836,1,0,0:0:0:0:
352,320,20919,1,0,0:0:0:0:
372,320,21003,1,0,0:0:0:0:
392,316,21086,6,0,B|408:288,6,20,2|0|0|0|0|0|0,0:0|0:0|0:0|0:0|0:0|0:0|0:0,0:0:0:0:
320,208,21420,2,0,B|324:240,6,20
180,220,21753,2,0,B|184:200,6,20,4|0|0|0|0|0|0,0:0|0:0|0:0|0:0|0:0|0:0|0:0,0:0:0:0:
88,296,22086,2,0,B|96:324,6,20
256,296,22420,1,4,0:0:0:0:
352,144,23753,6,0,B|388:112|376:52,1,80,4|0,0:0|0:0,0:0:0:0:
252,116,24086,1,2,0:0:0:0:
252,116,24253,2,0,B|244:208|312:256,1,160
64,296,24920,1,0,0:0:0:0:
188,328,25086,1,0,0:0:0:0:
188,328,25420,1,2,0:0:0:0:
152,216,25586,2,0,B|200:144|172:52,1,160
264,128,26086,2,0,B|284:208,1,80,8|0,0:0|0:0,0:0:0:0:
416,216,26420,6,0,B|336:256|308:332,1,160,0|2,0:0|0:0,0:0:0:0:
188,328,26920,1,0,0:0:0:0:
92,288,27086,2,0,B|172:308|252:256,1,160,0|2,0:0|0:0,0:0:0:0:
332,284,27586,1,0,0:0:0:0:
192,184,27753,2,0,B|136:124|164:28,1,160,0|2,0:0|0:0,0:0:0:0:
244,96,28253,1,0,0:0:0:0:
336,136,28420,2,0,B|372:156|416:152,1,80,0|2,0:0|0:0,0:0:0:0:
432,256,28753,1,0,0:0:0:0:
400,248,28836,1,0,0:0:0:0:
368,248,28920,1,0,0:0:0:0:
336,256,29003,1,0,0:0:0:0:
308,272,29086,5,4,0:0:0:0:
208,336,29253,1,0,0:0:0:0:
200,216,29420,1,2,0:0:0:0:
308,272,29586,1,0,0:0:0:0:
60,84,29920,1,0,0:0:0:0:
60,84,30253,1,0,0:0:0:0:
144,136,30420,2,0,B|204:204|152:296,1,160,0|2,0:0|0:0,0:0:0:0:
80,336,30920,2,0,B|148:288|240:324,1,160,0|2,0:0|0:0,0:0:0:0:
252,328,31336,1,0,0:0:0:0:
268,336,31420,1,8,0:0:0:0:
448,288,31586,1,0,0:0:0:0:
340,244,31753,6,0,B|316:184|344:120,2,120,2|2|0,0:0|0:0|0:0,0:0:0:0:
208,56,32420,2,0,B|232:120|200:176,2,120,0|2|2,0:0|0:0|0:0,0:0:0:0:
72,184,33086,1,0,0:0:0:0:
152,288,33253,1,4,0:0:0:0:
152,288,33586,1,2,0:0:0:0:
368,272,33753,5,0,0:0:0:0:
380,292,33920,1,0,0:0:0:0:
392,312,34086,1,0,0:0:0:0:
404,332,34253,1,0,0:0:0:0:
352,168,34420,6,0,B|354:125|386:97,1,80,4|0,0:0|0:0,0:0:0:0:
320,32,34753,1,2,0:0:0:0:
448,168,34920,2,0,B|484:244|440:328,1,160
56,312,35586,1,0,0:0:0:0:
140,268,35753,2,0,B|220:240|296:288,1,160,0|2,0:0|0:0,0:0:0:0:
372,296,36253,1,0,0:0:0:0:
444,260,36420,2,0,B|472:224|460:176,1,80
452,160,36670,1,0,0:0:0:0:
444,136,36753,2,0,B|456:56,1,80,8|0,0:0|0:0,0:0:0:0:
320,116,37086,6,0,B|360:148|368:216|332:264,1,160,0|2,0:0|0:0,0:0:0:0:
256,192,37586,1,0,0:0:0:0:
192,268,37753,2,0,B|152:236|144:168|180:120,1,160,0|2,0:0|0:0,0:0:0:0:
256,192,38253,1,0,0:0:0:0:
368,180,38420,2,0,B|408:212|416:280|380:328,1,160,0|2,0:0|0:0,0:0:0:0:
132,168,38920,2,0,B|100:136|120:84,1,80,0|0,0:0|0:0,0:0:0:0:
240,136,39253,1,0,0:0:0:0:
244,164,39420,1,0,0:0:0:0:
248,192,39586,1,0,0:0:0:0:
252,220,39753,5,4,0:0:0:0:
232,340,39920,1,0,0:0:0:0:
352,356,40086,1,2,0:0:0:0:
372,236,40253,1,0,0:0:0:0:
372,236,40586,2,0,B|412:252,2,40,2|0|0,0:0|0:0|0:0,0:0:0:0:
468,168,40920,1,0,0:0:0:0:
360,120,41086,2,0,B|280:84|200:128,1,160,0|2,0:0|0:0,0:0:0:0:
56,224,41586,1,0,0:0:0:0:
56,224,41753,2,0,B|120:252|180:208,1,120,2|0,0:0|0:0,0:0:0:0:
180,204,42086,2,0,B|208:292,1,80,8|0,0:0|0:0,0:0:0:0:
384,192,42420,6,0,B|408:136|392:72,2,120,2|2|0,0:0|0:0|0:0,0:0:0:0:
260,192,43086,2,0,B|236:252|252:312,2,120,0|2|2,0:0|0:0|0:0,0:0:0:0:
208,116,43753,1,0,0:0:0:0:
128,80,43920,1,4,0:0:0:0:
92,344,44253,1,2,0:0:0:0:
124,272,44420,1,0,0:0:0:0:
184,220,44586,1,0,0:0:0:0:
260,192,44753,1,0,0:0:0:0:
340,188,44920,1,0,0:0:0:0:
420,196,45086,6,0,B|475:167|484:100,1,120.000004577637,4|2,0:0|0:0,0:0:0:0:
322,97,45586,2,0,P|277:134|259:194,1,120.000004577637,0|2,0:0|0:0,0:0:0:0:
241,279,46086,2,0,B|180:294,1,60.0000022888184
324,313,46420,1,0,0:0:0:0:
100,328,46586,2,0,L|76:260,1,60.0000022888184,0|2,0:0|0:0,0:0:0:0:
133,203,46920,2,0,P|169:159|184:98,1,120.000004577637,0|2,0:0|0:0,0:0:0:0:
40,81,47420,2,0,P|65:98|94:108,1,60.0000022888184
262,70,47753,6,0,P|323:60|380:53,1,120.000004577637,0|2,0:0|0:0,0:0:0:0:
417,134,48253,1,0,0:0:0:0:
417,134,48420,2,0,L|430:195,1,60.0000022888184
450,274,48753,1,0,0:0:0:0:
376,315,48920,2,0,P|320:287|262:292,1,120.000004577637,2|0,0:0|0:0,0:0:0:0:
188,327,49420,1,2,0:0:0:0:
43,241,49753,2,0,L|136:227,1,90.0000034332277
131,227,50086,2,0,L|163:172,1,60.0000022888184,4|0,0:0|0:0,0:0:0:0:
226,43,50420,6,0,P|232:98|265:159,1,120.000004577637,4|2,0:0|0:0,0:0:0:0:
414,214,50920,2,0,P|355:211|302:238,1,120.000004577637,0|2,0:0|0:0,0:0:0:0:
225,315,51420,2,0,P|195:312|167:300,1,60.0000022888184
85,318,51753,1,0,0:0:0:0:
51,240,51920,1,0,0:0:0:0:
87,164,52086,1,2,0:0:0:0:
205,68,52253,2,0,P|201:133|173:183,1,120.000004577637
87,164,52753,2,0,L|24:153,1,60.0000022888184,2|2,0:0|0:0,0:0:0:0:
150,270,53086,6,0,P|209:276|271:254,1,120.000004577637,0|2,0:0|0:0,0:0:0:0:
362,114,53586,2,0,P|303:108|241:130,1,120.000004577637
108,184,54086,1,2,0:0:0:0:
163,327,54253,1,0,0:0:0:0:
307,270,54420,1,4,0:0:0:0:
256,192,54503,12,4,55753,0:0:0:0:
76,276,56420,5,0,0:0:0:0:
172,304,56586,1,0,0:0:0:0:
68,280,56753,1,2,0:0:0:0:
180,300,56920,1,0,0:0:0:0:
136,200,57086,6,0,B|128:112,1,80,4|0,0:0|0:0,0:0:0:0:
44,80,57420,1,8,0:0:0:0:
216,96,57586,1,4,0:0:0:0:
220,100,57920,1,0,0:0:0:0:
304,64,58086,1,8,0:0:0:0:
388,84,58253,1,0,0:0:0:0:
396,96,58336,1,0,0:0:0:0:
408,100,58420,2,0,B|404:144|432:180,1,80
460,272,58753,1,8,0:0:0:0:
460,272,58920,2,0,B|380:228|304:260,1,160,0|0,0:0|0:0,0:0:0:0:
144,332,59420,2,0,B|232:324,1,80,8|0,0:0|0:0,0:0:0:0:
220,228,59753,6,0,B|220:184|248:152,1,80
408,108,60086,2,0,B|320:96,1,80,8|0,0:0|0:0,0:0:0:0:
192,88,60420,2,0,B|216:124|212:168,1,80
52,264,60753,2,0,B|148:248,1,80,8|0,0:0|0:0,0:0:0:0:
260,336,61086,6,0,B|324:272|300:188,1,160,0|8,0:0|0:0,0:0:0:0:
408,108,61586,1,0,0:0:0:0:
412,112,61920,1,0,0:0:0:0:
336,116,62086,1,0,0:0:0:0:
260,124,62253,1,0,0:0:0:0:
184,132,62420,2,0,B|204:200|152:248,1,120,4|0,0:0|0:0,0:0:0:0:
148,252,62753,2,0,B|228:268,1,80,8|0,0:0|0:0,0:0:0:0:
156,344,63086,2,0,B|77:328,1,80
44,228,63420,1,8,0:0:0:0:
256,192,63586,1,0,0:0:0:0:
468,156,63753,6,0,B|384:204|400:296,1,160,0|8,0:0|0:0,0:0:0:0:
476,332,64253,2,0,B|400:284|324:324,1,160
312,332,64670,1,0,0:0:0:0:
300,340,64753,2,0,B|216:316,1,80,8|0,0:0|0:0,0:0:0:0:
44,228,65086,2,0,B|112:280|204:236,1,160,4|8,0:0|0:0,0:0:0:0:
284,188,65586,2,0,B|304:268,1,80
360,128,65920,1,0,0:0:0:0:
360,128,66086,2,0,B|340:48,1,80,8|0,0:0|0:0,0:0:0:0:
388,220,66420,5,2,0:0:0:0:
200,72,66670,1,2,0:0:0:0:
152,308,66920,1,2,0:0:0:0:
280,284,67086,5,0,0:0:0:0:
300,140,67336,1,2,0:0:0:0:
164,188,67586,1,2,0:0:0:0:
288,292,67753,6,0,B|332:308|372:280,1,80,4|0,0:0|0:0,0:0:0:0:
460,340,68086,1,8,0:0:0:0:
460,340,68253,2,0,B|416:264|476:184,1,160
416,40,68753,2,0,B|396:124,1,80,8|0,0:0|0:0,0:0:0:0:
328,44,69086,2,0,B|288:204,1,160,0|8,0:0|0:0,0:0:0:0:
72,248,69586,2,0,B|160:224|212:304,1,160
220,316,70003,1,0,0:0:0:0:
236,320,70086,2,0,B|280:324|328:320,1,80,12|0,0:0|0:0,0:0:0:0:
456,236,70420,6,0,B|372:228|288:236,1,160,4|8,0:0|0:0,0:0:0:0:
400,320,70920,1,0,0:0:0:0:
44,228,71253,1,0,0:0:0:0:
128,204,71420,1,8,0:0:0:0:
196,148,71586,1,0,0:0:0:0:
240,68,71753,2,0,B|289:67|330:36,1,80,0|4,0:0|0:0,0:0:0:0:
315,45,72086,2,0,B|364:112,1,80,8|0,0:0|0:0,0:0:0:0:
424,224,72420,5,0,0:0:0:0:
408,260,72586,1,0,0:0:0:0:
392,296,72753,1,0,0:0:0:0:
376,332,72920,1,0,0:0:0:0:
288,300,73086,6,0,B|200:272|120:312,1,160,4|8,0:0|0:0,0:0:0:0:
56,332,73586,2,0,B|32:300|36:252,1,80
96,148,73920,2,0,B|120:180|116:224,1,80,0|8,0:0|0:0,0:0:0:0:
28,80,74253,1,0,0:0:0:0:
176,96,74420,6,0,B|256:68|340:116,1,160,0|8,0:0|0:0,0:0:0:0:
452,244,74920,2,0,B|372:275|300:228,1,160
280,220,75336,1,0,0:0:0:0:
260,212,75420,2,0,B|176:216,1,80,12|0,0:0|0:0,0:0:0:0:
220,112,75753,2,0,B|60:112,1,160,4|8,0:0|0:0,0:0:0:0:
292,308,76253,2,0,B|452:308,1,160
260,212,76753,2,0,B|176:216,1,80,8|0,0:0|0:0,0:0:0:0:
100,220,77086,5,2,0:0:0:0:
248,64,77336,1,2,0:0:0:0:
316,268,77586,1,2,0:0:0:0:
240,196,77753,5,0,0:0:0:0:
416,232,78003,1,2,0:0:0:0:
292,364,78253,1,2,0:0:0:0:
316,268,78420,5,4,0:0:0:0:
256,192,78503,12,4,81420,0:0:0:0:
88,184,89086,5,4,0:0:0:0:
168,144,89253,1,0,0:0:0:0:
128,64,89420,1,2,0:0:0:0:
48,104,89586,1,0,0:0:0:0:
256,176,89920,1,0,0:0:0:0:
464,104,90253,1,0,0:0:0:0:
384,64,90420,2,0,B|332:140|380:216,1,160,0|2,0:0|0:0,0:0:0:0:
468,248,90920,2,0,B|380:224|312:272,1,160
296,280,91336,1,0,0:0:0:0:
280,292,91420,1,8,0:0:0:0:
160,336,91586,1,0,0:0:0:0:
56,248,91753,6,0,B|112:212|184:244,1,120
184,252,92086,2,0,B|208:164,1,80,2|0,0:0|0:0,0:0:0:0:
144,48,92420,2,0,B|124:132,1,80
168,344,92753,2,0,B|208:356|248:332,1,80
368,340,93086,1,0,0:0:0:0:
432,240,93253,1,2,0:0:0:0:
432,228,93336,1,0,0:0:0:0:
432,216,93420,2,0,B|432:136,1,80,4|0,0:0|0:0,0:0:0:0:
80,168,93753,2,0,B|80:248,1,80
256,320,94086,1,0,0:0:0:0:
256,232,94253,1,0,0:0:0:0:
208,160,94420,5,4,0:0:0:0:
192,56,94586,1,0,0:0:0:0:
296,40,94753,1,2,0:0:0:0:
321,151,94920,1,0,0:0:0:0:
321,151,95253,1,0,0:0:0:0:
321,151,95586,1,0,0:0:0:0:
432,288,95753,2,0,B|340:264|272:312,1,160,0|2,0:0|0:0,0:0:0:0:
124,264,96253,2,0,B|158:279|202:271,1,80,0|0,1:0|0:0,0:0:0:0:
44,324,96586,1,0,1:0:0:0:
36,304,96670,1,0,1:2:0:0:
28,284,96753,1,0,1:0:0:0:
76,176,96920,1,0,1:0:0:0:
76,176,97086,6,0,B|64:137,7,40
188,208,97753,2,0,B|192:168,7,40
320,188,98420,2,0,B|313:154,14,20
432,204,99086,2,0,B|437:188,24,13.3333333333333,0|0|0|0|0|0|0|0|0|0|0|0|0|0|0|0|4|0|0|0|0|0|0|0|4,0:0|0:0|0:0|0:0|0:0|0:0|0:0|0:0|0:0|0:0|0:0|0:0|0:0|0:0|0:0|0:0|0:0|0:0|0:0|0:0|0:0|0:0|0:0|0:0|0:0,0:0:0:0:
256,192,99836,12,0,103753,0:0:0:0:
