osu file format v14

[General]
AudioFilename: audio.mp3
AudioLeadIn: 0
PreviewTime: 56415
Countdown: 0
SampleSet: Soft
StackLeniency: 0.7
Mode: 0
LetterboxInBreaks: 1
WidescreenStoryboard: 0

[Editor]
DistanceSpacing: 1.5
BeatDivisor: 4
GridSize: 4
TimelineZoom: 2.5

[Metadata]
Title:CaptivAte ~Sabaki~
TitleUnicode:CaptivAte ~裁き~
Artist:DJ YOSHITAKA feat. A/I
ArtistUnicode:DJ YOSHITAKA feat. A/I
Creator:semaphore
Version:Natteke desu's Extra
Source:beatmania IIDX 14 GOLD
Tags:la cataline lc reiji-rj icebeam evilelvis jounzan natteke desu guitarfreaks & drummania v2 video rhythm game japanese electronic NOSTALISH REQUIEM
BeatmapID:3548994
BeatmapSetID:1656289

[Difficulty]
HPDrainRate:7
CircleSize:5
OverallDifficulty:9
ApproachRate:9
SliderMultiplier:1.4
SliderTickRate:1

[Events]
//Background and Video events
0,0,"bg.jpg",0,0
//Break Periods
//Storyboard Layer 0 (Background)
//Storyboard Layer 1 (Fail)
//Storyboard Layer 2 (Pass)
//Storyboard Layer 3 (Foreground)
//Storyboard Layer 4 (Overlay)
//Storyboard Sound Samples

[TimingPoints]
1087,333.333333333333,4,2,0,30,1,0
11420,-100,4,2,0,30,0,0
11753,-100,4,2,0,50,0,0
13920,-100,4,2,0,30,0,0
14086,-100,4,2,0,50,0,0
14253,-100,4,2,0,30,0,0
14420,-100,4,2,0,50,0,0
19086,-100,4,2,0,30,0,0
19420,-100,4,2,0,50,0,0
21086,-100,4,3,0,40,0,0
22420,-100,4,2,0,70,0,1
23753,-100,4,2,0,50,0,0
25420,-100,4,2,0,30,0,0
25920,-100,4,2,0,40,0,0
45086,-100,4,2,0,40,0,0
49420,-100,4,2,0,30,0,0
50253,-100,4,2,0,40,0,0
55753,-100,4,2,0,50,0,0
57086,-76.9230769230769,4,1,0,60,0,1
58170,-76.9230769230769,4,1,0,30,0,1
58253,-76.9230769230769,4,1,0,60,0,1
58336,-76.9230769230769,4,1,0,30,0,1
58420,-76.9230769230769,4,1,0,60,0,1
59503,-76.9230769230769,4,1,0,20,0,1
59586,-76.9230769230769,4,1,0,50,0,1
71920,-76.9230769230769,4,1,0,80,0,1
72253,-76.9230769230769,4,1,0,50,0,1
73086,-76.9230769230769,4,1,0,60,0,1
78420,-90.9090909090909,4,2,0,70,0,0
78586,-90.9090909090909,4,2,0,60,0,0
78753,-90.9090909090909,4,2,0,50,0,0
82920,-66.6666666666667,4,2,0,70,0,0
83420,-90.9090909090909,4,2,0,70,0,0
84253,-90.9090909090909,4,2,0,50,0,0
88086,-90.9090909090909,4,2,0,60,0,0
97086,-90.9090909090909,4,2,0,50,0,0
98420,-90.9090909090909,4,3,0,40,0,0
99086,-90.9090909090909,4,3,0,70,0,0
99753,-90.9090909090909,4,3,0,90,0,0

[Colours]
Combo1 : 61,109,209
Combo2 : 193,28,90
Combo3 : 55,169,206
Combo4 : 213,47,142
SliderBorder : 255,255,255

[HitObjects]
4,56,1087,5,6,0:0:0:0:
84,84,1420,1,2,0:0:0:0:
144,24,1753,1,0,0:0:0:0:
220,56,2086,1,2,0:0:0:0:
256,192,2420,5,2,0:0:0:0:
256,192,3086,1,2,0:0:0:0:
472,328,3753,5,2,0:0:0:0:
392,356,4086,1,2,0:0:0:0:
332,296,4419,1,0,0:0:0:0:
256,328,4752,1,2,0:0:0:0:
256,328,5420,1,2,0:0:0:0:
140,224,5753,5,2,0:0:0:0:
80,256,6003,1,0,0:0:0:0:
148,240,6253,1,2,0:0:0:0:
184,160,6420,5,6,0:0:0:0:
116,128,6753,1,2,0:0:0:0:
140,104,7086,1,0,0:0:0:0:
72,72,7419,1,2,0:0:0:0:
252,200,7753,5,2,0:0:0:0:
252,200,8420,1,2,0:0:0:0:
328,296,9086,5,2,0:0:0:0:
396,264,9419,1,2,0:0:0:0:
396,264,10085,1,2,0:0:0:0:
460,304,10420,1,6,0:0:0:0:
256,192,10461,12,0,11336,0:0:0:0:
84,40,11420,6,0,L|112:36,3,23.3333333333333,0|0|0|0,3:0|3:0|3:0|3:0,0:0:0:0:
64,32,11753,2,0,B|36:100|36:100|60:168,1,140,4|2,1:0|0:0,0:0:0:0:
136,200,12253,2,0,L|280:160,2,140,0|0|0,1:0|1:0|1:0,0:0:0:0:
136,200,13253,1,0,1:0:0:0:
168,292,13420,1,2,1:2:0:0:
136,200,13920,1,4,0:0:0:0:
168,292,14086,2,0,L|255:275,1,70,2|4,0:0|0:0,0:0:0:0:
286,361,14420,5,4,2:0:0:0:
227,13,15086,1,2,0:0:0:0:
286,361,15753,1,2,0:0:0:0:
227,13,16420,2,2,P|240:88|248:224,1,210,0|0,0:0|0:0,1:0:0:0:
488,312,17086,6,0,B|424:284|424:284|340:320,1,140,4|2,1:0|0:0,0:0:0:0:
384,72,17586,1,0,1:0:0:0:
384,72,17920,1,0,3:0:0:0:
368,68,18003,1,0,3:0:0:0:
352,64,18086,1,0,3:0:0:0:
288,76,18253,1,0,1:0:0:0:
288,76,18586,1,0,1:0:0:0:
216,88,18753,1,0,1:0:0:0:
200,84,18836,1,0,3:0:0:0:
184,80,18919,1,0,3:0:0:0:
120,100,19086,1,2,0:3:0:0:
128,32,19253,1,2,0:3:0:0:
184,80,19420,1,2,1:3:0:0:
200,84,19503,1,0,3:0:0:0:
216,88,19586,1,0,3:0:0:0:
288,76,19753,5,0,3:0:0:0:
304,80,19836,1,0,3:0:0:0:
320,84,19920,1,0,3:0:0:0:
336,88,20003,1,0,3:0:0:0:
352,92,20086,1,0,3:0:0:0:
368,96,20170,1,0,3:0:0:0:
388,88,20253,5,0,1:0:0:0:
384,116,20336,1,0,1:0:0:0:
412,104,20420,2,0,L|496:120,1,70,4|0,1:2|0:0,0:0:0:0:
452,212,20753,5,0,3:0:0:0:
436,208,20836,1,0,3:0:0:0:
420,204,20920,1,0,3:0:0:0:
404,200,21003,1,0,3:0:0:0:
388,196,21086,6,0,L|384:236,5,23.3333333333333
328,168,21420,2,0,L|332:144,6,17.5
276,208,21753,2,0,L|272:232,6,17.5
228,160,22086,2,0,L|232:136,6,17.5
176,200,22420,5,6,1:2:0:0:
256,192,23086,12,0,23711,2:0:0:0:
176,268,23753,6,0,P|184:216|188:120,1,140,4|2,1:0|1:2,0:0:0:0:
148,36,24253,1,0,1:0:0:0:
148,36,24586,1,0,1:0:0:0:
64,76,24753,1,2,3:2:0:0:
104,156,24920,1,0,1:0:0:0:
188,128,25086,5,0,1:0:0:0:
248,148,25253,1,2,0:0:0:0:
232,80,25420,1,2,1:0:0:0:
268,176,25586,2,0,P|328:196|368:184,1,105,2|0,1:0|0:0,0:0:0:0:
396,160,25920,1,2,1:0:0:0:
464,176,26086,1,2,1:0:0:0:
460,244,26253,1,0,1:0:0:0:
336,124,26420,6,0,P|332:92|332:44,1,70,4|0,1:0|0:0,0:0:0:0:
392,24,26753,1,2,1:2:0:0:
392,24,26920,1,0,3:0:0:0:
464,176,27086,6,0,P|468:208|468:256,1,70,4|0,1:2|3:0,0:0:0:0:
408,276,27420,1,2,1:2:0:0:
408,276,27586,1,2,0:0:0:0:
336,124,27753,6,0,P|332:92|332:44,1,70,4|0,1:2|3:0,0:0:0:0:
400,16,28086,1,2,1:2:0:0:
400,16,28336,1,0,1:0:0:0:
400,16,28420,1,2,1:0:0:0:
284,0,28586,1,4,1:2:0:0:
184,136,28753,5,8,1:3:0:0:
76,112,28920,1,0,1:0:0:0:
80,120,29003,1,0,1:0:0:0:
76,128,29086,6,0,P|76:164|80:200,1,70,6|0,1:0|0:0,0:0:0:0:
32,252,29420,1,2,1:0:0:0:
100,264,29586,2,0,P|152:280|200:356,2,140,2|0|2,1:0|1:0|1:0,0:0:0:0:
224,240,30420,6,0,L|304:216,1,70,2|0,1:0|0:0,0:0:0:0:
352,184,30753,1,2,1:2:0:0:
420,240,30920,2,0,P|428:200|440:96,1,140,2|2,1:0|1:2,0:0:0:0:
456,92,31336,1,0,3:0:0:0:
432,80,31420,1,2,1:0:0:0:
272,144,31586,1,2,1:0:0:0:
112,24,31753,5,4,1:0:0:0:
240,68,32003,1,2,1:0:0:0:
356,108,32253,1,2,1:0:0:0:
460,296,32420,5,4,1:0:0:0:
332,252,32670,1,2,1:0:0:0:
336,240,32753,1,2,1:2:0:0:
208,212,32920,1,2,1:0:0:0:
396,164,33086,5,4,1:0:0:0:
464,136,33253,1,4,0:0:0:0:
400,256,33420,5,2,1:0:0:0:
468,228,33587,1,4,0:0:0:0:
220,196,33753,5,6,1:0:0:0:
296,368,33920,1,8,1:3:0:0:
456,300,34086,1,2,1:0:0:0:
380,128,34253,1,2,1:0:0:0:
208,304,34420,6,0,P|136:308|60:292,1,140,4|2,1:0|1:2,0:0:0:0:
20,220,34920,1,0,1:0:0:0:
20,220,35253,1,0,1:0:0:0:
96,160,35420,1,2,1:2:0:0:
180,208,35586,1,0,3:0:0:0:
256,140,35753,5,0,1:0:0:0:
320,160,35920,1,0,3:0:0:0:
368,116,36086,1,2,1:2:0:0:
428,148,36253,2,0,P|424:176|416:296,1,140,4|0,3:0|3:0,0:0:0:0:
424,304,36670,1,0,3:0:0:0:
400,304,36753,1,2,3:2:0:0:
416,368,36920,1,2,1:0:0:0:
296,320,37086,6,0,P|300:284|300:240,1,70,4|2,1:0|1:0,0:0:0:0:
248,196,37420,1,2,1:0:0:0:
248,196,37586,1,2,0:0:0:0:
96,116,37753,6,0,P|92:152|92:196,1,70,4|2,1:2|1:0,0:0:0:0:
144,240,38087,1,2,1:0:0:0:
144,240,38253,1,2,1:2:0:0:
296,320,38420,6,0,P|300:284|300:240,1,70,4|2,1:2|1:0,0:0:0:0:
248,196,38754,1,2,1:2:0:0:
248,196,39086,5,4,1:2:0:0:
364,288,39253,1,2,1:0:0:0:
472,80,39420,5,4,1:3:0:0:
408,40,39587,1,2,1:0:0:0:
404,112,39753,6,0,P|404:144|400:192,1,70,6|2,1:0|0:0,0:0:0:0:
328,180,40086,1,2,1:2:0:0:
468,200,40253,2,0,P|464:232|464:352,1,140,2|2,1:0|1:0,0:0:0:0:
472,368,40670,1,2,0:0:0:0:
444,364,40753,1,2,0:0:0:0:
368,304,40920,1,0,1:0:0:0:
384,188,41086,1,4,1:0:0:0:
384,188,41586,5,2,1:0:0:0:
440,292,41753,1,4,1:2:0:0:
332,240,41920,1,2,1:0:0:0:
312,256,42003,1,0,1:0:0:0:
288,244,42086,1,0,1:0:0:0:
456,220,42253,1,2,1:0:0:0:
336,348,42420,5,4,1:0:0:0:
208,320,42670,1,2,1:0:0:0:
88,292,42920,1,2,1:0:0:0:
16,108,43086,5,2,1:2:0:0:
144,136,43336,1,2,1:0:0:0:
264,164,43586,1,2,1:0:0:0:
56,184,43753,5,4,1:0:0:0:
96,72,43920,1,0,1:0:0:0:
240,236,44086,5,2,1:0:0:0:
212,308,44253,1,4,0:0:0:0:
140,152,44420,5,2,1:0:0:0:
292,84,44586,1,2,1:0:0:0:
380,232,44753,1,4,1:2:0:0:
212,308,44920,1,0,1:0:0:0:
112,248,45086,5,4,1:0:0:0:
112,248,45586,1,0,3:0:0:0:
52,272,45753,1,0,1:0:0:0:
52,272,46586,1,0,3:0:0:0:
188,352,47086,1,0,3:0:0:0:
348,96,47753,5,0,1:0:0:0:
408,128,47920,1,0,1:0:0:0:
464,296,48253,1,0,3:0:0:0:
404,264,48420,1,0,1:0:0:0:
404,332,48586,1,0,3:0:0:0:
344,300,48753,1,0,1:0:0:0:
36,180,49253,5,0,3:0:0:0:
100,160,49420,1,4,1:2:0:0:
256,212,49753,1,4,1:2:0:0:
256,212,50253,5,0,3:0:0:0:
320,184,50420,1,4,1:0:0:0:
512,64,50920,1,0,3:0:0:0:
448,36,51087,1,0,1:0:0:0:
448,36,51920,1,0,3:0:0:0:
504,232,52420,1,0,3:0:0:0:
504,232,53086,5,0,1:0:0:0:
504,232,53586,1,0,3:0:0:0:
440,200,53753,1,0,1:0:0:0:
504,232,54420,5,0,1:0:0:0:
440,200,54587,1,0,1:0:0:0:
440,200,55086,1,0,1:0:0:0:
0,160,55420,5,0,1:0:0:0:
104,100,55587,1,0,1:0:0:0:
204,44,55753,1,4,1:0:0:0:
256,192,55795,12,0,57003,2:0:0:0:
224,256,57086,5,6,1:0:0:0:
148,224,57253,1,0,0:0:0:0:
64,228,57420,1,8,0:0:0:0:
100,164,57586,1,0,0:0:0:0:
104,160,57670,1,2,0:0:0:0:
24,164,57836,1,0,0:0:0:0:
28,160,57920,1,10,0:0:0:0:
64,228,58086,1,0,0:0:0:0:
104,232,58170,1,4,2:3:0:0:
132,260,58253,1,2,0:0:0:0:
136,300,58336,1,4,2:3:0:0:
116,336,58420,6,0,P|72:328|4:320,1,90.9999958343508,2|0,1:0|0:0,0:0:0:0:
200,232,58753,1,8,0:0:0:0:
268,260,58920,2,0,P|280:200|292:48,1,181.999991668702,2|10,0:0|0:0,0:0:0:0:
400,12,59420,1,0,0:0:0:0:
372,40,59503,1,4,0:2:0:0:
360,80,59586,1,0,0:0:0:0:
364,120,59670,1,0,0:0:0:0:
376,160,59753,5,6,0:0:0:0:
456,204,59920,1,4,0:2:0:0:
416,276,60086,1,8,0:0:0:0:
340,240,60253,5,4,0:3:0:0:
280,268,60420,1,2,0:0:0:0:
204,364,60586,5,10,0:0:0:0:
116,316,60753,1,4,0:3:0:0:
84,292,60836,1,0,0:0:0:0:
44,292,60920,1,2,0:0:0:0:
8,308,61003,1,0,0:0:0:0:
12,284,61086,6,0,P|20:232|20:184,1,90.9999958343508,4|0,1:2|0:0,0:0:0:0:
56,72,61420,1,10,0:0:0:0:
176,88,61586,2,0,P|164:168|160:276,1,181.999991668702,4|10,0:2|0:0,0:0:0:0:
260,360,62086,1,2,0:0:0:0:
292,332,62170,1,0,0:0:0:0:
328,316,62253,1,4,0:2:0:0:
368,316,62336,1,0,0:3:0:0:
364,288,62420,5,6,0:0:0:0:
380,300,62503,1,2,0:3:0:0:
396,308,62586,1,2,0:3:0:0:
416,312,62670,1,0,0:0:0:0:
436,312,62753,1,8,0:0:0:0:
452,308,62836,1,2,0:3:0:0:
508,268,63003,1,2,0:3:0:0:
508,268,63086,1,0,0:0:0:0:
508,340,63253,1,8,0:0:0:0:
368,224,63420,5,8,0:0:0:0:
384,124,63586,1,4,0:2:0:0:
292,160,63753,1,6,0:0:0:0:
256,172,63836,1,0,0:0:0:0:
220,168,63920,1,0,0:0:0:0:
184,156,64003,1,2,0:3:0:0:
148,148,64086,1,8,0:0:0:0:
112,148,64170,1,0,0:0:0:0:
76,152,64253,1,10,0:0:0:0:
44,164,64336,1,0,0:0:0:0:
8,164,64420,1,4,0:2:0:0:
20,96,64586,1,10,0:0:0:0:
20,96,64670,1,4,0:2:0:0:
8,20,64836,1,10,0:0:0:0:
8,20,64920,1,4,0:2:0:0:
148,148,65086,6,0,P|144:224|144:256,1,90.9999958343508,6|0,1:0|0:0,0:0:0:0:
84,320,65420,1,8,0:0:0:0:
188,336,65586,1,2,0:0:0:0:
208,332,65670,1,2,0:3:0:0:
224,312,65753,1,0,0:0:0:0:
240,316,65836,5,0,0:0:0:0:
268,292,65920,1,10,0:0:0:0:
304,288,66003,1,0,0:0:0:0:
340,300,66086,1,8,0:0:0:0:
412,344,66253,1,2,0:0:0:0:
480,276,66420,5,4,1:3:0:0:
380,96,66586,1,2,0:0:0:0:
376,72,66670,1,4,0:2:0:0:
444,40,66836,1,8,3:0:0:0:
440,16,66920,1,4,0:2:0:0:
208,40,67086,5,2,1:0:0:0:
308,220,67252,1,4,1:2:0:0:
312,244,67336,1,2,0:0:0:0:
244,276,67502,1,4,0:2:0:0:
248,300,67586,1,8,0:3:0:0:
284,32,67753,6,0,P|280:100|280:136,1,90.9999958343508,6|0,1:0|0:0,0:0:0:0:
184,200,68086,1,8,0:0:0:0:
100,140,68253,1,2,0:0:0:0:
44,224,68420,1,0,0:0:0:0:
128,280,68586,1,8,0:0:0:0:
184,200,68753,1,2,0:0:0:0:
216,188,68836,1,2,0:3:0:0:
252,188,68920,1,0,0:0:0:0:
284,204,69003,1,2,0:3:0:0:
296,232,69086,6,0,P|296:196|304:136,1,90.9999958343508,2|0,0:0|0:0,0:0:0:0:
208,40,69420,1,8,0:0:0:0:
276,16,69586,1,4,0:2:0:0:
276,16,69920,1,4,0:2:0:0:
216,164,70086,1,10,0:0:0:0:
224,180,70170,1,4,0:2:0:0:
292,300,70336,1,4,0:2:0:0:
284,320,70420,6,0,P|368:328|460:364,1,181.999991668702,6|8,1:0|0:0,0:0:0:0:
488,272,70920,1,2,0:0:0:0:
428,204,71086,1,0,0:0:0:0:
436,120,71253,1,8,0:0:0:0:
328,12,71420,1,0,0:0:0:0:
352,36,71503,1,8,0:0:0:0:
356,72,71586,1,2,0:0:0:0:
332,100,71670,1,0,0:0:0:0:
312,112,71753,5,0,0:0:0:0:
304,128,71836,1,2,0:3:0:0:
308,144,71920,2,2,P|316:212|320:356,1,181.999991668702,4|4,1:2|0:3,1:0:0:0:
428,384,72420,5,4,1:2:0:0:
503,226,72586,1,10,0:0:0:0:
227,58,72753,5,2,0:0:0:0:
151,215,72919,1,4,0:3:0:0:
264,336,73086,5,6,1:0:0:0:
280,340,73169,1,0,0:0:0:0:
300,340,73252,1,0,0:0:0:0:
320,336,73336,1,0,0:0:0:0:
336,328,73419,1,8,0:0:0:0:
352,316,73502,1,0,0:0:0:0:
360,300,73586,1,2,0:0:0:0:
360,280,73670,1,0,0:0:0:0:
324,216,73836,1,4,0:2:0:0:
320,208,73920,1,8,0:0:0:0:
388,168,74086,1,4,0:2:0:0:
424,240,74253,1,10,0:0:0:0:
256,292,74420,5,6,0:0:0:0:
216,284,74503,1,0,0:0:0:0:
184,260,74586,1,0,0:0:0:0:
176,220,74670,1,0,0:0:0:0:
196,184,74753,1,8,0:0:0:0:
256,136,74920,1,2,0:0:0:0:
252,128,75003,1,4,0:2:0:0:
180,104,75170,1,4,0:3:0:0:
188,104,75253,1,10,0:0:0:0:
476,24,75420,5,4,1:2:0:0:
184,356,75753,1,6,0:0:0:0:
168,340,75836,1,2,0:3:0:0:
148,328,75920,1,0,0:0:0:0:
124,324,76003,1,2,0:3:0:0:
100,324,76086,1,8,0:0:0:0:
36,272,76253,1,2,0:0:0:0:
48,268,76336,1,0,0:0:0:0:
56,200,76503,1,4,0:2:0:0:
68,196,76586,1,8,0:0:0:0:
100,324,76753,1,4,0:2:0:0:
140,324,76836,1,0,0:0:0:0:
176,308,76920,1,0,0:0:0:0:
280,372,77086,5,4,0:3:0:0:
240,140,77253,1,8,0:3:0:0:
244,112,77336,1,4,0:2:0:0:
192,68,77503,1,4,0:2:0:0:
196,40,77586,1,2,0:0:0:0:
420,0,77753,5,4,0:3:0:0:
460,232,77920,1,8,0:3:0:0:
456,260,78003,1,4,0:2:0:0:
508,304,78170,1,4,0:2:0:0:
504,332,78253,1,2,0:0:0:0:
240,200,78420,5,4,1:0:0:0:
308,172,78586,1,2,0:0:0:0:
372,140,78753,2,0,L|380:56,1,77.0000023498536,2|0,1:0|0:0,0:0:0:0:
448,36,79086,1,2,0:0:0:0:
448,36,79253,2,0,P|440:112|432:212,1,154.000004699707,0|2,1:0|1:0,0:0:0:0:
433,189,79920,1,2,1:0:0:0:
448,36,80253,2,2,P|440:112|432:212,1,154.000004699707,2|8,1:0|0:3,1:0:0:0:
456,280,80753,1,2,1:0:0:0:
416,360,80920,1,4,0:3:0:0:
304,288,81086,5,2,0:0:0:0:
240,264,81253,1,2,0:0:0:0:
176,236,81420,2,0,L|160:316,1,77.0000023498536,4|0,0:0|0:0,0:0:0:0:
88,304,81753,1,2,0:0:0:0:
88,304,81920,2,0,P|104:220|116:160,1,115.50000352478,2|0,0:0|0:0,0:0:0:0:
120,168,82253,1,0,1:0:0:0:
120,168,82420,1,0,1:0:0:0:
112,72,82586,1,0,1:0:0:0:
116,84,82670,1,0,1:0:0:0:
120,96,82753,1,0,1:0:0:0:
192,288,82920,6,2,P|144:360|20:340,1,210.000008010865,6|0,1:0|1:0,1:0:0:0:
8,320,83336,1,0,1:0:0:0:
28,284,83420,1,4,1:0:0:0:
96,276,83586,1,4,1:2:0:0:
248,200,83753,5,6,1:0:0:0:
256,132,83920,1,2,0:0:0:0:
264,64,84086,2,0,L|176:48,1,77.0000023498536,2|0,1:0|0:0,0:0:0:0:
188,50,84920,1,4,0:3:0:0:
128,8,85086,1,0,3:0:0:0:
112,8,85170,1,0,3:0:0:0:
100,16,85253,1,0,3:0:0:0:
92,28,85336,1,0,3:0:0:0:
92,44,85420,1,4,3:0:0:0:
100,56,85503,1,0,3:0:0:0:
92,84,85586,5,8,3:0:0:0:
120,96,85670,1,0,3:0:0:0:
136,120,85753,1,0,3:0:0:0:
140,152,85836,1,0,3:0:0:0:
132,180,85920,1,8,3:0:0:0:
108,196,86003,1,0,3:0:0:0:
116,224,86086,5,0,1:0:0:0:
72,208,86170,1,0,1:0:0:0:
28,224,86253,1,0,1:0:0:0:
16,268,86336,1,0,1:0:0:0:
28,312,86420,5,6,1:0:0:0:
92,296,86586,1,0,1:0:0:0:
160,280,86753,2,0,P|160:328|156:372,1,77.0000023498536,4|0,1:2|0:0,0:0:0:0:
272,324,87086,1,2,1:0:0:0:
384,360,87253,2,0,P|376:276|372:180,2,154.000004699707,4|4|4,1:2|0:0|0:0,0:0:0:0:
496,292,88086,5,8,1:3:0:0:
492,192,88336,1,4,0:3:0:0:
500,84,88586,1,8,1:3:0:0:
484,0,88753,5,8,1:3:0:0:
440,16,88836,1,2,1:3:0:0:
396,16,88920,1,0,1:0:0:0:
356,32,89003,1,2,1:3:0:0:
328,28,89086,6,0,B|308:60|308:60|328:108,1,77.0000023498536,6|0,1:0|0:0,0:0:0:0:
380,204,89420,1,2,1:2:0:0:
320,176,89586,2,0,P|260:184|152:204,1,154.000004699707,2|4,1:0|0:3,0:0:0:0:
60,132,90086,1,2,1:2:0:0:
88,208,90253,1,2,0:0:0:0:
64,292,90420,5,2,1:0:0:0:
80,360,90586,1,4,0:3:0:0:
32,308,90753,1,2,1:2:0:0:
168,348,90920,2,0,P|244:340|272:256,1,154.000004699707,2|4,1:0|0:3,0:0:0:0:
232,160,91420,1,2,1:2:0:0:
264,44,91586,1,4,0:0:0:0:
380,176,91753,6,0,P|384:240|384:268,1,77.0000023498536,2|0,1:0|0:0,0:0:0:0:
336,108,92086,1,2,1:2:0:0:
424,116,92253,1,2,1:0:0:0:
260,300,92420,6,0,B|216:268|216:268|144:300,2,115.50000352478,2|2|2,1:0|1:0|1:0,0:0:0:0:
304,360,93086,1,2,1:0:0:0:
60,352,93253,2,2,P|68:276|72:160,1,192.500005874634,2|0,1:0|0:0,1:0:0:0:
60,128,93753,1,4,1:2:0:0:
40,56,93920,1,4,1:3:0:0:
236,128,94086,5,2,1:0:0:0:
212,4,94253,1,8,0:3:0:0:
168,64,94420,5,6,1:0:0:0:
168,64,94753,1,2,1:2:0:0:
300,80,94920,2,0,P|324:128|336:232,1,154.000004699707,2|4,1:0|0:3,0:0:0:0:
392,356,95420,2,0,P|396:300|408:268,1,77.0000023498536,2|2,1:2|0:3,0:0:0:0:
300,80,95753,5,2,1:0:0:0:
440,32,95920,1,0,0:0:0:0:
476,172,96086,1,2,1:2:0:0:
476,172,96253,1,2,1:0:0:0:
352,24,96420,5,4,1:2:0:0:
468,104,96587,1,0,1:0:0:0:
388,212,96753,1,4,1:2:0:0:
388,212,96920,1,0,1:0:0:0:
272,136,97086,5,2,1:0:0:0:
260,132,97170,1,0,1:0:0:0:
248,128,97253,1,0,1:0:0:0:
236,124,97336,1,0,1:0:0:0:
228,92,97420,5,2,1:0:0:0:
204,96,97503,1,0,1:0:0:0:
180,100,97586,1,2,1:0:0:0:
156,104,97670,1,0,1:0:0:0:
128,128,97753,5,2,1:0:0:0:
116,124,97837,1,0,1:0:0:0:
104,120,97920,1,0,1:0:0:0:
92,116,98003,1,0,1:0:0:0:
84,84,98087,5,2,1:0:0:0:
60,88,98170,1,0,1:0:0:0:
36,92,98253,1,0,1:0:0:0:
12,96,98337,1,0,1:0:0:0:
16,72,98420,6,0,L|20:32,5,25.6666674499512,2|0|0|0|0|0,0:1|0:0|0:0|0:0|0:0|0:0,0:0:0:0:
76,4,98753,2,0,L|80:24,6,19.2500005874634,2|0|0|0|0|0|0,0:1|0:0|0:0|0:0|0:0|0:0|0:0,0:0:0:0:
132,72,99086,5,4,1:2:0:0:
208,88,99253,1,0,1:0:0:0:
296,192,99420,5,0,1:0:0:0:
180,244,99587,1,0,1:0:0:0:
328,332,99753,5,4,1:0:0:0:
