osu file format v14

[General]
AudioFilename: audio.mp3
AudioLeadIn: 0
PreviewTime: 56415
Countdown: 0
SampleSet: Soft
StackLeniency: 0.7
Mode: 0
LetterboxInBreaks: 1
WidescreenStoryboard: 0

[Editor]
DistanceSpacing: 1.5
BeatDivisor: 4
GridSize: 8
TimelineZoom: 3.899998

[Metadata]
Title:CaptivAte ~Sabaki~
TitleUnicode:CaptivAte ~裁き~
Artist:DJ YOSHITAKA feat. A/I
ArtistUnicode:DJ YOSHITAKA feat. A/I
Creator:semaphore
Version:LC's Black Another
Source:beatmania IIDX 14 GOLD
Tags:la cataline lc reiji-rj icebeam evilelvis jounzan natteke desu guitarfreaks & drummania v2 video rhythm game japanese electronic NOSTALISH REQUIEM
BeatmapID:3380761
BeatmapSetID:1656289

[Difficulty]
HPDrainRate:6
CircleSize:5
OverallDifficulty:8
ApproachRate:8.5
SliderMultiplier:1.8
SliderTickRate:1

[Events]
//Background and Video events
0,0,"bg.jpg",0,0
//Break Periods
//Storyboard Layer 0 (Background)
//Storyboard Layer 1 (Fail)
//Storyboard Layer 2 (Pass)
//Storyboard Layer 3 (Foreground)
//Storyboard Layer 4 (Overlay)
//Storyboard Sound Samples

[TimingPoints]
1087,333.333333333333,4,2,0,20,1,0
1087,-200,4,2,0,20,0,0
1253,-200,4,2,0,15,0,0
1920,-200,4,2,0,17,0,0
2253,-200,4,2,0,20,0,0
4086,-200,4,2,0,15,0,0
5420,-200,4,2,0,20,0,0
5753,-200,4,1,0,17,0,0
5836,-200,4,2,0,15,0,0
6336,-200,4,2,0,20,0,0
6753,-200,4,2,0,15,0,0
7420,-200,4,2,0,17,0,0
7586,-200,4,2,0,20,0,0
8253,-200,4,2,0,15,0,0
8336,-200,4,2,0,20,0,0
10253,-200,4,2,0,20,0,0
11753,-100,4,1,0,50,0,0
13336,-133.333333333333,4,1,0,50,0,0
13586,-133.333333333333,4,2,0,50,0,0
13920,-133.333333333333,4,1,0,30,0,0
14003,-133.333333333333,4,2,0,50,0,0
14253,-133.333333333333,4,1,0,40,0,0
14336,-133.333333333333,4,2,0,50,0,0
15336,-133.333333333333,4,1,0,35,0,0
15670,-133.333333333333,4,2,0,50,0,0
16170,-133.333333333333,4,1,0,50,0,0
16336,-133.333333333333,4,2,0,50,0,0
16586,-133.333333333333,4,1,0,50,0,0
17003,-100,4,1,0,50,0,0
22420,-100,4,1,0,70,0,1
23753,-100,4,1,0,50,0,0
24586,-100,4,2,0,50,0,0
24836,-100,4,1,0,50,0,0
27170,-100,4,2,0,50,0,0
27586,-100,4,1,0,50,0,0
29753,-100,4,2,0,50,0,0
30170,-100,4,1,0,50,0,0
31586,-100,4,2,0,50,0,0
32920,-100,4,1,0,50,0,0
33753,-100,4,1,0,70,0,0
33836,-100,4,1,0,60,0,0
34753,-100,4,1,0,50,0,0
35086,-100,4,2,0,50,0,0
35503,-100,4,1,0,50,0,0
37836,-100,4,2,0,50,0,0
38170,-100,4,1,0,50,0,0
40586,-100,4,2,0,50,0,0
40920,-100,4,1,0,50,0,0
41420,-100,4,2,0,50,0,0
41920,-100,4,1,0,50,0,0
45003,-100,4,1,0,30,0,0
45420,-100,4,2,0,50,0,0
45503,-100,4,1,0,30,0,0
45836,-100,4,2,0,50,0,0
46586,-100,4,1,0,30,0,0
46670,-100,4,2,0,50,0,0
47003,-100,4,1,0,30,0,0
47420,-100,4,2,0,50,0,0
47670,-100,4,1,0,30,0,0
47920,-100,4,2,0,50,0,0
48253,-100,4,1,0,30,0,0
48503,-100,4,2,0,50,0,0
49253,-100,4,1,0,30,0,0
49336,-100,4,2,0,50,0,0
49670,-100,4,1,0,30,0,0
50086,-100,4,2,0,50,0,0
50170,-100,4,1,0,30,0,0
50753,-100,4,2,0,50,0,0
50836,-100,4,1,0,30,0,0
51170,-100,4,2,0,50,0,0
51920,-100,4,1,0,30,0,0
52003,-100,4,2,0,50,0,0
52336,-100,4,1,0,30,0,0
52586,-100,4,2,0,50,0,0
53086,-100,4,1,0,30,0,0
53336,-100,4,2,0,50,0,0
53503,-100,4,1,0,30,0,0
53836,-100,4,2,0,50,0,0
54503,-100,4,1,0,30,0,0
54670,-100,4,2,0,50,0,0
55086,-100,4,1,0,30,0,0
55336,-100,4,1,0,50,0,0
56253,-100,4,2,0,70,0,0
57003,-100,4,1,0,70,0,0
57086,-100,4,1,0,70,0,1
61836,-100,4,1,0,90,0,1
62336,-100,4,1,0,70,0,1
72336,-100,4,1,0,90,0,1
73003,-100,4,1,0,70,0,1
78420,-200,4,1,0,70,0,0
80253,-200,4,1,0,50,0,0
81086,-200,4,1,0,80,0,0
81336,-133.333333333333,4,2,0,75,0,0
81753,-133.333333333333,4,2,0,40,0,0
82086,-133.333333333333,4,1,0,60,0,0
82503,-133.333333333333,4,1,0,40,0,0
82836,-133.333333333333,4,1,0,60,0,0
83503,-133.333333333333,4,2,0,70,0,0
83920,-133.333333333333,4,1,0,60,0,0
84003,-133.333333333333,4,2,0,75,0,0
84420,-133.333333333333,4,2,0,50,0,0
84836,-133.333333333333,4,1,0,60,0,0
85170,-133.333333333333,4,1,0,40,0,0
85420,-133.333333333333,4,1,0,60,0,0
85753,-133.333333333333,4,1,0,70,0,0
86086,-133.333333333333,4,1,0,60,0,0
86420,-133.333333333333,4,1,0,80,0,0
86586,-133.333333333333,4,1,0,50,0,0
86836,-133.333333333333,4,2,0,80,0,0
87086,-133.333333333333,4,1,0,50,0,0
87253,-133.333333333333,4,2,0,70,0,0
87336,-133.333333333333,4,1,0,60,0,0
89086,-100,4,1,0,80,0,0
89336,-100,4,2,0,60,0,0
89420,-100,4,1,0,60,0,0
93836,-100,4,1,0,70,0,0
94003,-100,4,1,0,80,0,0
94336,-100,4,1,0,85,0,0
94503,-100,4,1,0,60,0,0
98420,-100,4,1,0,80,0,0
103753,-100,4,1,0,5,0,0

[Colours]
Combo1 : 61,109,209
Combo2 : 193,28,90
Combo3 : 55,169,206
Combo4 : 213,47,142
SliderBorder : 255,255,255

[HitObjects]
72,72,1087,5,2,0:0:0:0:
0,112,1420,1,0,0:0:0:0:
8,192,1753,1,2,0:0:0:0:
88,216,2086,1,2,0:0:0:0:
88,216,2420,2,0,B|160:152|264:176,1,180,2|2,0:0|0:0,0:0:0:0:
256,174,3753,6,0,B|343:183,1,90,2|0,0:0|0:0,0:0:0:0:
368,168,4253,1,0,0:0:0:0:
392,152,4420,1,2,0:0:0:0:
464,80,4753,2,0,B|528:152|480:256,1,180,2|2,0:0|0:0,0:0:0:0:
448,264,5586,2,0,B|392:280,1,45
312,312,6003,1,0,0:0:0:0:
208,272,6253,1,2,0:0:0:0:
320,112,6420,6,0,B|336:160|296:216,1,90,0|2,0:0|0:0,0:0:0:0:
240,136,7086,2,0,B|228:89|252:49,1,90,2|0,0:0|0:0,0:0:0:0:
184,192,7753,2,0,B|40:200,1,135,2|0,0:0|0:0,0:0:0:0:
49,199,8420,1,2,0:0:0:0:
120,280,8753,1,0,0:0:0:0:
280,240,9086,2,0,B|302:172|288:96,2,135,2|2|2,0:0|0:0|0:0,0:0:0:0:
224,320,10420,5,4,0:0:0:0:
256,192,10503,12,0,11753,0:0:0:0:
104,320,12086,5,2,0:0:0:0:
216,304,12253,1,2,0:0:0:0:
232,304,12336,1,2,0:0:0:0:
247,302,12420,2,2,B|336:320,1,90
336,320,12920,2,0,B|280:224|360:144,1,180,2|2,0:0|0:0,0:0:0:0:
392,80,13420,2,0,B|416:0,1,67.4999979883433,2|0,0:0|0:0,0:0:0:0:
248,32,13753,2,0,B|267:96,1,67.4999979883433,2|2,0:0|0:0,0:0:0:0:
120,192,14086,2,2,B|144:112,1,67.4999979883433,0|2,0:0|0:0,0:0:0:0:
448,224,14420,6,0,B|480:296|440:352,1,134.999995976687,4|2,0:0|0:0,0:0:0:0:
288,240,14920,1,0,0:0:0:0:
288,240,15003,1,0,0:0:0:0:
288,240,15086,2,0,B|272:208|280:152,1,67.4999979883433,0|2,0:0|0:0,0:0:0:0:
368,72,15420,2,0,B|383:103|378:137,1,67.4999979883433
152,104,15753,6,0,B|216:72|216:72|304:88,1,134.999995976687,4|2,0:0|0:0,0:0:0:0:
144,216,16253,1,0,0:0:0:0:
144,216,16420,2,0,B|112:224|112:224|64:216,1,67.4999979883433
0,168,16753,1,4,0:0:0:0:
72,120,16920,1,0,0:0:0:0:
288,240,17086,6,0,B|288:280|272:328,1,90,4|0,0:0|0:0,0:0:0:0:
136,312,17420,1,2,0:0:0:0:
376,288,17586,2,2,B|376:192|392:96,1,180,2|2,0:0|0:0,0:0:0:0:
389,108,18253,1,2,0:0:0:0:
389,108,18586,1,2,0:0:0:0:
448,264,18753,2,0,B|504:280,2,45,2|0|0,0:0|0:0|0:0,0:0:0:0:
304,192,19086,1,0,0:0:0:0:
304,192,19253,1,8,0:0:0:0:
272,344,19420,2,0,B|227:350,2,45
152,320,19753,5,0,0:0:0:0:
140,306,19836,1,0,0:0:0:0:
130,290,19920,1,0,0:0:0:0:
123,273,20003,1,0,0:0:0:0:
119,255,20086,1,0,0:0:0:0:
117,236,20170,1,0,0:0:0:0:
117,218,20253,1,0,0:0:0:0:
118,200,20336,1,0,0:0:0:0:
121,182,20420,1,0,0:0:0:0:
127,165,20503,1,0,0:0:0:0:
134,148,20586,1,0,0:0:0:0:
141,131,20670,1,0,0:0:0:0:
146,114,20753,1,0,0:0:0:0:
150,96,20836,1,0,0:0:0:0:
154,78,20920,1,0,0:0:0:0:
154,60,21003,1,0,0:0:0:0:
152,42,21086,6,0,B|154:29|152:16,14,22.5
72,57,21753,2,0,B|71:67|72:80,14,22.5
0,96,22420,1,4,0:0:0:0:
184,232,23753,5,0,0:0:0:0:
144,152,23920,1,0,0:0:0:0:
216,112,24086,1,8,0:0:0:0:
256,192,24253,2,0,B|328:272|440:216,1,180,0|2,0:0|0:0,0:0:0:0:
480,144,24753,1,8,0:0:0:0:
456,336,24920,1,0,0:0:0:0:
456,336,25003,1,0,0:0:0:0:
456,336,25086,2,0,B|416:320|360:320,1,90
200,352,25420,1,8,0:0:0:0:
144,272,25586,2,0,B|128:176,1,90,0|0,0:0|0:0,0:0:0:0:
272,96,25920,2,0,B|257:184,2,90,4|0|0,0:0|0:0|0:0,0:0:0:0:
32,120,26420,6,2,B|104:32|211:104,1,180,0|8,0:0|0:0,0:0:0:0:
40,224,26920,1,0,0:0:0:0:
40,224,27253,1,2,0:0:0:0:
144,272,27420,2,0,B|240:264,1,90,8|0,0:0|0:0,0:0:0:0:
256,280,27670,1,0,0:0:0:0:
280,296,27753,1,0,0:0:0:0:
352,360,27920,1,0,0:0:0:0:
376,248,28086,1,8,0:0:0:0:
376,248,28253,6,0,B|440:160|368:64,1,180,4|12,0:0|0:0,0:0:0:0:
256,32,28753,2,0,B|248:80|272:120,1,90
280,136,29003,1,0,0:0:0:0:
288,152,29086,5,4,0:0:0:0:
80,184,29253,1,0,0:0:0:0:
88,288,29420,1,10,0:0:0:0:
168,240,29586,2,2,B|192:200|184:144,1,90,0|0,0:0|0:0,0:0:0:0:
112,384,29920,2,0,B|232:360,1,90,2|8,0:0|0:0,0:0:0:0:
328,336,30253,2,0,B|368:240|320:152,1,180,2|0,0:0|0:0,0:0:0:0:
240,224,30753,1,10,0:0:0:0:
240,224,30920,2,2,B|200:128|248:40,1,180
242,49,31309,1,0,0:0:0:0:
242,49,31364,1,0,0:0:0:0:
242,49,31420,2,0,B|336:32,1,90,4|2,0:0|0:0,0:0:0:0:
48,208,31753,6,2,B|64:112,1,90,2|0,0:0|0:0,0:0:0:0:
63,120,32003,2,0,B|120:160|192:136,1,135,8|2,0:0|0:0,0:0:0:0:
320,192,32420,2,0,B|328:240|304:288,1,90,2|0,0:0|0:0,0:0:0:0:
307,279,32670,2,0,B|456:288,1,135,8|0,0:0|0:0,0:0:0:0:
432,152,33086,1,0,0:0:0:0:
232,232,33253,6,0,B|112:240,1,90,4|0,0:0|0:0,0:0:0:0:
240,48,33586,2,0,B|360:56,1,90,4|0,0:0|0:0,0:0:0:0:
432,48,33920,1,0,0:0:0:0:
432,48,34003,1,0,0:0:0:0:
432,152,34170,1,0,0:0:0:0:
432,152,34253,1,0,0:0:0:0:
376,328,34420,6,0,B|296:280|336:160,1,180,4|8,0:0|0:0,0:0:0:0:
232,232,34920,1,0,0:0:0:0:
232,232,35253,2,0,B|184:256|136:224,1,90,2|8,0:0|0:0,0:0:0:0:
72,184,35586,2,0,B|48:0,1,180
16,256,36086,2,0,B|32:344,1,90,8|0,0:0|0:0,0:0:0:0:
160,144,36420,2,0,B|152:48,1,90,2|2,0:0|0:0,0:0:0:0:
176,40,36670,1,0,0:0:0:0:
200,24,36753,1,0,0:0:0:0:
328,32,36920,1,2,0:0:0:0:
424,88,37087,6,2,B|354:173|265:113,1,180,0|8,0:0|0:0,0:0:0:0:
240,224,37587,1,0,0:0:0:0:
240,224,37920,1,2,0:0:0:0:
336,264,38087,2,0,B|432:256,1,90,8|0,0:0|0:0,0:0:0:0:
448,272,38337,1,0,0:0:0:0:
472,280,38420,1,0,0:0:0:0:
384,352,38587,1,0,0:0:0:0:
272,320,38753,1,8,0:0:0:0:
168,336,38920,6,0,B|80:272|-16:344,1,180,4|12,0:0|0:0,0:0:0:0:
32,208,39420,2,0,B|80:216|120:192,1,90
136,184,39670,1,0,0:0:0:0:
152,176,39753,5,4,0:0:0:0:
176,40,39920,1,2,0:0:0:0:
96,96,40087,1,8,0:0:0:0:
232,128,40253,2,2,B|296:88|368:112,1,135,0|2,0:0|0:0,0:0:0:0:
361,109,40587,2,2,B|440:188|562:125,1,180,0|2,0:0|0:0,0:0:0:0:
448,64,41086,6,2,B|416:240,1,180,2|8,0:0|0:0,0:0:0:0:
392,336,41586,1,2,0:0:0:0:
319,265,41753,2,0,B|279:241|223:249,1,90,2|0,0:0|0:0,0:0:0:0:
232,248,41976,1,0,0:0:0:0:
232,248,42031,1,0,0:0:0:0:
232,248,42087,2,2,B|218:355,1,90,0|2,0:0|0:0,0:0:0:0:
112,288,42420,6,0,B|80:280|40:280,2,45,0|0|0,0:0|0:0|0:0,0:0:0:0:
120,280,42670,2,0,B|160:223|136:151,1,135,8|2,0:0|0:0,0:0:0:0:
117,52,43086,2,0,B|86:60|73:59,2,45,0|0|0,0:0|0:0|0:0,0:0:0:0:
128,48,43336,2,0,B|199:24|256:64,1,135,8|2,0:0|0:0,0:0:0:0:
448,108,43753,5,0,0:0:0:0:
371,166,43920,2,0,B|355:118|360:77,1,90,4|0,0:0|0:0,0:0:0:0:
186,183,44253,2,0,B|192:224|176:271,1,90,4|0,0:0|0:0,0:0:0:0:
88,312,44587,1,0,0:0:0:0:
88,312,44670,1,8,0:0:0:0:
24,232,44837,1,0,0:0:0:0:
24,232,44920,1,8,0:0:0:0:
80,144,45086,6,0,B|136:56|240:88,1,180,0|8,0:0|0:0,0:0:0:0:
328,40,45586,2,0,B|424:32,1,90
496,160,45920,2,0,B|400:152,1,90,8|2,0:0|0:0,0:0:0:0:
320,272,46253,1,2,0:0:0:0:
392,344,46420,2,0,B|424:304|416:240,1,90,8|0,0:0|0:0,0:0:0:0:
232,240,46753,2,0,B|184:240|120:256,1,90,8|0,0:0|0:0,0:0:0:0:
184,336,47086,2,0,B|208:240|200:128,1,180,0|8,0:0|0:0,0:0:0:0:
201,157,47753,6,0,B|192:56,1,90
104,144,48086,2,0,B|95:233,1,90,8|0,0:0|0:0,0:0:0:0:
32,72,48420,1,0,0:0:0:0:
288,112,48586,2,0,B|392:104,2,90,8|2|0,0:0|0:0|0:0,0:0:0:0:
448,192,49087,2,0,B|480:152|472:88,1,90,8|0,0:0|0:0,0:0:0:0:
336,240,49420,2,0,B|288:240|240:280,1,90,8|0,0:0|0:0,0:0:0:0:
152,352,49753,6,0,B|248:344|336:352,1,180,0|4,0:0|0:0,0:0:0:0:
424,296,50253,1,0,0:0:0:0:
200,208,50420,6,0,B|104:216|16:208,1,180,4|0,0:0|0:0,0:0:0:0:
152,112,50920,2,0,B|192:96|248:96,1,90
408,184,51253,2,0,B|368:168|312:168,1,90,8|2,0:0|0:0,0:0:0:0:
344,272,51586,1,2,0:0:0:0:
496,232,51753,6,0,B|504:176|512:120,1,90,8|0,0:0|0:0,0:0:0:0:
368,8,52086,2,0,B|372:41|380:97,1,90,8|0,0:0|0:0,0:0:0:0:
232,168,52420,2,0,B|240:112|248:56,1,90,0|0,0:0|0:0,0:0:0:0:
136,168,52753,1,8,0:0:0:0:
112,256,52920,1,8,0:0:0:0:
184,320,53086,5,0,0:0:0:0:
184,320,53420,1,8,0:0:0:0:
256,272,53586,2,0,B|304:280|360:248,1,90
416,184,53920,1,8,0:0:0:0:
480,320,54086,2,0,B|432:312|376:344,1,90,2|0,0:0|0:0,0:0:0:0:
256,272,54420,1,8,0:0:0:0:
184,192,54586,1,0,0:0:0:0:
240,96,54753,2,0,B|304:24|408:72,2,180,8|0|0,0:0|0:0|0:0,0:0:0:0:
184,192,55586,1,0,0:0:0:0:
128,96,55753,5,4,0:0:0:0:
128,96,56420,1,2,0:0:0:0:
48,144,56586,1,0,0:0:0:0:
16,232,56753,1,4,0:0:0:0:
64,312,56920,1,0,0:0:0:0:
136,352,57086,6,2,B|184:328|208:264,2,90,4|0|0,0:0|0:0|0:0,0:0:0:0:
296,288,57586,2,2,B|230:208|246:120,1,180,2|2,0:0|0:0,0:0:0:0:
352,184,58086,1,0,0:0:0:0:
352,176,58170,1,0,0:0:0:0:
376,104,58336,1,2,0:0:0:0:
376,96,58420,6,2,B|464:160|544:96,1,180,0|0,0:0|0:0,0:0:0:0:
280,40,58920,2,2,B|256:224,1,180,0|6,0:0|0:0,0:0:0:0:
256,218,59336,1,0,0:0:0:0:
256,218,59420,2,2,B|224:248|216:320,1,90,2|0,0:0|0:0,0:0:0:0:
160,344,59753,5,4,0:0:0:0:
160,200,59920,1,2,0:0:0:0:
160,56,60086,1,0,0:0:0:0:
96,120,60253,2,0,B|0:112,1,90,2|0,0:0|0:0,0:0:0:0:
8,304,60586,2,2,B|104:296,1,90,6|2,0:0|0:0,0:0:0:0:
120,312,60836,1,0,0:0:0:0:
144,328,60920,1,0,0:0:0:0:
160,344,61003,1,0,0:0:0:0:
176,360,61086,6,2,B|266:360,1,90,4|2,0:0|0:0,0:0:0:0:
432,288,61420,2,2,B|342:280,1,90,0|4,0:0|0:0,0:0:0:0:
342,280,61920,1,0,0:0:0:0:
344,136,62086,1,0,0:0:0:0:
448,208,62253,1,0,0:0:0:0:
376,208,62420,6,2,B|304:120|392:40,1,180,4|0,0:0|0:0,0:0:0:0:
104,112,62920,2,2,B|192:40|272:120,1,180,2|6,0:0|0:0,0:0:0:0:
200,256,63420,1,0,0:0:0:0:
200,256,63503,2,2,B|176:216|183:169,1,90,2|0,0:0|0:0,0:0:0:0:
272,216,63753,2,2,B|312:312|246:387,1,180
56,320,64253,6,0,B|11:238|83:150,1,180,2|6,0:0|0:0,0:0:0:0:
64,136,64670,1,0,0:0:0:0:
48,120,64753,2,2,B|72:16,1,90
192,64,65086,2,2,B|272:136|376:72,1,180,4|0,0:0|0:0,0:0:0:0:
456,24,65586,2,2,B|448:64|432:120,2,90,2|0|4,0:0|0:0|0:0,0:0:0:0:
400,256,66086,2,2,B|384:208|378:168,1,90,2|0,0:0|0:0,0:0:0:0:
376,344,66420,5,2,0:0:0:0:
216,320,66670,1,4,0:0:0:0:
312,200,66920,1,6,0:0:0:0:
304,288,67086,5,2,0:0:0:0:
240,232,67253,1,0,0:0:0:0:
240,232,67336,1,4,0:0:0:0:
240,144,67503,1,0,0:0:0:0:
240,144,67586,1,6,0:0:0:0:
240,144,67670,1,0,0:0:0:0:
240,144,67753,6,0,B|136:176|80:80,1,180,0|0,0:0|0:0,0:0:0:0:
24,24,68253,1,2,0:0:0:0:
40,160,68420,2,2,B|56:248,1,90,0|6,0:0|0:0,0:0:0:0:
184,336,68753,1,0,0:0:0:0:
184,304,68837,1,0,0:0:0:0:
176,280,68920,1,2,0:0:0:0:
304,288,69087,6,2,B|384:360|472:288,1,180
480,224,69587,2,2,B|512:40,1,180,2|6,0:0|0:0,0:0:0:0:
510,46,70003,1,0,0:0:0:0:
510,46,70087,2,2,B|474:50|420:50,1,90
256,112,70420,6,2,B|288:72|338:76,2,90,4|0|2,0:0|0:0|0:0,0:0:0:0:
80,104,70920,2,0,B|73:193,1,90,2|0,0:0|0:0,0:0:0:0:
224,328,71253,2,2,B|232:232,1,90,4|2,0:0|0:0,0:0:0:0:
216,216,71503,1,0,0:0:0:0:
200,192,71587,1,0,0:0:0:0:
184,176,71670,1,0,0:0:0:0:
168,160,71753,6,2,B|168:70,1,90,4|2,0:0|0:0,0:0:0:0:
55,142,72087,2,2,B|48:232,1,90,0|4,0:0|0:0,0:0:0:0:
48,328,72420,1,0,0:0:0:0:
48,328,72587,1,0,0:0:0:0:
144,296,72753,1,0,0:0:0:0:
144,296,72920,1,0,0:0:0:0:
240,312,73087,6,2,B|328:240|408:328,1,180,4|0,0:0|0:0,0:0:0:0:
328,192,73587,2,2,B|256:96|336:16,1,180,2|6,0:0|0:0,0:0:0:0:
384,112,74087,1,0,0:0:0:0:
384,112,74170,2,2,B|424:88|471:95,1,90,2|0,0:0|0:0,0:0:0:0:
328,192,74420,2,2,B|232:232|157:166,1,180
64,120,74920,6,0,B|80:304,1,180,2|6,0:0|0:0,0:0:0:0:
79,299,75337,1,0,0:0:0:0:
79,299,75420,2,2,B|125:290|183:323,1,90
256,288,75753,2,2,B|336:360|440:296,1,180,4|0,0:0|0:0,0:0:0:0:
456,232,76253,2,2,B|464:192|480:136,2,90,2|0|4,0:0|0:0|0:0,0:0:0:0:
328,112,76753,2,2,B|376:96|416:90,1,90,2|0,0:0|0:0,0:0:0:0:
320,208,77087,5,6,0:0:0:0:
128,152,77337,1,4,0:0:0:0:
264,16,77587,1,6,0:0:0:0:
240,128,77753,5,2,0:0:0:0:
96,264,78003,1,4,0:0:0:0:
56,56,78253,1,6,0:0:0:0:
128,152,78420,5,4,0:0:0:0:
256,192,78503,12,4,80253,0:0:0:0:
304,96,80586,5,0,0:0:0:0:
376,64,80753,1,0,0:0:0:0:
448,104,80920,1,0,0:0:0:0:
448,104,81003,1,0,0:0:0:0:
448,104,81086,1,4,0:0:0:0:
448,200,81253,1,0,0:0:0:0:
392,272,81420,2,0,B|336:208|392:128,1,134.999995976687,4|0,0:0|0:0,0:0:0:0:
380,147,81920,1,2,0:0:0:0:
144,208,82253,5,0,0:0:0:0:
160,288,82420,1,0,0:0:0:0:
80,304,82586,1,8,0:0:0:0:
80,304,82670,1,0,0:0:0:0:
80,304,82753,1,0,0:0:0:0:
64,224,82920,2,2,B|0:160|40:72,1,134.999995976687,4|0,0:0|0:0,0:0:0:0:
40,88,83336,1,0,0:0:0:0:
48,72,83420,1,0,0:0:0:0:
160,72,83586,2,0,B|293:74,1,134.999995976687,4|0,0:0|0:0,0:0:0:0:
448,168,84086,2,0,B|296:168,1,134.999995976687,4|0,0:0|0:0,0:0:0:0:
313,168,84586,5,2,0:0:0:0:
313,168,84920,2,0,B|320:248,1,67.4999979883433,0|0,0:0|0:0,0:0:0:0:
328,328,85253,1,0,0:0:0:0:
304,326,85336,1,0,0:0:0:0:
280,324,85420,1,0,0:0:0:0:
256,324,85503,1,0,0:0:0:0:
232,325,85586,1,0,0:0:0:0:
208,327,85670,1,0,0:0:0:0:
186,335,85753,1,0,0:0:0:0:
169,317,85836,5,0,0:0:0:0:
160,294,85920,1,0,0:0:0:0:
156,270,86003,1,0,0:0:0:0:
155,246,86086,1,0,0:0:0:0:
158,222,86170,1,0,0:0:0:0:
160,200,86253,1,2,0:0:0:0:
158,174,86336,1,0,0:0:0:0:
156,150,86420,6,0,B|144:61,2,67.4999979883433,4|0|2,0:0|0:0|0:0,0:0:0:0:
56,168,86920,2,0,B|47:235,2,67.4999979883433,4|0|4,0:0|0:0|0:0,0:0:0:0:
280,88,87420,1,0,0:0:0:0:
304,168,87586,1,0,0:0:0:0:
304,168,87669,1,0,0:0:0:0:
304,168,87753,1,0,0:0:0:0:
320,240,87920,2,0,B|320:307,1,67.4999979883433,2|0,0:0|0:0,0:0:0:0:
432,272,88253,2,2,B|448:160,1,101.249996982515,6|2,0:0|0:0,0:0:0:0:
465,157,88586,1,0,0:0:0:0:
483,141,88670,1,0,0:0:0:0:
496,121,88753,1,0,0:0:0:0:
504,99,88836,1,0,0:0:0:0:
509,76,88920,1,0,0:0:0:0:
508,53,89003,1,0,0:0:0:0:
504,32,89086,6,0,B|336:48,1,135,4|4,0:0|0:0,0:0:0:0:
352,40,89420,1,8,0:0:0:0:
360,144,89586,1,0,0:0:0:0:
360,144,89920,1,0,0:0:0:0:
360,256,90086,2,0,B|312:248|272:280,1,90,0|0,0:0|0:0,0:0:0:0:
192,208,90420,2,2,B|121:130|167:43,1,180,0|8,0:0|0:0,0:0:0:0:
72,168,90920,2,2,B|142:246|97:333,1,180,0|6,0:0|0:0,0:0:0:0:
97,333,91336,1,0,0:0:0:0:
97,333,91420,1,0,0:0:0:0:
32,264,91586,1,2,0:0:0:0:
192,320,91753,6,0,B|304:320,1,90,6|0,0:0|0:0,0:0:0:0:
432,328,92086,2,2,B|464:288|456:240,1,90,8|2,0:0|0:0,0:0:0:0:
456,152,92420,2,2,B|304:176,1,135
322,173,92753,2,2,B|287:135|247:103,1,90,8|2,0:0|0:0,0:0:0:0:
256,111,93003,1,0,0:0:0:0:
256,112,93086,6,2,B|271:16,1,90,0|4,0:0|0:0,0:0:0:0:
208,232,93420,2,0,B|192:320,1,90,8|6,0:0|0:0,0:0:0:0:
191,320,93920,1,0,0:0:0:0:
112,264,94086,1,0,0:0:0:0:
120,144,94253,1,0,0:0:0:0:
208,216,94420,5,4,0:0:0:0:
112,240,94587,1,0,0:0:0:0:
32,184,94754,1,10,0:0:0:0:
272,176,94920,2,0,B|320:160|361:182,1,90,2|0,0:0|0:0,0:0:0:0:
416,248,95253,1,2,0:0:0:0:
416,248,95336,1,0,0:0:0:0:
416,248,95420,1,0,0:0:0:0:
368,312,95587,2,0,B|288:384|184:304,1,180,2|2,0:0|0:0,0:0:0:0:
208,136,96086,2,0,B|223:183|202:223,1,90,8|0,0:0|0:0,0:0:0:0:
112,160,96420,2,0,B|96:112|117:72,1,90,2|2,0:0|0:0,0:0:0:0:
117,72,96670,1,0,0:0:0:0:
117,72,96753,1,8,0:0:0:0:
216,24,96920,1,2,0:0:0:0:
304,104,97086,5,6,0:0:0:0:
318,126,97170,1,0,0:0:0:0:
324,152,97253,1,0,0:0:0:0:
326,178,97336,1,0,0:0:0:0:
325,205,97420,1,2,0:0:0:0:
325,231,97503,1,0,0:0:0:0:
331,257,97586,1,0,0:0:0:0:
336,283,97670,1,0,0:0:0:0:
354,302,97753,5,2,0:0:0:0:
380,307,97836,1,0,0:0:0:0:
405,298,97920,1,2,0:0:0:0:
418,274,98003,1,0,0:0:0:0:
423,247,98086,1,0,0:0:0:0:
425,219,98170,1,0,0:0:0:0:
420,192,98253,1,2,0:0:0:0:
405,169,98336,1,0,0:0:0:0:
368,152,98420,5,4,0:0:0:0:
330,155,98503,1,0,0:0:0:0:
295,175,98586,1,0,0:0:0:0:
257,191,98670,1,0,0:0:0:0:
218,202,98753,1,0,0:0:0:0:
177,206,98836,1,0,0:0:0:0:
136,205,98920,1,0,0:0:0:0:
97,191,99003,1,0,0:0:0:0:
70,160,99086,2,0,B|58:132,16,22.5,0|0|0|0|0|0|0|0|0|0|0|0|0|0|0|0|4,0:0|0:0|0:0|0:0|0:0|0:0|0:0|0:0|0:0|0:0|0:0|0:0|0:0|0:0|0:0|0:0|0:0,0:0:0:0:
256,192,99836,12,0,103753,0:0:0:0:
