osu file format v14

[General]
AudioFilename: audio.mp3
AudioLeadIn: 0
PreviewTime: 56415
Countdown: 0
SampleSet: Soft
StackLeniency: 0.7
Mode: 0
LetterboxInBreaks: 1
WidescreenStoryboard: 0

[Editor]
DistanceSpacing: 1.5
BeatDivisor: 4
GridSize: 4
TimelineZoom: 1.5

[Metadata]
Title:CaptivAte ~Sabaki~
TitleUnicode:CaptivAte ~裁き~
Artist:DJ YOSHITAKA feat. A/I
ArtistUnicode:DJ YOSHITAKA feat. A/I
Creator:semaphore
Version:Beginner
Source:beatmania IIDX 14 GOLD
Tags:la cataline lc reiji-rj icebeam evilelvis jounzan natteke desu guitarfreaks & drummania v2 video rhythm game japanese electronic NOSTALISH REQUIEM
BeatmapID:3549057
BeatmapSetID:1656289

[Difficulty]
HPDrainRate:3
CircleSize:3
OverallDifficulty:2
ApproachRate:3
SliderMultiplier:0.8
SliderTickRate:1

[Events]
//Background and Video events
0,0,"bg.jpg",0,0
//Break Periods
2,81620,87646
//Storyboard Layer 0 (Background)
//Storyboard Layer 1 (Fail)
//Storyboard Layer 2 (Pass)
//Storyboard Layer 3 (Foreground)
//Storyboard Layer 4 (Overlay)
//Storyboard Sound Samples

[TimingPoints]
1087,333.333333333333,4,2,0,30,1,0
1087,-125,4,2,0,30,0,0
11753,-100,4,1,0,50,0,0
12253,-100,4,2,0,70,0,0
12920,-100,4,1,0,50,0,0
13586,-100,4,2,0,70,0,0
16920,-100,4,1,0,50,0,0
17253,-100,4,2,0,70,0,0
17586,-100,4,1,0,50,0,0
17920,-100,4,2,0,70,0,0
18253,-100,4,1,0,50,0,0
19253,-100,4,2,0,70,0,0
19586,-100,4,1,0,50,0,0
22420,-100,4,1,0,50,0,1
23753,-125,4,1,0,50,0,0
24253,-125,4,2,0,70,0,0
24920,-125,4,1,0,50,0,0
25586,-125,4,2,0,70,0,0
26253,-125,4,1,0,50,0,0
28586,-125,4,2,0,70,0,0
28920,-125,4,1,0,50,0,0
29586,-125,4,2,0,70,0,0
30253,-125,4,1,0,50,0,0
30920,-125,4,2,0,70,0,0
31586,-125,4,1,0,50,0,0
32253,-125,4,2,0,70,0,0
32920,-125,4,1,0,50,0,0
33920,-125,4,2,0,70,0,0
34253,-125,4,1,0,50,0,0
34920,-125,4,2,0,70,0,0
35586,-125,4,1,0,50,0,0
36586,-125,4,2,0,70,0,0
36920,-125,4,1,0,50,0,0
37586,-125,4,2,0,70,0,0
38253,-125,4,1,0,50,0,0
38920,-125,4,2,0,70,0,0
39586,-125,4,1,0,50,0,0
40586,-125,4,2,0,70,0,0
40920,-125,4,1,0,50,0,0
41586,-125,4,2,0,70,0,0
42253,-125,4,1,0,50,0,0
44253,-125,4,2,0,70,0,0
45086,-142.857142857143,4,1,0,30,0,0
45253,-142.857142857143,4,2,0,50,0,0
45586,-142.857142857143,4,1,0,30,0,0
45920,-142.857142857143,4,2,0,50,0,0
46920,-142.857142857143,4,1,0,30,0,0
47920,-142.857142857143,4,2,0,50,0,0
49586,-142.857142857143,4,1,0,30,0,0
49920,-142.857142857143,4,2,0,50,0,0
50253,-142.857142857143,4,1,0,30,0,0
50586,-142.857142857143,4,2,0,50,0,0
50920,-142.857142857143,4,1,0,30,0,0
51253,-142.857142857143,4,2,0,50,0,0
52253,-142.857142857143,4,1,0,30,0,0
53253,-142.857142857143,4,2,0,50,0,0
53586,-142.857142857143,4,1,0,30,0,0
57086,-100,4,1,0,60,0,1
57586,-100,4,2,0,80,0,1
58253,-100,4,1,0,60,0,1
59253,-100,4,2,0,80,0,1
59586,-100,4,1,0,60,0,1
60253,-100,4,2,0,80,0,1
60920,-100,4,1,0,60,0,1
61586,-100,4,2,0,80,0,1
62253,-100,4,1,0,60,0,1
62920,-100,4,2,0,80,0,1
63586,-100,4,1,0,60,0,1
65586,-100,4,2,0,80,0,1
66253,-100,4,1,0,60,0,1
66586,-100,4,2,0,80,0,1
66920,-100,4,1,0,60,0,1
67253,-100,4,2,0,80,0,1
67586,-100,4,1,0,60,0,1
68253,-100,4,2,0,80,0,1
68920,-100,4,1,0,60,0,1
69920,-100,4,2,0,80,0,1
70253,-100,4,1,0,60,0,1
70920,-100,4,2,0,80,0,1
71586,-100,4,1,0,60,0,1
72253,-100,4,2,0,80,0,1
72920,-100,4,1,0,60,0,1
73586,-100,4,2,0,80,0,1
74253,-100,4,1,0,60,0,1
76253,-100,4,2,0,80,0,1
76920,-100,4,1,0,60,0,1
78420,-100,4,1,0,60,0,0
89086,-125,4,1,0,60,0,0
89253,-125,4,2,0,80,0,0
90253,-125,4,1,0,60,0,0
91086,-125,4,2,0,80,0,0
91586,-125,4,1,0,60,0,0
92253,-125,4,2,0,80,0,0
92920,-125,4,1,0,60,0,0
93586,-125,4,2,0,80,0,0
94253,-125,4,1,0,60,0,0
94586,-125,4,2,0,80,0,0
95586,-125,4,1,0,60,0,0
96253,-125,4,2,0,80,0,0
96920,-125,4,1,0,60,0,0
103753,-125,4,2,0,5,0,0

[Colours]
Combo1 : 61,109,209
Combo2 : 193,28,90
Combo3 : 55,169,206
Combo4 : 213,47,142
SliderBorder : 255,255,255

[HitObjects]
448,328,1087,6,0,B|460:276|460:276|456:192,1,128,4|0,0:0|0:0,0:0:0:0:
440,76,2420,1,2,0:0:0:0:
312,92,3086,1,2,0:0:0:0:
320,220,3753,2,0,P|260:224|184:228,1,128,2|0,0:0|0:0,0:0:0:0:
156,244,4753,1,2,0:0:0:0:
32,208,5420,1,0,0:0:0:0:
32,208,5753,2,0,P|24:168|24:140,1,64,2|0,0:0|0:0,0:0:0:0:
32,100,6420,6,0,B|88:96|88:96|152:64,1,128,4|0,0:0|0:0,0:0:0:0:
280,56,7753,1,2,0:0:0:0:
408,48,8420,1,2,0:0:0:0:
492,152,9086,1,2,0:0:0:0:
492,152,9420,2,0,P|500:184|500:280,1,128,0|2,0:0|0:0,0:0:0:0:
484,320,10420,1,6,0:0:0:0:
484,320,11753,6,0,P|412:304|316:320,1,160,4|2,0:0|0:0,0:0:0:0:
236,364,12753,1,8,0:0:0:0:
148,308,13086,2,0,P|136:264|144:152,1,160,0|4,0:0|0:0,0:0:0:0:
272,52,14420,5,0,0:0:0:0:
480,68,15086,1,2,0:0:0:0:
463,275,15753,2,0,P|397:279|296:249,1,160,2|0,0:0|0:0,0:0:0:0:
212,288,16753,1,2,0:0:0:0:
112,264,17086,6,0,L|24:272,1,80,4|8,0:0|0:0,0:0:0:0:
0,172,17753,2,0,L|88:164,1,80,0|8,0:0|0:0,0:0:0:0:
164,104,18420,2,0,P|228:112|328:120,1,160
416,72,19420,1,8,0:0:0:0:
492,140,19753,6,0,B|508:200|508:200|488:312,1,160
356,380,21086,2,0,B|340:320|340:320|360:208,1,160
392,68,22420,1,4,0:0:0:0:
392,68,23753,6,0,L|264:76,1,128,4|2,0:0|0:0,0:0:0:0:
180,32,24753,1,8,0:0:0:0:
104,88,25086,2,0,P|96:136|96:220,2,128,0|4|4,0:0|0:0|0:0,0:0:0:0:
268,104,27086,1,0,0:0:0:0:
244,268,27753,1,0,0:0:0:0:
80,248,28420,2,0,P|76:272|76:312,1,64,0|8,0:0|0:0,0:0:0:0:
144,380,29086,6,0,P|200:368|276:372,1,128,4|0,0:0|0:0,0:0:0:0:
364,344,30086,1,8,0:0:0:0:
456,368,30420,2,0,B|472:320|472:320|464:232,1,128,0|4,0:0|0:0,0:0:0:0:
320,120,31753,6,0,L|328:248,1,128,0|2,0:0|0:0,0:0:0:0:
240,284,32753,1,8,0:0:0:0:
152,248,33086,2,0,P|100:256|20:248,1,128
20,152,34086,1,8,0:0:0:0:
12,56,34420,6,0,P|76:48|140:52,1,128,4|2,0:0|0:0,0:0:0:0:
264,164,35753,2,0,P|328:172|392:168,1,128
480,128,36753,1,8,0:0:0:0:
472,32,37086,6,0,B|420:28|420:28|344:28,1,128,0|2,0:0|0:0,0:0:0:0:
240,160,38420,2,0,P|248:220|228:292,1,128,0|4,0:0|0:0,0:0:0:0:
164,352,39420,1,8,0:0:0:0:
68,364,39753,6,0,P|48:312|52:168,1,192,4|8,0:0|0:0,0:0:0:0:
52,80,41086,2,0,L|184:72,1,128,0|2,0:0|0:0,0:0:0:0:
244,144,42086,1,8,0:0:0:0:
204,232,42420,2,0,B|200:288|200:288|212:360|212:360,1,128
360,284,43753,2,0,B|364:228|364:228|352:156|352:156,1,128,0|2,0:0|0:0,0:0:0:0:
384,64,44753,1,8,0:0:0:0:
480,100,45086,6,0,L|496:220,1,111.999996582031,4|0,0:0|0:0,0:0:0:0:
356,252,46420,1,2,0:0:0:0:
212,220,47086,1,0,0:0:0:0:
68,248,47753,6,0,L|56:76,1,167.999994873047,0|4,0:0|0:0,0:0:0:0:
188,20,49420,1,2,0:0:0:0:
188,20,49753,2,0,L|196:80,1,55.9999982910157,0|8,0:0|0:0,0:0:0:0:
200,116,50420,6,0,P|244:108|320:112,1,111.999996582031,4|0,0:0|0:0,0:0:0:0:
456,128,51753,1,2,0:0:0:0:
440,272,52420,1,0,0:0:0:0:
296,260,53086,2,0,P|256:264|180:272,1,111.999996582031
256,192,54086,12,4,55753,0:0:0:0:
16,284,57086,6,0,B|-4:228|-4:228|4:112,1,160,4|2,0:0|0:0,0:0:0:0:
84,64,58086,1,8,0:0:0:0:
172,120,58420,2,0,L|300:128,2,120,0|0|8,0:0|0:0|0:0,0:0:0:0:
96,192,59753,6,0,P|84:264|108:356,1,160,0|2,0:0|0:0,0:0:0:0:
208,332,60753,1,8,0:0:0:0:
308,364,61086,2,0,L|480:356,1,160,0|4,0:0|0:0,0:0:0:0:
492,196,62420,6,0,B|508:140|508:140|488:24,1,160,4|2,0:0|0:0,0:0:0:0:
392,8,63420,1,8,0:0:0:0:
356,104,63753,2,0,B|340:160|340:160|360:276,1,160,0|4,0:0|0:0,0:0:0:0:
224,348,65086,6,0,L|56:340,1,160,4|2,0:0|0:0,0:0:0:0:
20,248,66086,1,8,0:0:0:0:
92,172,66420,2,0,L|84:80,2,80,0|8|0,0:0|0:0|0:0,0:0:0:0:
180,228,67420,1,8,0:0:0:0:
168,332,67753,6,0,L|336:340,1,160,4|2,0:0|0:0,0:0:0:0:
428,364,68753,1,8,0:0:0:0:
480,276,69086,2,0,B|496:232|496:232|488:148,2,120,0|0|8,0:0|0:0|0:0,0:0:0:0:
380,252,70420,6,0,P|368:184|388:80,1,160,4|2,0:0|0:0,0:0:0:0:
316,12,71420,1,8,0:0:0:0:
220,48,71753,2,0,L|56:56,1,160,0|4,0:0|0:0,0:0:0:0:
24,212,73086,6,0,B|12:276|12:276|28:372,1,160,4|2,0:0|0:0,0:0:0:0:
128,344,74086,1,8,0:0:0:0:
152,244,74420,2,0,B|164:180|164:180|148:84,1,160,0|4,0:0|0:0,0:0:0:0:
284,0,75753,6,0,L|312:164,1,160,4|0,0:0|0:0,0:0:0:0:
376,236,76753,1,8,0:0:0:0:
332,332,77086,2,0,P|272:376|180:368,2,160,4|4|4,0:0|0:0|0:0,0:0:0:0:
256,192,78753,12,4,81420,0:0:0:0:
488,72,89086,6,0,B|484:140|484:140|464:188|464:188|460:260,1,192,4|8,0:0|0:0,0:0:0:0:
388,320,90420,2,0,P|340:340|288:336,2,96,0|0|8,0:0|0:0|0:0,0:0:0:0:
372,224,91753,2,0,B|380:160|380:160|372:88,1,128,4|2,0:0|0:0,0:0:0:0:
292,44,92753,1,8,0:0:0:0:
224,112,93086,2,0,P|164:120|88:116,1,128,0|4,0:0|0:0,0:0:0:0:
4,256,94420,6,0,P|56:244|188:304,1,192,4|8,0:0|0:0,0:0:0:0:
256,356,95753,2,0,B|316:380|316:380|388:372,1,128,0|2,0:0|0:0,0:0:0:0:
460,320,96753,1,8,0:0:0:0:
428,232,97086,6,0,B|444:188|444:188|432:100,1,128,4|4,0:0|0:0,0:0:0:0:
296,16,98420,2,0,B|280:60|280:60|292:148,1,128,4|4,0:0|0:0,0:0:0:0:
196,280,99753,1,4,0:0:0:0:
256,192,100086,12,4,103753,0:0:0:0:
