osu file format v14

[General]
AudioFilename: audio.mp3
AudioLeadIn: 0
PreviewTime: 56415
Countdown: 0
SampleSet: Soft
StackLeniency: 0.7
Mode: 0
LetterboxInBreaks: 1
WidescreenStoryboard: 1

[Editor]
DistanceSpacing: 1.5
BeatDivisor: 4
GridSize: 8
TimelineZoom: 2.999999

[Metadata]
Title:CaptivAte ~Sabaki~
TitleUnicode:CaptivAte ~裁き~
Artist:DJ YOSHITAKA feat. A/I
ArtistUnicode:DJ YOSHITAKA feat. A/I
Creator:semaphore
Version:Advanced
Source:beatmania IIDX 14 GOLD
Tags:la cataline lc reiji-rj icebeam evilelvis jounzan natteke desu guitarfreaks & drummania v2 video rhythm game japanese electronic NOSTALISH REQUIEM
BeatmapID:3574068
BeatmapSetID:1656289

[Difficulty]
HPDrainRate:4
CircleSize:3.7
OverallDifficulty:6
ApproachRate:8
SliderMultiplier:1.3
SliderTickRate:1

[Events]
//Background and Video events
0,0,"bg.jpg",0,0
//Break Periods
2,81620,88336
//Storyboard Layer 0 (Background)
//Storyboard Layer 1 (Fail)
//Storyboard Layer 2 (Pass)
//Storyboard Layer 3 (Foreground)
//Storyboard Layer 4 (Overlay)
//Storyboard Sound Samples

[TimingPoints]
1087,333.333333333333,4,2,0,30,1,0
1087,-200,4,2,0,30,0,0
11753,-133.333333333333,4,1,0,50,0,0
11836,-133.333333333333,4,2,0,70,0,0
12170,-133.333333333333,4,1,0,50,0,0
13503,-133.333333333333,4,2,0,70,0,0
17003,-133.333333333333,4,1,0,50,0,0
17170,-133.333333333333,4,2,0,70,0,0
17503,-133.333333333333,4,1,0,50,0,0
18670,-133.333333333333,4,2,0,60,0,0
21086,-133.333333333333,4,2,0,30,0,0
21420,-133.333333333333,4,2,0,50,0,0
22420,-133.333333333333,4,2,0,70,0,1
23753,-111.111111111111,4,1,0,50,0,0
23836,-111.111111111111,4,2,0,70,0,0
24503,-111.111111111111,4,1,0,50,0,0
24670,-111.111111111111,4,2,0,70,0,0
24836,-111.111111111111,4,1,0,50,0,0
25170,-111.111111111111,4,2,0,70,0,0
25503,-111.111111111111,4,1,0,50,0,0
25670,-111.111111111111,4,2,0,70,0,0
26170,-111.111111111111,4,1,0,50,0,0
26503,-111.111111111111,4,2,0,70,0,0
27503,-111.111111111111,4,1,0,50,0,0
27836,-111.111111111111,4,2,0,70,0,0
28170,-111.111111111111,4,1,0,50,0,0
29170,-111.111111111111,4,2,0,70,0,0
29836,-111.111111111111,4,1,0,50,0,0
30503,-111.111111111111,4,2,0,70,0,0
30836,-111.111111111111,4,1,0,50,0,0
31003,-111.111111111111,4,2,0,70,0,0
31170,-111.111111111111,4,1,0,50,0,0
31336,-111.111111111111,4,2,0,70,0,0
31670,-111.111111111111,4,1,0,50,0,0
31836,-111.111111111111,4,2,0,70,0,0
32336,-111.111111111111,4,1,0,50,0,0
32503,-111.111111111111,4,2,0,70,0,0
32836,-111.111111111111,4,1,0,50,0,0
33170,-111.111111111111,4,2,0,70,0,0
33503,-111.111111111111,4,1,0,50,0,0
34503,-111.111111111111,4,2,0,70,0,0
35170,-111.111111111111,4,1,0,50,0,0
35836,-111.111111111111,4,2,0,70,0,0
36170,-111.111111111111,4,1,0,50,0,0
36670,-111.111111111111,4,2,0,70,0,0
37003,-111.111111111111,4,1,0,50,0,0
37170,-111.111111111111,4,2,0,70,0,0
38170,-111.111111111111,4,1,0,50,0,0
38503,-111.111111111111,4,2,0,70,0,0
38836,-111.111111111111,4,1,0,50,0,0
39003,-111.111111111111,4,2,0,70,0,0
39170,-111.111111111111,4,1,0,50,0,0
39836,-111.111111111111,4,2,0,70,0,0
40503,-111.111111111111,4,1,0,50,0,0
40753,-111.111111111111,4,2,0,70,0,0
40836,-111.111111111111,4,1,0,50,0,0
41170,-111.111111111111,4,2,0,70,0,0
41503,-111.111111111111,4,1,0,50,0,0
41670,-111.111111111111,4,2,0,70,0,0
42170,-111.111111111111,4,1,0,50,0,0
42503,-111.111111111111,4,2,0,70,0,0
43003,-111.111111111111,4,1,0,50,0,0
43170,-111.111111111111,4,2,0,70,0,0
43503,-111.111111111111,4,1,0,50,0,0
43836,-111.111111111111,4,2,0,70,0,0
44170,-111.111111111111,4,1,0,50,0,0
45086,-200,4,1,0,30,0,0
45170,-200,4,2,0,50,0,0
45503,-200,4,1,0,30,0,0
45836,-200,4,2,0,50,0,0
47003,-200,4,1,0,30,0,0
47836,-200,4,2,0,50,0,0
48336,-200,4,1,0,30,0,0
48503,-200,4,2,0,50,0,0
49670,-200,4,1,0,30,0,0
49836,-200,4,2,0,50,0,0
50336,-200,4,1,0,30,0,0
50503,-200,4,2,0,50,0,0
52336,-200,4,1,0,30,0,0
52503,-200,4,2,0,50,0,0
53003,-200,4,1,0,30,0,0
53170,-200,4,2,0,50,0,0
54503,-200,4,1,0,30,0,0
54670,-200,4,2,0,50,0,0
55003,-200,4,1,0,50,0,0
57086,-100,4,1,0,60,0,1
57170,-100,4,2,0,80,0,1
57836,-100,4,1,0,60,0,1
58003,-100,4,2,0,80,0,1
58336,-100,4,1,0,60,0,1
58503,-100,4,2,0,80,0,1
58836,-100,4,1,0,60,0,1
59003,-100,4,2,0,80,0,1
59170,-100,4,1,0,60,0,1
59336,-100,4,2,0,80,0,1
59670,-100,4,1,0,60,0,1
59836,-100,4,2,0,80,0,1
60503,-100,4,1,0,60,0,1
60670,-100,4,2,0,80,0,1
60836,-100,4,1,0,60,0,1
61170,-100,4,2,0,80,0,1
61503,-100,4,1,0,60,0,1
62003,-100,4,2,0,80,0,1
62170,-100,4,1,0,60,0,1
62503,-100,4,2,0,80,0,1
63170,-100,4,1,0,60,0,1
63670,-100,4,2,0,80,0,1
64170,-100,4,1,0,60,0,1
64670,-100,4,2,0,80,0,1
65003,-100,4,1,0,60,0,1
65170,-100,4,2,0,80,0,1
65836,-100,4,1,0,60,0,1
66003,-100,4,2,0,80,0,1
66170,-100,4,1,0,60,0,1
66420,-133.333333333333,4,1,0,60,0,1
66503,-133.333333333333,4,2,0,80,0,1
66836,-133.333333333333,4,1,0,60,0,1
67170,-133.333333333333,4,2,0,80,0,1
67503,-133.333333333333,4,1,0,60,0,1
67753,-100,4,1,0,60,0,1
67836,-100,4,2,0,80,0,1
68503,-100,4,1,0,60,0,1
69170,-100,4,2,0,80,0,1
69503,-100,4,1,0,60,0,1
70003,-100,4,2,0,80,0,1
70336,-100,4,1,0,60,0,1
70503,-100,4,2,0,80,0,1
70836,-100,4,1,0,60,0,1
71003,-100,4,2,0,80,0,1
71170,-100,4,1,0,60,0,1
71336,-100,4,2,0,80,0,1
71503,-100,4,1,0,60,0,1
71836,-100,4,2,0,80,0,1
72170,-100,4,1,0,60,0,1
73170,-100,4,2,0,80,0,1
73836,-100,4,1,0,60,0,1
74503,-100,4,2,0,80,0,1
74836,-100,4,1,0,60,0,1
75336,-100,4,2,0,80,0,1
75503,-100,4,1,0,60,0,1
75836,-100,4,2,0,80,0,1
76503,-100,4,1,0,60,0,1
76670,-100,4,2,0,80,0,1
76836,-100,4,1,0,60,0,1
77086,-133.333333333333,4,1,0,60,0,1
77170,-133.333333333333,4,2,0,80,0,1
77503,-133.333333333333,4,1,0,60,0,1
77836,-133.333333333333,4,2,0,80,0,1
78170,-133.333333333333,4,1,0,60,0,1
78420,-133.333333333333,4,1,0,80,0,0
89086,-111.111111111111,4,1,0,60,0,0
89170,-111.111111111111,4,2,0,80,0,0
89836,-111.111111111111,4,1,0,60,0,0
90503,-111.111111111111,4,2,0,80,0,0
90836,-111.111111111111,4,1,0,60,0,0
91836,-111.111111111111,4,2,0,80,0,0
92336,-111.111111111111,4,1,0,60,0,0
92503,-111.111111111111,4,2,0,80,0,0
93003,-111.111111111111,4,1,0,60,0,0
93170,-111.111111111111,4,2,0,80,0,0
93836,-111.111111111111,4,1,0,60,0,0
94003,-111.111111111111,4,2,0,80,0,0
94170,-111.111111111111,4,1,0,60,0,0
94503,-111.111111111111,4,2,0,80,0,0
95003,-111.111111111111,4,1,0,60,0,0
95336,-111.111111111111,4,2,0,60,0,0
95586,-111.111111111111,4,1,0,60,0,0
95836,-111.111111111111,4,2,0,80,0,0
96253,-111.111111111111,4,1,0,60,0,0
96503,-111.111111111111,4,2,0,80,0,0
97003,-111.111111111111,4,1,0,70,0,0
103753,-111.111111111111,4,2,0,5,0,0

[Colours]
Combo1 : 61,109,209
Combo2 : 193,28,90
Combo3 : 55,169,206
Combo4 : 213,47,142
SliderBorder : 255,255,255

[HitObjects]
64,320,1087,6,0,L|56:184,1,130,4|0,0:0|0:0,0:0:0:0:
152,160,2086,1,2,0:0:0:0:
248,176,2420,1,2,0:0:0:0:
248,176,3086,2,0,B|280:184|320:184|320:184,1,65,2|0,0:0|0:0,0:0:0:0:
432,104,3753,6,0,L|417:233,1,130,2|0,0:0|0:0,0:0:0:0:
336,288,4753,1,2,0:0:0:0:
336,288,5420,1,2,0:0:0:0:
264,224,5753,1,2,0:0:0:0:
176,264,6086,1,0,0:0:0:0:
64,168,6420,6,0,B|120:120|200:152|200:152,1,130,6|0,0:0|0:0,0:0:0:0:
264,88,7420,1,2,0:0:0:0:
387,67,7753,2,0,B|331:115|251:83|251:83,1,130,2|0,0:0|0:0,0:0:0:0:
40,208,9086,5,2,0:0:0:0:
136,240,9420,2,0,B|136:304|144:376|144:376,1,130,2|2,0:0|0:0,0:0:0:0:
240,336,10420,1,6,0:0:0:0:
432,352,11753,6,0,B|456:312|456:248|456:248,1,97.50000371933,4|2,0:0|0:0,0:0:0:0:
456,232,12253,1,0,0:0:0:0:
384,128,12586,1,0,0:0:0:0:
360,264,12920,1,0,0:0:0:0:
288,160,13253,1,0,0:0:0:0:
288,160,13420,2,0,B|216:184|128:168|128:168,1,146.250005578995,0|2,0:0|0:0,0:0:0:0:
80,96,14086,2,0,B|104:80|144:80|144:80,1,48.750001859665,2|0,0:0|0:0,0:0:0:0:
72,216,14420,1,4,0:0:0:0:
72,216,15086,2,0,B|48:328|144:384|144:384,2,195.00000743866,2|2|2,0:0|0:0|0:0,0:0:0:0:
168,248,16586,2,0,B|184:192|240:176|240:176,1,97.50000371933
320,112,17086,6,0,B|352:152|336:216|336:216,1,97.50000371933
328,232,17586,1,0,0:0:0:0:
224,104,17920,1,0,0:0:0:0:
392,72,18253,1,0,0:0:0:0:
328,232,18586,1,0,0:0:0:0:
328,232,18753,2,0,B|400:208|480:224|480:224,1,146.250005578995,8|8,0:0|0:0,0:0:0:0:
496,320,19420,2,0,L|504:360,2,24.3750009298325,8|8|8,0:0|0:0|0:0,0:0:0:0:
376,352,19753,6,8,L|384:320,7,24.3750009298325
272,312,20420,2,8,L|280:344,7,24.3750009298325
168,312,21086,6,8,L|176:296,28,12.1875004649162
72,280,22420,1,4,0:0:0:0:
56,264,23753,6,0,B|16:208|40:152|40:152,1,116.999996429443,4|8,0:0|0:0,0:0:0:0:
112,88,24253,2,0,L|56:64,1,58.4999982147217,2|0,0:0|0:0,0:0:0:0:
144,8,24586,2,0,L|200:32,1,58.4999982147217,0|8,0:0|0:0,0:0:0:0:
200,128,24920,1,0,0:0:0:0:
200,128,25086,2,0,B|176:176|168:248|168:248,1,116.999996429443,0|8,0:0|0:0,0:0:0:0:
168,240,25586,2,0,B|208:304|280:296|280:296,2,116.999996429443,0|4|0,0:0|0:0|0:0,0:0:0:0:
264,192,26420,6,0,B|320:160|384:184|384:184,1,116.999996429443,0|8,0:0|0:0,0:0:0:0:
377,181,26920,1,0,0:0:0:0:
505,77,27086,2,0,B|449:109|385:85|385:85,1,116.999996429443,2|8,0:0|0:0,0:0:0:0:
296,48,27586,1,0,0:0:0:0:
200,80,27753,6,0,L|280:64,1,58.4999982147217
312,152,28086,1,8,0:0:0:0:
408,184,28253,1,0,0:0:0:0:
448,352,28586,2,0,L|520:360,2,58.4999982147217
376,288,29086,6,0,B|320:336|240:312|240:312,1,116.999996429443,0|8,0:0|0:0,0:0:0:0:
296,224,29586,2,0,B|224:216|184:264|184:264,2,116.999996429443,2|0|0,0:0|0:0|0:0,0:0:0:0:
384,192,30420,2,0,B|432:144|416:80|416:80,1,116.999996429443,0|8,0:0|0:0,0:0:0:0:
488,40,30920,2,0,B|464:8|432:0|432:0,1,58.4999982147217
328,64,31253,2,0,B|325:98|344:139|344:139,2,58.4999982147217,0|8|2,0:0|0:0|0:0,0:0:0:0:
216,24,31753,6,0,L|120:32,2,87.7499973220826,0|2|2,0:0|0:0|0:0,0:0:0:0:
288,96,32420,2,0,L|384:88,2,87.7499973220826,0|2|0,0:0|0:0|0:0,0:0:0:0:
200,112,33086,1,0,0:0:0:0:
136,184,33253,2,0,B|72:168|16:200|16:200,1,116.999996429443,4|0,0:0|0:0,0:0:0:0:
96,264,33753,2,0,L|168:280,1,58.4999982147217
120,96,34086,2,0,L|48:112,1,58.4999982147217
136,184,34420,6,0,L|264:192,1,116.999996429443,4|8,0:0|0:0,0:0:0:0:
256,288,34920,2,0,L|336:296,1,58.4999982147217,2|0,0:0|0:0,0:0:0:0:
360,208,35253,2,0,B|384:144|376:80|376:80,1,116.999996429443
408,8,35753,2,0,L|344:0,1,58.4999982147217
280,80,36086,1,8,0:0:0:0:
280,80,36253,2,0,B|240:136|168:128|168:128,1,116.999996429443
112,64,36753,1,8,0:0:0:0:
200,32,36920,1,2,0:0:0:0:
178,128,37086,6,0,B|194:192|154:248|154:248,1,116.999996429443,0|8,0:0|0:0,0:0:0:0:
334,256,37753,2,0,B|318:192|358:136|358:136,1,116.999996429443,4|8,0:0|0:0,0:0:0:0:
424,216,38253,1,0,0:0:0:0:
424,216,38420,2,0,B|440:280|400:336|400:336,1,116.999996429443,0|8,0:0|0:0,0:0:0:0:
304,336,38920,2,0,L|232:336,1,58.4999982147217
248,240,39253,2,0,L|176:248,2,58.4999982147217
192,152,39753,6,0,L|56:176,1,116.999996429443,4|8,0:0|0:0,0:0:0:0:
0,120,40253,2,0,B|16:56|80:40|80:40,1,116.999996429443,2|0,0:0|0:0,0:0:0:0:
78,40,40670,1,0,0:0:0:0:
78,40,40753,2,0,L|150:48,1,58.4999982147217,8|0,0:0|0:0,0:0:0:0:
208,112,41086,2,0,B|248:168|320:152|320:152,1,116.999996429443,0|8,0:0|0:0,0:0:0:0:
408,24,41586,2,0,B|360:16|320:40|320:40,1,87.7499973220826
328,64,41920,2,0,L|336:128,1,58.4999982147217,4|8,0:0|0:0,0:0:0:0:
440,144,42253,1,0,0:0:0:0:
472,240,42420,6,0,L|480:336,2,87.7499973220826,0|2|2,0:0|0:0|0:0,0:0:0:0:
440,144,43086,2,0,L|448:48,2,87.7499973220826,0|2|0,0:0|0:0|0:0,0:0:0:0:
376,224,43753,1,0,0:0:0:0:
376,224,43920,2,0,B|320:216|256:240|256:240,1,116.999996429443,4|0,0:0|0:0,0:0:0:0:
208,144,44420,2,0,B|200:184|176:208|176:208,1,58.4999982147217
192,304,44753,2,0,B|176:280|144:272|144:272,1,58.4999982147217
56,208,45086,6,0,L|64:136,1,65,4|8,0:0|0:0,0:0:0:0:
96,112,45586,1,0,0:0:0:0:
120,80,45753,2,0,L|112:8,2,65,0|8|8,0:0|0:0|0:0,0:0:0:0:
360,56,47086,1,0,0:0:0:0:
504,272,47753,5,0,0:0:0:0:
504,272,48086,2,0,B|472:272|432:288|432:288,1,65,8|0,0:0|0:0,0:0:0:0:
376,360,48753,1,8,0:0:0:0:
248,208,49420,1,8,0:0:0:0:
248,208,49753,2,0,B|256:168|256:136|256:136,1,65,0|8,0:0|0:0,0:0:0:0:
160,168,50420,6,0,B|96:248|144:328|144:328,1,162.5,4|8,0:0|0:0,0:0:0:0:
160,344,51420,1,8,0:0:0:0:
264,320,51753,2,0,L|400:328,2,130,8|0|0,0:0|0:0|0:0,0:0:0:0:
232,232,53420,2,0,B|224:168|248:104|248:104,1,130,8|8,0:0|0:0,0:0:0:0:
144,32,54420,2,0,L|152:72,1,32.5,8|0,0:0|0:0,0:0:0:0:
64,120,54753,2,0,L|72:80,1,32.5,0|8,0:0|0:0,0:0:0:0:
8,32,55086,1,0,0:0:0:0:
248,104,55420,1,0,0:0:0:0:
344,112,55586,1,0,0:0:0:0:
440,120,55753,1,4,0:0:0:0:
216,240,57086,6,0,L|80:248,1,130,4|8,0:0|0:0,0:0:0:0:
48,152,57586,2,0,B|80:88|56:16|56:16,1,130,4|0,0:0|0:0,0:0:0:0:
58,25,58086,1,8,0:0:0:0:
152,176,58420,2,0,B|120:240|144:312|144:312,1,130,0|8,0:0|0:0,0:0:0:0:
141,303,58920,2,0,L|216:312,1,65
296,248,59253,2,0,L|440:240,1,130,4|0,0:0|0:0,0:0:0:0:
496,160,59753,5,4,0:0:0:0:
416,88,59920,1,0,0:0:0:0:
344,168,60086,1,8,0:0:0:0:
425,240,60253,2,0,B|457:256|497:256|497:256,1,65,4|0,0:0|0:0,0:0:0:0:
496,160,60586,2,0,B|464:144|424:144|424:144,1,65,4|8,0:0|0:0,0:0:0:0:
328,64,60920,1,0,0:0:0:0:
264,144,61086,2,0,B|208:192|136:176|136:176,1,130,4|8,0:0|0:0,0:0:0:0:
48,112,61586,2,0,B|104:64|176:80|176:80,1,130,0|4,0:0|0:0,0:0:0:0:
224,0,62086,2,0,B|264:24|272:48|272:48,1,65,8|4,0:0|0:0,0:0:0:0:
352,112,62420,6,0,B|344:176|360:272|360:272,1,130,4|8,0:0|0:0,0:0:0:0:
368,352,62920,2,0,L|280:360,1,65,4|0,0:0|0:0,0:0:0:0:
264,256,63253,2,0,L|120:264,2,130,0|0|2,0:0|0:0|0:0,0:0:0:0:
355,241,64086,1,8,0:0:0:0:
288,160,64253,1,0,0:0:0:0:
208,0,64586,1,0,0:0:0:0:
120,32,64753,2,0,L|104:104,1,65,8|2,0:0|0:0,0:0:0:0:
16,136,65086,6,0,B|64:200|144:184|144:184,1,130,4|8,0:0|0:0,0:0:0:0:
160,296,65586,2,0,B|168:264|200:240|200:240,1,65,4|0,0:0|0:0,0:0:0:0:
240,160,65920,2,0,B|208:144|192:112|192:112,2,65,0|4|0,0:0|0:0|0:0,0:0:0:0:
344,224,66420,6,0,L|416:232,2,73.1250027894975,4|2|0,0:0|0:0|0:0,0:0:0:0:
256,280,67086,2,0,L|184:272,2,73.1250027894975,4|2|0,0:0|0:0|0:0,0:0:0:0:
336,344,67753,6,0,L|480:336,1,130,4|8,0:0|0:0,0:0:0:0:
456,232,68253,2,0,B|432:160|472:104|472:104,2,130,4|0|0,0:0|0:0|0:0,0:0:0:0:
352,216,69086,2,0,B|320:200|280:200|280:200,1,65
176,64,69420,1,8,0:0:0:0:
224,136,69586,2,0,B|168:168|88:160|88:160,1,130,0|4,0:0|0:0,0:0:0:0:
24,272,70086,2,0,B|56:256|96:256|96:256,1,65,8|0,0:0|0:0,0:0:0:0:
192,240,70420,6,0,B|168:328|240:376|240:376,1,130,0|8,0:0|0:0,0:0:0:0:
336,304,70920,2,0,B|304:280|256:280|256:280,1,65
96,344,71253,2,0,B|136:344|160:304|160:304,1,65,4|8,0:0|0:0,0:0:0:0:
192,240,71586,1,0,0:0:0:0:
280,192,71753,6,0,L|416:184,1,130,4|8,0:0|0:0,0:0:0:0:
376,80,72253,1,0,0:0:0:0:
376,80,72420,2,0,L|296:72,2,65,0|4|0,0:0|0:0|0:0,0:0:0:0:
472,128,72920,1,0,0:0:0:0:
472,128,73086,6,0,B|504:192|488:264|488:264,1,130,4|8,0:0|0:0,0:0:0:0:
424,336,73586,2,0,L|280:344,2,130,2|4|0,0:0|0:0|0:0,0:0:0:0:
440,240,74420,2,0,L|456:160,1,65,4|0,0:0|0:0,0:0:0:0:
360,128,74753,1,8,0:0:0:0:
360,128,74920,2,0,L|328:280,1,130
240,280,75420,2,0,B|208:304|168:296|168:296,1,65,12|0,0:0|0:0,0:0:0:0:
64,240,75753,6,0,B|112:192|184:208|184:208,1,130,4|8,0:0|0:0,0:0:0:0:
184,112,76253,2,0,B|248:80|248:0|248:0,1,130,4|0,0:0|0:0,0:0:0:0:
144,16,76753,2,0,B|112:32|104:72|104:72,1,65,8|0,0:0|0:0,0:0:0:0:
192,128,77086,6,0,L|280:144,2,73.1250027894975,4|0|0,0:0|0:0|0:0,0:0:0:0:
120,208,77753,2,0,L|32:192,2,73.1250027894975,4|0|0,0:0|0:0|0:0,0:0:0:0:
200,264,78420,1,4,0:0:0:0:
256,192,78503,12,4,81420,0:0:0:0:
256,88,89086,6,0,B|320:72|376:104|376:104,1,116.999996429443,4|8,0:0|0:0,0:0:0:0:
304,176,89586,2,0,B|240:192|184:160|184:160,1,116.999996429443,4|4,0:0|0:0,0:0:0:0:
6,220,90253,1,0,0:0:0:0:
94,188,90420,2,0,B|102:244|102:268|102:268,1,58.4999982147217,4|0,0:0|0:0,0:0:0:0:
190,164,90753,1,8,0:0:0:0:
190,164,90920,2,0,B|198:220|198:308|198:308,2,116.999996429443,4|0|0,0:0|0:0|0:0,0:0:0:0:
176,48,91753,6,0,B|240:128|336:80|336:80,1,175.499994644165,4|0,0:0|0:0,0:0:0:0:
456,32,92420,2,0,B|416:-8|360:0|360:0,2,87.7499973220826,0|2|2,0:0|0:0|0:0,0:0:0:0:
416,120,93086,1,4,0:0:0:0:
416,120,93253,2,0,B|400:176|408:256|408:256,1,116.999996429443,4|0,0:0|0:0,0:0:0:0:
336,304,93753,1,2,0:0:0:0:
304,208,93920,2,0,L|296:128,2,58.4999982147217,0|8|0,0:0|0:0|0:0,0:0:0:0:
336,304,94420,6,0,B|240:272|168:336|168:336,1,175.499994644165,4|0,0:0|0:0,0:0:0:0:
72,320,95086,2,0,L|64:256,1,58.4999982147217,0|4,0:0|0:0,0:0:0:0:
112,144,95420,2,0,L|104:192,2,29.2499991073609,8|8|0,0:0|0:0|0:0,0:0:0:0:
256,192,95753,6,0,B|280:208|320:216|320:216,1,58.4999982147217,4|2,0:0|0:0,0:0:0:0:
368,296,96086,2,0,L|376:336,2,29.2499991073609,8|8|0,0:0|0:0|0:0,0:0:0:0:
464,280,96420,2,0,B|480:248|488:208|488:208,1,58.4999982147217,0|2,0:0|0:0,0:0:0:0:
448,136,96753,2,8,L|416:152,2,29.2499991073609
312,64,97086,6,0,L|384:72,1,58.4999982147217,2|0,0:0|0:0,0:0:0:0:
320,160,97420,2,0,L|248:168,1,58.4999982147217,2|0,0:0|0:0,0:0:0:0:
168,48,97753,2,0,L|184:112,1,58.4999982147217,2|0,0:0|0:0,0:0:0:0:
136,192,98086,2,0,B|112:208|64:208|64:208,1,58.4999982147217,2|0,0:0|0:0,0:0:0:0:
48,320,98420,2,0,B|72:304|120:304|120:304,1,58.4999982147217,2|0,0:0|0:0,0:0:0:0:
256,288,98753,2,0,B|224:272|176:264|176:264,1,58.4999982147217,2|0,0:0|0:0,0:0:0:0:
344,328,99086,1,2,0:0:0:0:
368,320,99170,1,2,0:0:0:0:
392,312,99253,1,2,0:0:0:0:
488,288,99420,2,0,B|504:232|504:160|504:160,1,116.999996429443,2|4,0:0|0:0,0:0:0:0:
256,192,99836,12,4,103753,0:0:0:0:
