osu file format v14

[General]
AudioFilename: SHION.mp3
AudioLeadIn: 0
PreviewTime: 43696
Countdown: 0
SampleSet: Soft
StackLeniency: 0.7
Mode: 3
LetterboxInBreaks: 0
SpecialStyle: 0
WidescreenStoryboard: 0

[Editor]
Bookmarks: 50231,87689
DistanceSpacing: 1.3
BeatDivisor: 4
GridSize: 4
TimelineZoom: 1.1

[Metadata]
Title:SHION
TitleUnicode:SHION
Artist:DJ YOSHITAKA
ArtistUnicode:DJ YOSHITAKA
Creator:YaHao
Version:KK's Easy
Source:pop'n music 19 TUNE STREET
Tags:Kuo Kyoka jubeat fulfill saucer wac NANAKO HI-SPEED FANTASY ハイスピード幻想チューン beatmania IIDX REFLEC BEAT
BeatmapID:805026
BeatmapSetID:345306

[Difficulty]
HPDrainRate:6
CircleSize:4
OverallDifficulty:7
ApproachRate:5
SliderMultiplier:1.4
SliderTickRate:1

[Events]
//Background and Video events
0,0,"SHIONBG.jpg",0,0
//Break Periods
//Storyboard Layer 0 (Background)
//Storyboard Layer 1 (Fail)
//Storyboard Layer 2 (Pass)
//Storyboard Layer 3 (Foreground)
//Storyboard Sound Samples

[TimingPoints]
1629,335.195530726257,4,2,1,30,1,0
12355,-100,4,2,1,30,0,1
12522,335.195530726257,4,2,1,30,1,1
22410,-100,4,2,1,30,0,0
44533,-100,4,2,1,30,0,1
65985,-100,4,2,1,30,0,0

[HitObjects]
448,192,1629,5,2,0:0:0:0:
64,192,1629,1,0,0:0:0:0:
64,192,1964,128,0,2969:0:0:0:0:
448,192,2969,1,0,0:0:0:0:
192,192,3304,128,0,4310:0:0:0:0:
448,192,4310,1,0,0:0:0:0:
320,192,4645,128,0,5651:0:0:0:0:
64,192,5651,1,0,0:0:0:0:
448,192,5986,128,0,6992:0:0:0:0:
320,192,6656,128,0,6992:0:0:0:0:
64,192,6992,1,4,0:0:0:0:
448,192,7327,1,0,0:0:0:0:
64,192,7662,1,0,0:0:0:0:
448,192,7997,1,0,0:0:0:0:
64,192,8332,1,2,0:0:0:0:
448,192,8668,1,0,0:0:0:0:
64,192,9003,1,0,0:0:0:0:
448,192,9338,1,0,0:0:0:0:
64,192,9673,128,2,11182:0:0:0:0:
448,192,10511,128,2,11684:0:0:0:0:
320,192,11182,128,2,11684:0:0:0:0:
64,192,11684,1,2,0:0:0:0:
64,192,12187,1,2,0:0:0:0:
320,192,12355,1,2,0:0:0:0:
448,192,12355,1,0,0:0:0:0:
192,192,12857,1,2,0:0:0:0:
320,192,13192,1,2,0:0:0:0:
448,192,13527,1,2,0:0:0:0:
192,192,13862,1,2,0:0:0:0:
320,192,14197,1,2,0:0:0:0:
64,192,14533,1,2,0:0:0:0:
192,192,14868,1,2,0:0:0:0:
320,192,15203,1,2,0:0:0:0:
192,192,15538,1,2,0:0:0:0:
64,192,15873,1,2,0:0:0:0:
448,192,16209,1,2,0:0:0:0:
192,192,16544,1,2,0:0:0:0:
320,192,16879,1,2,0:0:0:0:
64,192,17214,1,2,0:0:0:0:
448,192,17549,1,2,0:0:0:0:
64,192,17885,1,4,0:0:0:0:
320,192,18220,1,2,0:0:0:0:
64,192,18555,1,2,0:0:0:0:
192,192,18890,1,2,0:0:0:0:
320,192,19225,1,2,0:0:0:0:
192,192,19561,1,2,0:0:0:0:
64,192,19896,1,2,0:0:0:0:
448,192,20231,1,2,0:0:0:0:
192,192,20566,1,2,0:0:0:0:
320,192,20901,1,2,0:0:0:0:
64,192,21237,1,2,0:0:0:0:
448,192,21572,1,0,0:0:0:0:
64,192,21907,128,2,22745:0:3:0:0:
448,192,22410,128,4,22745:0:3:0:0:
320,192,22913,1,2,0:0:0:0:
192,192,23080,1,2,0:0:0:0:
64,192,23248,1,2,0:0:0:0:
192,192,23415,1,0,0:0:0:0:
320,192,23583,1,2,0:0:0:0:
448,192,23751,1,0,0:0:0:0:
448,192,25259,1,2,0:0:0:0:
64,192,25259,1,0,0:0:0:0:
64,192,25929,1,2,0:0:0:0:
192,192,26097,1,0,0:0:0:0:
320,192,26265,1,2,0:0:0:0:
448,192,26432,1,0,0:0:0:0:
64,192,27940,1,2,0:0:0:0:
448,192,27940,1,0,0:0:0:0:
64,192,28611,1,4,0:0:0:0:
64,192,29114,1,0,0:0:0:0:
192,192,29449,1,0,0:0:0:0:
448,192,29616,1,2,0:0:0:0:
320,192,29784,1,0,0:0:0:0:
192,192,29952,1,2,0:0:0:0:
64,192,30119,1,0,0:0:0:0:
192,192,30622,1,2,0:0:0:0:
320,192,30957,1,2,0:0:0:0:
448,192,31292,1,2,0:0:0:0:
320,192,31795,1,0,0:0:0:0:
192,192,32298,1,2,0:0:0:0:
64,192,32633,128,4,33806:0:0:0:0:
192,192,33304,128,2,33806:0:0:0:0:
448,192,33806,1,2,0:0:0:0:
64,192,34309,1,0,0:0:0:0:
448,192,34309,1,0,0:0:0:0:
192,192,34644,1,2,0:0:0:0:
320,192,34812,1,2,0:0:0:0:
448,192,35147,1,4,0:0:0:0:
320,192,35482,1,2,0:0:0:0:
192,192,35818,1,2,0:0:0:0:
64,192,36153,128,2,36656:0:0:0:0:
448,192,36656,1,4,0:0:0:0:
320,192,36991,1,2,0:0:0:0:
192,192,37158,1,0,0:0:0:0:
64,192,37494,1,2,0:0:0:0:
448,192,37829,128,4,38499:0:0:0:0:
64,192,38667,128,2,39337:0:0:0:0:
448,192,39337,1,2,0:0:0:0:
448,192,39672,1,2,0:0:0:0:
448,192,40008,1,2,0:0:0:0:
448,192,40343,1,2,0:0:0:0:
64,192,40678,1,2,0:0:0:0:
64,192,41013,1,2,0:0:0:0:
64,192,41348,1,2,0:0:0:0:
64,192,41684,1,2,0:0:0:0:
320,192,42019,1,2,0:0:0:0:
320,192,42522,1,4,0:0:0:0:
192,192,43024,1,2,0:0:0:0:
448,192,43359,1,4,0:0:0:0:
64,192,43527,1,2,0:0:0:0:
448,192,44533,1,2,0:0:0:0:
64,192,44533,1,4,0:0:0:0:
192,192,44868,1,0,0:0:0:0:
320,192,45035,1,2,0:0:0:0:
448,192,45371,128,2,45873:0:0:0:0:
64,192,45873,1,2,0:0:0:0:
320,192,46209,1,0,0:0:0:0:
192,192,46376,1,2,0:0:0:0:
64,192,46711,128,2,47214:0:0:0:0:
448,192,47214,1,0,0:0:0:0:
64,192,47549,1,0,0:0:0:0:
448,192,47717,1,2,0:0:0:0:
192,192,48052,1,2,0:0:0:0:
320,192,48220,1,0,0:0:0:0:
448,192,48555,128,0,48890:0:0:0:0:
192,192,48890,1,0,0:0:0:0:
64,192,49058,1,2,0:0:0:0:
192,192,49393,1,2,0:0:0:0:
320,192,49561,1,2,0:0:0:0:
448,192,49896,1,4,0:0:0:0:
64,192,49896,1,2,0:0:0:0:
320,192,50231,1,0,0:0:0:0:
192,192,50399,1,2,0:0:0:0:
64,192,50734,128,2,51237:0:0:0:0:
448,192,51237,1,4,0:0:0:0:
192,192,51572,1,0,0:0:0:0:
320,192,51739,1,2,0:0:0:0:
448,192,52075,128,2,52577:0:0:0:0:
64,192,52577,1,0,0:0:0:0:
448,192,52913,1,0,0:0:0:0:
64,192,53080,1,2,0:0:0:0:
320,192,53415,1,2,0:0:0:0:
192,192,53583,1,0,0:0:0:0:
64,192,53918,128,0,54253:0:0:0:0:
320,192,54253,1,0,0:0:0:0:
448,192,54421,1,2,0:0:0:0:
320,192,54756,1,2,0:0:0:0:
192,192,54924,1,2,0:0:0:0:
64,192,55259,1,2,0:0:0:0:
448,192,55259,1,4,0:0:0:0:
192,192,55594,1,0,0:0:0:0:
320,192,55762,1,2,0:0:0:0:
448,192,56097,128,2,56600:0:0:0:0:
64,192,56600,1,2,0:0:0:0:
320,192,56935,1,0,0:0:0:0:
192,192,57103,1,2,0:0:0:0:
64,192,57438,128,2,57940:0:0:0:0:
448,192,57940,1,0,0:0:0:0:
64,192,58276,1,0,0:0:0:0:
448,192,58443,1,2,0:0:0:0:
192,192,58778,1,2,0:0:0:0:
320,192,58946,1,0,0:0:0:0:
448,192,59281,128,0,59616:0:0:0:0:
192,192,59616,1,0,0:0:0:0:
64,192,59784,1,2,0:0:0:0:
192,192,60119,1,2,0:0:0:0:
320,192,60287,1,0,0:0:0:0:
64,192,60622,1,4,0:0:0:0:
448,192,60622,1,2,0:0:0:0:
320,192,60957,1,0,0:0:0:0:
192,192,61125,1,2,0:0:0:0:
64,192,61460,128,2,61963:0:0:0:0:
448,192,61963,1,4,0:0:0:0:
64,192,62298,1,0,0:0:0:0:
448,192,62466,1,2,0:0:0:0:
192,192,62633,1,0,0:0:0:0:
448,192,62801,1,2,0:0:0:0:
320,192,62968,1,0,0:0:0:0:
192,192,63136,1,2,0:0:0:0:
64,192,63304,1,2,0:0:0:0:
448,192,63304,1,4,0:0:0:0:
192,192,63639,5,0,0:0:0:0:
320,192,63806,1,2,0:0:0:0:
448,192,64142,1,2,0:0:0:0:
64,192,64142,1,0,0:0:0:0:
320,192,64477,1,2,0:0:0:0:
192,192,64644,1,0,0:0:0:0:
64,192,64812,128,2,65650:0:0:0:0:
192,192,65315,128,4,65650:0:0:0:0:
448,192,65818,1,2,0:0:0:0:
64,192,65985,1,2,0:0:0:0:
192,192,66488,1,2,0:0:0:0:
320,192,66823,1,2,0:0:0:0:
448,192,67158,1,2,0:0:0:0:
64,192,67326,1,4,0:0:0:0:
64,192,67829,1,2,0:0:0:0:
192,192,68164,1,2,0:0:0:0:
320,192,68499,1,2,0:0:0:0:
448,192,68834,1,2,0:0:0:0:
192,192,69170,1,2,0:0:0:0:
320,192,69505,1,2,0:0:0:0:
64,192,69840,1,2,0:0:0:0:
192,192,70175,1,2,0:0:0:0:
320,192,70510,1,2,0:0:0:0:
448,192,70846,128,2,71348:0:0:0:0:
64,192,71348,1,2,0:0:0:0:
192,192,71851,1,2,0:0:0:0:
320,192,72186,1,2,0:0:0:0:
448,192,72522,1,2,0:0:0:0:
64,192,72689,1,4,0:0:0:0:
64,192,73192,1,2,0:0:0:0:
192,192,73527,1,2,0:0:0:0:
320,192,73862,1,2,0:0:0:0:
448,192,74197,1,2,0:0:0:0:
192,192,74533,1,2,0:0:0:0:
320,192,74868,1,2,0:0:0:0:
192,192,75203,1,2,0:0:0:0:
64,192,75538,128,2,76711:0:0:0:0:
448,192,76711,1,2,0:0:0:0:
192,192,77047,128,0,78220:0:0:0:0:
320,192,78220,128,0,79561:0:0:0:0:
448,192,79561,128,0,82242:0:0:0:0:
64,192,80901,128,0,82242:0:0:0:0:
192,192,82242,128,4,83583:0:0:0:0:
320,192,83583,128,4,84924:0:0:0:0:
448,192,84924,128,4,86767:0:0:0:0:
64,192,86265,128,4,87438:0:0:0:0:
192,192,86767,128,0,87438:0:0:0:0:
448,192,87438,1,0,0:0:0:0:
320,192,87773,1,0,0:0:0:0:
192,192,87940,1,0,0:0:0:0:
64,192,88276,128,0,88778:0:0:0:0:
448,192,88778,1,0,0:0:0:0:
320,192,89114,1,0,0:0:0:0:
192,192,89281,1,0,0:0:0:0:
64,192,89616,128,0,90119:0:0:0:0:
448,192,90119,1,0,0:0:0:0:
448,192,90454,1,0,0:0:0:0:
64,192,90622,1,0,0:0:0:0:
320,192,90957,1,0,0:0:0:0:
192,192,91125,1,0,0:0:0:0:
64,192,91460,128,0,91795:0:0:0:0:
320,192,91795,1,0,0:0:0:0:
448,192,91963,5,0,0:0:0:0:
320,192,92298,1,0,0:0:0:0:
192,192,92466,1,0,0:0:0:0:
64,192,92801,1,4,0:0:0:0:
448,192,92801,1,0,0:0:0:0:
64,192,93136,128,0,93974:0:0:0:0:
448,192,93974,1,0,0:0:0:0:
192,192,94142,128,2,95315:0:0:0:0:
448,192,95315,1,0,0:0:0:0:
320,192,95482,128,2,96991:0:0:0:0:
448,192,96320,128,2,96991:0:0:0:0:
64,192,96991,128,2,98164:0:0:0:0:
448,192,98164,1,2,0:0:0:0:
192,192,98499,1,0,0:0:0:0:
320,192,98667,1,2,0:0:0:0:
448,192,99002,128,2,99505:0:0:0:0:
64,192,99505,1,4,0:0:0:0:
320,192,99840,1,0,0:0:0:0:
192,192,100008,1,2,0:0:0:0:
64,192,100343,128,2,100846:0:0:0:0:
448,192,100846,1,0,0:0:0:0:
64,192,101181,1,0,0:0:0:0:
448,192,101348,1,2,0:0:0:0:
192,192,101684,1,2,0:0:0:0:
320,192,101851,1,0,0:0:0:0:
448,192,102186,128,0,102522:0:0:0:0:
192,192,102522,1,0,0:0:0:0:
64,192,102689,1,0,0:0:0:0:
192,192,103024,1,2,0:0:0:0:
320,192,103192,1,0,0:0:0:0:
448,192,103527,1,2,0:0:0:0:
64,192,103527,1,4,0:0:0:0:
320,192,103862,1,0,0:0:0:0:
192,192,104030,1,2,0:0:0:0:
64,192,104365,128,2,104868:0:0:0:0:
448,192,104868,1,2,0:0:0:0:
64,192,105203,1,0,0:0:0:0:
448,192,105371,1,2,0:0:0:0:
192,192,105538,1,0,0:0:0:0:
448,192,105706,5,2,0:0:0:0:
320,192,105873,1,0,0:0:0:0:
192,192,106041,1,2,0:0:0:0:
64,192,106209,1,4,0:0:0:0:
448,192,106209,1,2,0:0:0:0:
192,192,106544,5,0,0:0:0:0:
320,192,106711,1,2,0:0:0:0:
448,192,107047,1,2,0:0:0:0:
64,192,107047,1,4,0:0:0:0:
320,192,107382,1,2,0:0:0:0:
192,192,107549,1,0,0:0:0:0:
64,192,107717,128,4,108555:0:0:0:0:
192,192,108220,128,4,108555:0:0:0:0:
320,192,108723,1,2,0:0:0:0:
448,192,108890,128,2,110399:0:0:0:0:
64,192,110399,1,0,0:0:0:0:
192,192,111069,1,0,0:0:0:0:
320,192,111739,1,0,0:0:0:0:
448,192,112410,1,0,0:0:0:0:
64,192,113080,1,0,0:0:0:0:
192,192,113751,1,0,0:0:0:0:
320,192,114421,1,0,0:0:0:0:
448,192,115091,1,0,0:0:0:0:
192,192,115762,1,0,0:0:0:0:
320,192,116432,1,0,0:0:0:0:
64,192,117103,1,0,0:0:0:0:
192,192,117773,1,0,0:0:0:0:
320,192,118443,1,0,0:0:0:0:
192,192,119114,1,0,0:0:0:0:
64,192,119784,128,0,121125:0:0:0:0:
448,192,120454,128,0,121125:0:0:0:0:
