osu file format v14

[General]
AudioFilename: SHION.mp3
AudioLeadIn: 0
PreviewTime: 43696
Countdown: 0
SampleSet: Soft
StackLeniency: 0.7
Mode: 3
LetterboxInBreaks: 0
SpecialStyle: 0
WidescreenStoryboard: 0

[Editor]
Bookmarks: 24672
DistanceSpacing: 1.3
BeatDivisor: 4
GridSize: 4
TimelineZoom: 1.6

[Metadata]
Title:SHION
TitleUnicode:SHION
Artist:DJ YOSHITAKA
ArtistUnicode:DJ YOSHITAKA
Creator:YaHao
Version:Normal
Source:pop'n music 19 TUNE STREET
Tags:Kuo Kyoka jubeat fulfill saucer wac NANAKO HI-SPEED FANTASY ハイスピード幻想チューン beatmania IIDX REFLEC BEAT
BeatmapID:762582
BeatmapSetID:345306

[Difficulty]
HPDrainRate:7
CircleSize:4
OverallDifficulty:8
ApproachRate:5
SliderMultiplier:1.4
SliderTickRate:1

[Events]
//Background and Video events
0,0,"SHIONBG.jpg",0,0
//Break Periods
//Storyboard Layer 0 (Background)
//Storyboard Layer 1 (Fail)
//Storyboard Layer 2 (Pass)
//Storyboard Layer 3 (Foreground)
//Storyboard Sound Samples

[TimingPoints]
1629,335.195530726257,4,2,1,30,1,0
12355,-100,4,2,1,30,0,1
12522,335.195530726257,4,2,1,30,1,1
22410,-100,4,2,1,30,0,0
44533,-100,4,2,1,30,0,1
65985,-100,4,2,1,30,0,0

[HitObjects]
448,192,1629,5,2,0:0:0:0:
64,192,1629,1,0,0:0:0:0:
192,192,1964,1,0,0:0:0:0:
320,192,2131,1,0,0:0:0:0:
64,192,2299,1,0,0:0:0:0:
192,192,2466,1,0,0:0:0:0:
448,192,2634,1,0,0:0:0:0:
320,192,2802,1,0,0:0:0:0:
192,192,2969,1,0,0:0:0:0:
64,192,2969,1,0,0:0:0:0:
320,192,3304,1,0,0:0:0:0:
192,192,3472,1,0,0:0:0:0:
448,192,3640,1,0,0:0:0:0:
320,192,3807,1,0,0:0:0:0:
192,192,3975,1,0,0:0:0:0:
64,192,4142,1,0,0:0:0:0:
448,192,4310,1,0,0:0:0:0:
320,192,4310,1,0,0:0:0:0:
192,192,4645,1,0,0:0:0:0:
320,192,4813,1,0,0:0:0:0:
64,192,4980,1,0,0:0:0:0:
192,192,5148,1,0,0:0:0:0:
448,192,5316,1,0,0:0:0:0:
320,192,5483,1,0,0:0:0:0:
192,192,5651,1,0,0:0:0:0:
64,192,5651,1,0,0:0:0:0:
448,192,5986,1,0,0:0:0:0:
192,192,6154,1,0,0:0:0:0:
320,192,6321,1,0,0:0:0:0:
448,192,6489,1,2,0:0:0:0:
64,192,6489,1,0,0:0:0:0:
192,192,6656,1,0,0:0:0:0:
320,192,6824,1,0,0:0:0:0:
64,192,6992,1,4,0:0:0:0:
448,192,6992,1,2,0:0:0:0:
64,192,7327,1,0,0:0:0:0:
192,192,7494,1,0,0:0:0:0:
448,192,7662,1,0,0:0:0:0:
320,192,7830,1,0,0:0:0:0:
64,192,7997,1,0,0:0:0:0:
192,192,8165,1,0,0:0:0:0:
64,192,8332,1,2,0:0:0:0:
448,192,8332,1,0,0:0:0:0:
320,192,8500,1,0,0:0:0:0:
64,192,8668,1,0,0:0:0:0:
192,192,8835,1,0,0:0:0:0:
448,192,9003,1,0,0:0:0:0:
320,192,9170,1,0,0:0:0:0:
64,192,9338,1,0,0:0:0:0:
192,192,9506,1,0,0:0:0:0:
448,192,9673,128,2,10511:0:0:0:0:
320,192,9673,1,0,0:0:0:0:
320,192,10511,1,2,0:0:0:0:
64,192,10511,128,0,11182:0:0:0:0:
448,192,11182,1,2,0:0:0:0:
320,192,11433,1,2,0:0:0:0:
192,192,11684,1,2,0:0:0:0:
448,192,12187,1,2,0:0:0:0:
64,192,12355,1,2,0:0:0:0:
448,192,12355,1,0,0:0:0:0:
192,192,12689,1,0,0:0:0:0:
320,192,12857,1,2,0:0:0:0:
64,192,13024,1,0,0:0:0:0:
192,192,13192,1,2,0:0:0:0:
320,192,13359,1,0,0:0:0:0:
64,192,13527,1,2,0:0:0:0:
64,192,13695,1,0,0:0:0:0:
448,192,14030,1,0,0:0:0:0:
64,192,14365,1,0,0:0:0:0:
192,192,14533,1,2,0:0:0:0:
448,192,14700,1,0,0:0:0:0:
320,192,14868,1,2,0:0:0:0:
192,192,15035,1,0,0:0:0:0:
64,192,15203,1,2,0:0:0:0:
448,192,15203,1,0,0:0:0:0:
320,192,15538,1,2,0:0:0:0:
448,192,15873,1,2,0:0:0:0:
64,192,16041,1,0,0:0:0:0:
192,192,16209,1,2,0:0:0:0:
320,192,16376,1,0,0:0:0:0:
64,192,16544,1,2,0:0:0:0:
448,192,16544,128,0,17047:0:0:0:0:
192,192,17047,1,0,0:0:0:0:
320,192,17214,1,2,0:0:0:0:
64,192,17382,1,0,0:0:0:0:
192,192,17549,1,2,0:0:0:0:
320,192,17717,1,2,0:0:0:0:
448,192,17717,1,0,0:0:0:0:
192,192,17885,1,4,0:0:0:0:
64,192,17885,1,2,0:0:0:0:
320,192,18220,1,2,0:0:0:0:
448,192,18220,1,0,0:0:0:0:
192,192,18555,1,2,0:0:0:0:
64,192,18555,1,0,0:0:0:0:
64,192,18890,1,2,0:0:0:0:
448,192,18890,1,0,0:0:0:0:
320,192,19058,1,0,0:0:0:0:
448,192,19225,1,2,0:0:0:0:
64,192,19225,1,4,0:0:0:0:
64,192,19561,1,2,0:0:0:0:
192,192,19561,1,0,0:0:0:0:
320,192,19896,1,2,0:0:0:0:
448,192,19896,1,0,0:0:0:0:
448,192,20231,1,2,0:0:0:0:
64,192,20231,1,0,0:0:0:0:
320,192,20399,1,0,0:0:0:0:
192,192,20566,1,2,0:0:0:0:
64,192,20566,1,4,0:0:0:0:
320,192,20901,1,2,0:0:0:0:
192,192,21069,1,0,0:0:0:0:
320,192,21404,1,0,0:0:0:0:
192,192,21572,1,0,0:0:0:0:
64,192,21739,1,2,0:0:0:0:
448,192,21907,1,6,0:0:0:0:
448,192,22158,1,6,0:0:0:0:
64,192,22410,128,4,22745:0:0:0:0:
448,192,22410,128,2,22745:0:0:0:0:
192,192,22913,1,2,0:0:0:0:
320,192,23080,1,2,0:0:0:0:
64,192,23248,1,2,0:0:0:0:
448,192,23248,1,0,0:0:0:0:
192,192,23583,1,2,0:0:0:0:
64,192,23918,1,2,0:0:0:0:
448,192,24253,1,2,0:0:0:0:
320,192,24589,1,2,0:0:0:0:
64,192,24924,1,2,0:0:0:0:
448,192,25259,1,2,0:0:0:0:
192,192,25259,1,0,0:0:0:0:
320,192,25594,1,2,0:0:0:0:
192,192,25929,1,2,0:0:0:0:
448,192,26265,1,2,0:0:0:0:
64,192,26600,1,2,0:0:0:0:
192,192,26935,1,2,0:0:0:0:
320,192,27270,1,2,0:0:0:0:
192,192,27605,1,2,0:0:0:0:
448,192,27940,1,2,0:0:0:0:
192,192,28108,1,2,0:0:0:0:
320,192,28276,1,2,0:0:0:0:
64,192,28443,1,2,0:0:0:0:
448,192,28611,1,4,0:0:0:0:
320,192,28611,1,2,0:0:0:0:
192,192,28778,1,0,0:0:0:0:
320,192,28946,1,2,0:0:0:0:
448,192,29114,1,0,0:0:0:0:
64,192,29281,1,2,0:0:0:0:
320,192,29449,1,0,0:0:0:0:
192,192,29616,1,2,0:0:0:0:
320,192,29784,1,0,0:0:0:0:
192,192,29952,1,2,0:0:0:0:
448,192,29952,1,4,0:0:0:0:
64,192,30119,1,0,0:0:0:0:
320,192,30287,1,2,0:0:0:0:
192,192,30454,1,0,0:0:0:0:
448,192,30622,1,2,0:0:0:0:
320,192,30790,1,0,0:0:0:0:
192,192,30957,1,2,0:0:0:0:
64,192,31125,1,0,0:0:0:0:
448,192,31292,1,2,0:0:0:0:
192,192,31292,1,4,0:0:0:0:
320,192,31460,1,0,0:0:0:0:
64,192,31628,1,2,0:0:0:0:
192,192,31795,1,0,0:0:0:0:
64,192,31963,1,2,0:0:0:0:
320,192,31963,1,4,0:0:0:0:
448,192,32130,1,0,0:0:0:0:
192,192,32298,1,2,0:0:0:0:
320,192,32466,1,0,0:0:0:0:
64,192,32633,1,4,0:0:0:0:
448,192,32633,1,2,0:0:0:0:
64,192,32968,1,2,0:0:0:0:
448,192,32968,1,4,0:0:0:0:
64,192,33304,1,2,0:0:0:0:
448,192,33304,1,4,0:0:0:0:
320,192,33555,1,2,0:0:0:0:
192,192,33555,1,4,0:0:0:0:
64,192,33806,1,2,0:0:0:0:
448,192,33806,1,4,0:0:0:0:
192,192,34309,1,0,0:0:0:0:
448,192,34309,128,0,34644:0:0:0:0:
64,192,34644,1,2,0:0:0:0:
192,192,34812,1,2,0:0:0:0:
448,192,35147,1,6,0:0:0:0:
64,192,35482,1,2,0:0:0:0:
320,192,35818,1,2,0:0:0:0:
192,192,36153,1,2,0:0:0:0:
320,192,36320,1,2,0:0:0:0:
448,192,36488,1,2,0:0:0:0:
320,192,36656,1,4,0:0:0:0:
64,192,36656,1,2,0:0:0:0:
192,192,36991,1,2,0:0:0:0:
448,192,37158,1,0,0:0:0:0:
64,192,37326,1,2,0:0:0:0:
320,192,37494,1,2,0:0:0:0:
64,192,37829,1,4,0:0:0:0:
192,192,37829,1,2,0:0:0:0:
448,192,38332,1,2,0:0:0:0:
192,192,38667,1,2,0:0:0:0:
320,192,38918,1,2,0:0:0:0:
64,192,39170,1,2,0:0:0:0:
448,192,39337,1,2,0:0:0:0:
192,192,39337,1,4,0:0:0:0:
64,192,39672,1,2,0:0:0:0:
448,192,39672,1,0,0:0:0:0:
64,192,40008,1,2,0:0:0:0:
320,192,40008,1,0,0:0:0:0:
192,192,40343,1,2,0:0:0:0:
448,192,40343,1,0,0:0:0:0:
320,192,40510,1,2,0:0:0:0:
192,192,40678,1,2,0:0:0:0:
64,192,40678,128,4,42019:0:0:0:0:
448,192,41013,1,2,0:0:0:0:
192,192,41348,1,2,0:0:0:0:
448,192,41684,1,2,0:0:0:0:
320,192,41851,1,2,0:0:0:0:
192,192,42019,1,2,0:0:0:0:
448,192,42186,1,0,0:0:0:0:
64,192,42354,1,2,0:0:0:0:
320,192,42522,1,6,0:0:0:0:
448,192,43024,1,2,0:0:0:0:
320,192,43192,1,2,0:0:0:0:
64,192,43359,1,4,0:0:0:0:
192,192,43359,1,2,0:0:0:0:
320,192,43527,1,2,0:0:0:0:
448,192,43527,1,4,0:0:0:0:
64,192,44533,1,2,0:0:0:0:
448,192,44533,1,4,0:0:0:0:
320,192,44868,1,0,0:0:0:0:
192,192,45035,1,2,0:0:0:0:
320,192,45371,1,2,0:0:0:0:
192,192,45538,1,0,0:0:0:0:
64,192,45706,1,2,0:0:0:0:
448,192,45873,1,2,0:0:0:0:
320,192,45873,1,4,0:0:0:0:
192,192,46209,1,0,0:0:0:0:
320,192,46376,1,2,0:0:0:0:
64,192,46711,1,2,0:0:0:0:
448,192,46879,1,0,0:0:0:0:
64,192,47047,1,2,0:0:0:0:
448,192,47214,1,0,0:0:0:0:
192,192,47549,1,0,0:0:0:0:
320,192,47717,1,2,0:0:0:0:
64,192,48052,1,2,0:0:0:0:
192,192,48220,1,0,0:0:0:0:
448,192,48555,1,0,0:0:0:0:
192,192,48890,1,0,0:0:0:0:
320,192,49058,1,2,0:0:0:0:
64,192,49393,1,2,0:0:0:0:
448,192,49561,1,2,0:0:0:0:
320,192,49728,1,2,0:0:0:0:
192,192,49896,1,4,0:0:0:0:
64,192,49896,1,2,0:0:0:0:
320,192,50231,1,0,0:0:0:0:
192,192,50399,1,2,0:0:0:0:
448,192,50734,1,2,0:0:0:0:
64,192,50901,1,0,0:0:0:0:
192,192,51069,1,2,0:0:0:0:
448,192,51237,1,4,0:0:0:0:
320,192,51237,1,2,0:0:0:0:
192,192,51572,1,0,0:0:0:0:
320,192,51739,1,2,0:0:0:0:
448,192,52075,1,2,0:0:0:0:
64,192,52242,1,0,0:0:0:0:
448,192,52410,1,2,0:0:0:0:
64,192,52577,1,0,0:0:0:0:
320,192,52913,1,0,0:0:0:0:
192,192,53080,1,2,0:0:0:0:
448,192,53415,1,2,0:0:0:0:
320,192,53583,1,0,0:0:0:0:
64,192,53751,1,2,0:0:0:0:
192,192,53918,1,0,0:0:0:0:
448,192,54253,1,0,0:0:0:0:
320,192,54421,1,2,0:0:0:0:
192,192,54589,1,0,0:0:0:0:
320,192,54756,1,2,0:0:0:0:
64,192,54924,1,2,0:0:0:0:
192,192,55091,1,0,0:0:0:0:
320,192,55259,1,2,0:0:0:0:
448,192,55259,1,4,0:0:0:0:
192,192,55594,1,0,0:0:0:0:
320,192,55762,1,2,0:0:0:0:
192,192,56097,1,2,0:0:0:0:
320,192,56265,1,0,0:0:0:0:
192,192,56432,1,2,0:0:0:0:
64,192,56600,1,2,0:0:0:0:
448,192,56600,1,4,0:0:0:0:
320,192,56935,1,0,0:0:0:0:
192,192,57103,1,2,0:0:0:0:
448,192,57438,1,2,0:0:0:0:
64,192,57605,1,0,0:0:0:0:
448,192,57773,1,2,0:0:0:0:
64,192,57940,1,0,0:0:0:0:
320,192,58276,1,0,0:0:0:0:
192,192,58443,1,2,0:0:0:0:
320,192,58778,1,2,0:0:0:0:
192,192,58946,1,0,0:0:0:0:
64,192,59114,1,2,0:0:0:0:
448,192,59281,1,0,0:0:0:0:
192,192,59616,1,0,0:0:0:0:
320,192,59784,1,2,0:0:0:0:
192,192,60119,1,2,0:0:0:0:
320,192,60287,1,0,0:0:0:0:
448,192,60454,1,2,0:0:0:0:
192,192,60622,1,4,0:0:0:0:
64,192,60622,1,2,0:0:0:0:
320,192,60957,1,0,0:0:0:0:
192,192,61125,1,2,0:0:0:0:
448,192,61460,1,2,0:0:0:0:
64,192,61628,1,0,0:0:0:0:
448,192,61795,1,2,0:0:0:0:
192,192,61963,1,4,0:0:0:0:
64,192,61963,1,2,0:0:0:0:
320,192,62298,1,0,0:0:0:0:
192,192,62466,1,2,0:0:0:0:
320,192,62633,1,0,0:0:0:0:
64,192,62801,1,2,0:0:0:0:
192,192,62968,1,0,0:0:0:0:
320,192,63136,1,2,0:0:0:0:
64,192,63304,1,2,0:0:0:0:
448,192,63304,1,4,0:0:0:0:
320,192,63639,1,0,0:0:0:0:
192,192,63806,1,2,0:0:0:0:
320,192,64142,1,2,0:0:0:0:
448,192,64142,1,0,0:0:0:0:
192,192,64309,1,0,0:0:0:0:
64,192,64477,1,2,0:0:0:0:
320,192,64812,1,0,0:0:0:0:
448,192,64812,1,6,0:0:0:0:
64,192,65063,1,6,0:0:0:0:
192,192,65063,1,0,0:0:0:0:
448,192,65315,1,6,0:0:0:0:
320,192,65315,1,0,0:0:0:0:
192,192,65818,1,2,0:0:0:0:
448,192,65985,1,2,0:0:0:0:
64,192,65985,1,4,0:0:0:0:
320,192,66320,1,0,0:0:0:0:
192,192,66488,1,2,0:0:0:0:
448,192,66656,1,0,0:0:0:0:
64,192,66823,1,2,0:0:0:0:
192,192,66991,1,0,0:0:0:0:
320,192,67158,1,2,0:0:0:0:
192,192,67326,1,4,0:0:0:0:
64,192,67326,1,2,0:0:0:0:
448,192,67661,1,0,0:0:0:0:
320,192,67996,1,0,0:0:0:0:
64,192,68332,1,0,0:0:0:0:
192,192,68499,1,2,0:0:0:0:
320,192,68667,1,0,0:0:0:0:
448,192,68834,1,2,0:0:0:0:
192,192,69170,1,2,0:0:0:0:
320,192,69505,1,2,0:0:0:0:
64,192,69672,1,0,0:0:0:0:
192,192,69840,1,2,0:0:0:0:
448,192,70008,128,0,70343:0:0:0:0:
64,192,70343,128,0,70678:0:0:0:0:
448,192,70678,1,0,0:0:0:0:
320,192,70846,1,2,0:0:0:0:
64,192,71013,1,2,0:0:0:0:
192,192,71181,1,2,0:0:0:0:
320,192,71348,1,2,0:0:0:0:
448,192,71348,1,4,0:0:0:0:
64,192,71516,1,0,0:0:0:0:
448,192,71851,1,2,0:0:0:0:
64,192,72186,1,2,0:0:0:0:
320,192,72354,1,0,0:0:0:0:
192,192,72522,1,2,0:0:0:0:
64,192,72689,1,4,0:0:0:0:
448,192,72689,1,2,0:0:0:0:
320,192,73024,1,0,0:0:0:0:
448,192,73359,1,0,0:0:0:0:
64,192,73695,1,0,0:0:0:0:
192,192,73862,1,2,0:0:0:0:
320,192,74030,1,0,0:0:0:0:
64,192,74197,1,2,0:0:0:0:
448,192,74533,1,2,0:0:0:0:
64,192,74868,1,2,0:0:0:0:
64,192,75203,1,2,0:0:0:0:
448,192,75371,1,0,0:0:0:0:
448,192,75706,1,0,0:0:0:0:
448,192,76041,1,0,0:0:0:0:
192,192,76209,1,2,0:0:0:0:
64,192,76209,128,0,76879:0:0:0:0:
448,192,76376,1,2,0:0:0:0:
320,192,76544,1,2,0:0:0:0:
192,192,76711,1,2,0:0:0:0:
448,192,76879,128,0,79225:0:0:0:0:
64,192,77214,1,0,0:0:0:0:
192,192,77382,1,0,0:0:0:0:
320,192,77549,1,0,0:0:0:0:
64,192,77717,1,0,0:0:0:0:
192,192,77885,1,0,0:0:0:0:
64,192,78052,1,0,0:0:0:0:
320,192,78220,1,0,0:0:0:0:
192,192,78387,1,0,0:0:0:0:
320,192,78555,1,0,0:0:0:0:
64,192,78723,1,0,0:0:0:0:
192,192,78890,1,0,0:0:0:0:
320,192,79058,1,0,0:0:0:0:
64,192,79225,1,0,0:0:0:0:
192,192,79393,1,0,0:0:0:0:
64,192,79561,1,0,0:0:0:0:
448,192,79561,1,0,0:0:0:0:
320,192,79896,1,0,0:0:0:0:
448,192,79896,1,0,0:0:0:0:
64,192,80231,1,0,0:0:0:0:
192,192,80399,1,0,0:0:0:0:
320,192,80566,1,0,0:0:0:0:
448,192,80734,1,0,0:0:0:0:
64,192,80901,1,0,0:0:0:0:
192,192,80901,1,0,0:0:0:0:
64,192,81237,1,0,0:0:0:0:
448,192,81572,128,0,82242:0:0:0:0:
320,192,81572,1,0,0:0:0:0:
64,192,81907,1,0,0:0:0:0:
192,192,82075,1,0,0:0:0:0:
320,192,82242,1,4,0:0:0:0:
64,192,82242,128,0,83583:0:0:0:0:
448,192,82577,1,0,0:0:0:0:
192,192,82913,1,0,0:0:0:0:
448,192,83248,1,0,0:0:0:0:
320,192,83415,1,0,0:0:0:0:
448,192,83583,1,4,0:0:0:0:
192,192,83583,128,0,84924:0:0:0:0:
64,192,83918,1,0,0:0:0:0:
448,192,84253,1,0,0:0:0:0:
64,192,84589,1,0,0:0:0:0:
320,192,84756,1,0,0:0:0:0:
448,192,84924,128,0,85594:0:0:0:0:
64,192,84924,1,4,0:0:0:0:
320,192,85259,1,0,0:0:0:0:
64,192,85594,128,0,86265:0:0:0:0:
192,192,85594,1,4,0:0:0:0:
320,192,85929,1,0,0:0:0:0:
320,192,86265,1,4,0:0:0:0:
448,192,86265,1,0,0:0:0:0:
64,192,86516,1,0,0:0:0:0:
192,192,86516,1,4,0:0:0:0:
320,192,86767,1,0,0:0:0:0:
448,192,86767,128,0,87438:0:0:0:0:
192,192,87270,1,0,0:0:0:0:
64,192,87438,1,0,0:0:0:0:
320,192,87773,1,0,0:0:0:0:
192,192,87940,1,0,0:0:0:0:
448,192,88276,1,0,0:0:0:0:
320,192,88443,1,0,0:0:0:0:
192,192,88611,1,0,0:0:0:0:
64,192,88778,1,0,0:0:0:0:
448,192,88778,1,0,0:0:0:0:
192,192,89114,1,0,0:0:0:0:
320,192,89281,1,0,0:0:0:0:
192,192,89616,1,0,0:0:0:0:
320,192,89784,1,0,0:0:0:0:
448,192,89952,1,0,0:0:0:0:
192,192,90119,1,0,0:0:0:0:
64,192,90119,1,0,0:0:0:0:
320,192,90454,1,0,0:0:0:0:
192,192,90622,1,0,0:0:0:0:
320,192,90957,1,0,0:0:0:0:
448,192,91125,1,0,0:0:0:0:
64,192,91460,1,0,0:0:0:0:
320,192,91460,1,0,0:0:0:0:
192,192,91795,1,0,0:0:0:0:
320,192,91963,1,0,0:0:0:0:
64,192,92298,1,2,0:0:0:0:
448,192,92298,1,0,0:0:0:0:
320,192,92466,1,0,0:0:0:0:
192,192,92633,1,0,0:0:0:0:
448,192,92801,1,2,0:0:0:0:
320,192,92801,1,4,0:0:0:0:
64,192,93136,1,0,0:0:0:0:
192,192,93304,1,0,0:0:0:0:
448,192,93471,1,0,0:0:0:0:
320,192,93639,1,0,0:0:0:0:
64,192,93806,1,0,0:0:0:0:
192,192,93974,1,0,0:0:0:0:
64,192,94142,1,2,0:0:0:0:
448,192,94142,1,0,0:0:0:0:
320,192,94309,1,0,0:0:0:0:
64,192,94477,1,0,0:0:0:0:
192,192,94644,1,0,0:0:0:0:
448,192,94812,1,0,0:0:0:0:
320,192,94980,1,0,0:0:0:0:
64,192,95147,1,0,0:0:0:0:
192,192,95315,1,0,0:0:0:0:
448,192,95482,128,2,96320:0:0:0:0:
320,192,95482,1,0,0:0:0:0:
192,192,96320,128,2,96991:0:0:0:0:
64,192,96320,1,0,0:0:0:0:
320,192,96823,1,0,0:0:0:0:
448,192,96991,1,2,0:0:0:0:
64,192,96991,1,0,0:0:0:0:
192,192,97242,1,2,0:0:0:0:
64,192,97242,1,0,0:0:0:0:
320,192,97494,1,2,0:0:0:0:
448,192,97494,1,0,0:0:0:0:
64,192,97661,1,0,0:0:0:0:
192,192,97829,1,0,0:0:0:0:
320,192,97996,1,0,0:0:0:0:
64,192,98164,1,2,0:0:0:0:
448,192,98164,1,0,0:0:0:0:
320,192,98499,1,0,0:0:0:0:
448,192,98667,1,2,0:0:0:0:
64,192,98667,1,4,0:0:0:0:
192,192,99002,1,2,0:0:0:0:
320,192,99170,1,0,0:0:0:0:
192,192,99337,1,2,0:0:0:0:
448,192,99505,1,4,0:0:0:0:
64,192,99505,1,2,0:0:0:0:
192,192,99840,1,0,0:0:0:0:
320,192,100008,1,2,0:0:0:0:
448,192,100343,1,2,0:0:0:0:
64,192,100510,1,0,0:0:0:0:
448,192,100678,1,2,0:0:0:0:
64,192,100846,1,0,0:0:0:0:
320,192,101181,1,0,0:0:0:0:
192,192,101348,1,0,0:0:0:0:
448,192,101684,1,0,0:0:0:0:
320,192,101851,1,0,0:0:0:0:
192,192,102019,1,2,0:0:0:0:
320,192,102186,1,0,0:0:0:0:
64,192,102522,1,0,0:0:0:0:
320,192,102689,1,0,0:0:0:0:
192,192,103024,1,2,0:0:0:0:
320,192,103192,1,0,0:0:0:0:
448,192,103359,1,2,0:0:0:0:
320,192,103527,1,2,0:0:0:0:
64,192,103527,1,4,0:0:0:0:
192,192,103862,1,0,0:0:0:0:
448,192,104030,1,2,0:0:0:0:
320,192,104365,1,2,0:0:0:0:
192,192,104533,1,0,0:0:0:0:
64,192,104700,1,2,0:0:0:0:
320,192,104868,1,2,0:0:0:0:
448,192,104868,1,4,0:0:0:0:
64,192,105203,1,0,0:0:0:0:
448,192,105371,1,2,0:0:0:0:
448,192,105538,1,0,0:0:0:0:
64,192,105706,1,2,0:0:0:0:
192,192,105873,1,0,0:0:0:0:
320,192,106041,1,2,0:0:0:0:
64,192,106209,1,4,0:0:0:0:
448,192,106209,1,2,0:0:0:0:
320,192,106544,1,0,0:0:0:0:
192,192,106711,1,2,0:0:0:0:
448,192,107047,1,2,0:0:0:0:
320,192,107214,1,0,0:0:0:0:
192,192,107382,1,2,0:0:0:0:
64,192,107717,1,4,0:0:0:0:
448,192,107717,1,2,0:0:0:0:
192,192,107968,1,2,0:0:0:0:
320,192,107968,1,4,0:0:0:0:
448,192,108220,1,4,0:0:0:0:
64,192,108220,1,2,0:0:0:0:
320,192,108555,1,0,0:0:0:0:
64,192,108723,1,2,0:0:0:0:
192,192,108723,1,0,0:0:0:0:
320,192,108890,1,2,0:0:0:0:
448,192,108890,1,0,0:0:0:0:
448,192,110399,1,0,0:0:0:0:
64,192,110399,1,0,0:0:0:0:
320,192,110622,1,0,0:0:0:0:
192,192,110846,1,0,0:0:0:0:
448,192,111069,1,0,0:0:0:0:
64,192,111069,1,0,0:0:0:0:
320,192,111292,1,0,0:0:0:0:
448,192,111516,1,0,0:0:0:0:
64,192,111739,1,0,0:0:0:0:
320,192,111739,1,0,0:0:0:0:
192,192,111963,1,0,0:0:0:0:
320,192,112186,1,0,0:0:0:0:
192,192,112410,1,0,0:0:0:0:
64,192,112410,1,0,0:0:0:0:
320,192,112745,1,0,0:0:0:0:
192,192,112745,1,0,0:0:0:0:
448,192,113080,1,0,0:0:0:0:
320,192,113080,1,0,0:0:0:0:
64,192,113304,1,0,0:0:0:0:
192,192,113527,1,0,0:0:0:0:
448,192,113751,1,0,0:0:0:0:
320,192,113751,1,0,0:0:0:0:
64,192,113974,1,0,0:0:0:0:
192,192,114197,1,0,0:0:0:0:
64,192,114421,1,0,0:0:0:0:
448,192,114421,1,0,0:0:0:0:
320,192,114644,1,0,0:0:0:0:
192,192,114868,1,0,0:0:0:0:
320,192,115091,1,0,0:0:0:0:
448,192,115091,1,0,0:0:0:0:
192,192,115427,1,0,0:0:0:0:
320,192,115427,1,0,0:0:0:0:
64,192,115762,1,0,0:0:0:0:
192,192,115762,1,0,0:0:0:0:
448,192,115985,1,0,0:0:0:0:
320,192,116209,1,0,0:0:0:0:
448,192,116432,1,0,0:0:0:0:
64,192,116432,1,0,0:0:0:0:
192,192,116656,1,0,0:0:0:0:
320,192,116879,1,0,0:0:0:0:
192,192,117103,1,0,0:0:0:0:
64,192,117103,1,0,0:0:0:0:
448,192,117326,1,0,0:0:0:0:
320,192,117549,1,0,0:0:0:0:
448,192,117773,1,0,0:0:0:0:
192,192,117773,1,0,0:0:0:0:
64,192,118108,1,0,0:0:0:0:
320,192,118108,1,0,0:0:0:0:
192,192,118443,1,0,0:0:0:0:
448,192,118443,1,0,0:0:0:0:
320,192,118667,1,0,0:0:0:0:
192,192,118890,1,0,0:0:0:0:
448,192,119114,1,0,0:0:0:0:
64,192,119114,1,0,0:0:0:0:
320,192,119337,1,0,0:0:0:0:
192,192,119561,1,0,0:0:0:0:
320,192,119784,1,0,0:0:0:0:
448,192,119784,1,0,0:0:0:0:
64,192,120008,1,0,0:0:0:0:
192,192,120231,1,0,0:0:0:0:
320,192,120454,1,0,0:0:0:0:
448,192,120454,1,0,0:0:0:0:
192,192,120790,1,0,0:0:0:0:
64,192,120790,1,0,0:0:0:0:
