osu file format v14

[General]
AudioFilename: audio.mp3
AudioLeadIn: 0
PreviewTime: 59992
Countdown: 0
SampleSet: Soft
StackLeniency: 0.7
Mode: 3
LetterboxInBreaks: 0
SpecialStyle: 0
WidescreenStoryboard: 0

[Editor]
DistanceSpacing: 1.5
BeatDivisor: 4
GridSize: 4
TimelineZoom: 1.5

[Metadata]
Title:JOMANDA
TitleUnicode:JOMANDA
Artist:DJ YOSHITAKA
ArtistUnicode:DJ YOSHITAKA
Creator:Fresh Chicken
Version:NORMAL
Source:jubeat copious APPEND
Tags:Tsukahara HARD RENAISSANCE ハードルネッサンス BeatStream アニムトライヴ beatmania IIDX 20 tricoro DanceDanceRevolution (2014) DDR plus Android jukebeat MÚSECA 1+1/2 REFLEC BEAT colette -Autumn- SOUND VOLTEX III GRAVITY WARS ミライダガッキ FutureTomTom Ver.2 BEMANI KONAMI
BeatmapID:1118764
BeatmapSetID:527220

[Difficulty]
HPDrainRate:7.5
CircleSize:4
OverallDifficulty:7.5
ApproachRate:5
SliderMultiplier:1.4
SliderTickRate:1

[Events]
//Background and Video events
0,0,"42354356456.png",0,0
//Break Periods
//Storyboard Layer 0 (Background)
//Storyboard Layer 1 (Fail)
//Storyboard Layer 2 (Pass)
//Storyboard Layer 3 (Foreground)
//Storyboard Sound Samples
Sample,3008,0,"LETTHEBASSKICK.wav",45
Sample,3239,0,"LETTHEBASSKICK.wav",45
Sample,3393,0,"LETTHEBASSKICK.wav",45
Sample,5316,0,"LETTHEBASSKICK.wav",45
Sample,5470,0,"LETTHEBASSKICK.wav",45
Sample,7855,0,"CHENG.wav",45
Sample,12855,0,"LETTHEBASSKICK.wav",45
Sample,13085,0,"LETTHEBASSKICK.wav",45
Sample,13239,0,"CHENG.wav",45
Sample,15162,0,"LETTHEBASSKICK.wav",45
Sample,15316,0,"LETTHEBASSKICK.wav",45
Sample,33085,0,"LETTHEBASSKICK.wav",45
Sample,33547,0,"LETTHEBASSKICK.wav",45
Sample,33855,0,"LETTHEBASSKICK.wav",45
Sample,34162,0,"LETTHEBASSKICK.wav",45
Sample,34470,0,"LETTHEBASSKICK.wav",45
Sample,37932,0,"LETTHEBASSKICK.wav",45
Sample,38085,0,"LETTHEBASSKICK.wav",45
Sample,38239,0,"LETTHEBASSKICK.wav",45
Sample,38393,0,"LETTHEBASSKICK.wav",45
Sample,38547,0,"LETTHEBASSKICK.wav",45
Sample,38701,0,"LETTHEBASSKICK.wav",45
Sample,38855,0,"LETTHEBASSKICK.wav",45
Sample,39008,0,"LETTHEBASSKICK.wav",45
Sample,59617,0,"CWAA.wav",45
Sample,59617,0,"CWAA.wav",45
Sample,81607,0,"LETTHEBASSKICK.wav",45
Sample,89992,0,"LETTHEBASSKICK.wav",45
Sample,90299,0,"LETTHEBASSKICK.wav",45
Sample,112376,0,"LETTHEBASSKICK.wav",45

[TimingPoints]
932,307.692307692308,4,2,1,50,1,0
40316,375,4,2,1,50,1,0
40316,-82.051282051282,4,2,1,50,0,0
41816,428.571428571429,4,2,1,50,1,0
41816,-71.8390804597701,4,2,1,50,0,0
42673,500,4,2,1,50,1,0
42673,-61.5384615384615,4,2,1,50,0,0
43673,666.666666666667,4,2,1,50,1,0
43673,-46.2962962962963,4,2,1,50,0,0
46673,631.578947368421,4,2,1,50,1,0
46673,-48.780487804878,4,2,1,50,0,0
46830,600,4,2,1,50,1,0
46830,-51.2820512820513,4,2,1,50,0,0
46980,545.454545454546,4,2,1,50,1,0
46980,-56.4971751412429,4,2,1,50,0,0
47525,500,4,2,1,50,1,0
47525,-61.5384615384615,4,2,1,50,0,0
48525,461.538461538462,4,2,1,50,1,0
48525,-66.6666666666667,4,2,1,50,0,0
49448,428.571428571429,4,2,1,50,1,0
49448,-71.8390804597701,4,2,1,50,0,0
50305,400,4,2,1,50,1,0
50305,-76.9230769230769,4,2,1,50,0,0
51105,352.941176470588,4,2,1,50,1,0
51105,-87.1839581517001,4,2,1,50,0,0
51810,333.333333333333,4,2,1,50,1,0
51810,-92.3361034164358,4,2,1,50,0,0
51976,315.789473684211,4,2,1,50,1,0
51976,-97.4373964727662,4,2,1,50,0,0
52765,285.714285714286,4,2,1,50,1,0
52765,-107.758620689655,4,2,1,50,0,0
53622,272.727272727273,4,2,1,50,1,0
53622,-112.828613336342,4,2,1,50,0,0
53894,250,4,2,1,50,1,0
53894,-123.076923076923,4,2,1,50,0,0
54144,240,4,2,1,50,1,0
54144,-128.205128205128,4,2,1,50,0,0
55104,222.222222222222,4,2,1,50,1,0
55104,-138.461581065102,4,2,1,50,0,0
55992,200,4,2,1,50,1,0
55992,-153.846153846154,4,2,1,50,0,0
59992,307.692307692308,4,2,1,50,1,0
61222,-100,4,2,1,50,0,1
80607,-100,4,2,1,50,0,0
102145,-100,4,2,1,50,0,1
111376,-100,4,2,1,50,0,0

[HitObjects]
192,192,932,5,0,0:0:0:45:LETTHEBASSKICK.wav
448,192,932,1,0,0:0:0:0:
320,192,1239,1,0,0:0:0:45:CWAA.wav
64,192,1239,1,0,0:0:0:0:
448,192,1547,1,0,0:0:0:45:LETTHEBASSKICK.wav
320,192,1855,1,0,0:0:0:45:CWAA.wav
192,192,1855,1,0,0:0:0:0:
64,192,2008,1,0,0:0:0:45:CHENG.wav
448,192,2008,1,0,0:0:0:0:
448,192,2316,1,0,0:0:0:45:CHENG.wav
64,192,2316,1,0,0:0:0:0:
64,192,2624,1,0,0:0:0:45:CHENG.wav
448,192,2624,1,0,0:0:0:0:
320,192,2778,1,0,0:0:0:45:CWAA.wav
192,192,2778,1,0,0:0:0:0:
448,192,2932,1,0,0:0:0:45:LETTHEBASSKICK.wav
320,192,3085,1,0,0:0:0:45:CWAA.wav
64,192,3085,1,0,0:0:0:0:
192,192,3393,1,0,0:0:0:45:CHENG.wav
448,192,3701,1,0,0:0:0:45:CWAA.wav
64,192,3701,1,0,0:0:0:0:
320,192,4008,1,0,0:0:0:45:LETTHEBASSKICK.wav
192,192,4316,1,0,0:0:0:45:CWAA.wav
64,192,4316,1,0,0:0:0:0:
320,192,4470,1,0,0:0:0:45:CHENG.wav
448,192,4470,1,0,0:0:0:0:
320,192,4778,1,0,0:0:0:45:CHENG.wav
448,192,4778,1,0,0:0:0:0:
320,192,5085,1,0,0:0:0:45:CHENG.wav
448,192,5085,1,0,0:0:0:0:
64,192,5239,1,0,0:0:0:45:LETTHEBASSKICK.wav
192,192,5393,1,0,0:0:0:45:LETTHEBASSKICK.wav
448,192,5547,1,0,0:0:0:45:CWAA.wav
64,192,5547,1,0,0:0:0:0:
320,192,5855,1,0,0:0:0:45:CHENG.wav
192,192,5855,1,0,0:0:0:45:LETTHEBASSKICK.wav
448,192,6162,1,0,0:0:0:45:CWAA.wav
64,192,6162,1,0,0:0:0:0:
192,192,6470,1,0,0:0:0:45:LETTHEBASSKICK.wav
320,192,6778,1,0,0:0:0:45:CWAA.wav
448,192,6778,1,0,0:0:0:0:
192,192,6932,1,0,0:0:0:45:CHENG.wav
64,192,6932,1,0,0:0:0:0:
192,192,7239,1,0,0:0:0:45:CHENG.wav
64,192,7239,1,0,0:0:0:0:
192,192,7547,1,0,0:0:0:45:CHENG.wav
64,192,7547,1,0,0:0:0:0:
320,192,7701,1,0,0:0:0:0:
192,192,7855,1,0,0:0:0:45:CWAA.wav
448,192,8008,1,0,0:0:0:45:LETTHEBASSKICK.wav
64,192,8008,1,0,0:0:0:45:CHENG.wav
320,192,8162,1,0,0:0:0:45:CHENG.wav
192,192,8162,1,0,0:0:0:45:LETTHEBASSKICK.wav
448,192,8316,1,0,0:0:0:0:
192,192,8624,1,0,0:0:0:45:CWAA.wav
64,192,8624,1,0,0:0:0:0:
320,192,8932,1,0,0:0:0:45:LETTHEBASSKICK.wav
448,192,9239,1,0,0:0:0:45:CWAA.wav
64,192,9239,1,0,0:0:0:0:
192,192,9547,1,0,0:0:0:45:LETTHEBASSKICK.wav
320,192,9855,1,0,0:0:0:45:CWAA.wav
448,192,9855,1,0,0:0:0:0:
64,192,10162,1,0,0:0:0:45:LETTHEBASSKICK.wav
192,192,10316,1,0,0:0:0:45:LETTHEBASSKICK.wav
448,192,10470,1,0,0:0:0:45:CWAA.wav
320,192,10624,1,0,0:0:0:45:LETTHEBASSKICK.wav
192,192,10778,1,0,0:0:0:45:LETTHEBASSKICK.wav
64,192,10778,1,0,0:0:0:45:CHENG.wav
320,192,11085,1,0,0:0:0:45:CWAA.wav
448,192,11085,1,0,0:0:0:0:
64,192,11393,1,0,0:0:0:45:LETTHEBASSKICK.wav
192,192,11701,1,0,0:0:0:45:CWAA.wav
320,192,11701,1,0,0:0:0:0:
64,192,11855,1,0,0:0:0:45:CHENG.wav
448,192,11855,1,0,0:0:0:0:
64,192,12162,1,0,0:0:0:45:CHENG.wav
448,192,12162,1,0,0:0:0:0:
448,192,12470,1,0,0:0:0:45:CHENG.wav
64,192,12470,1,0,0:0:0:0:
320,192,12624,1,0,0:0:0:45:CWAA.wav
192,192,12624,1,0,0:0:0:0:
64,192,12778,1,0,0:0:0:45:LETTHEBASSKICK.wav
192,192,12932,1,0,0:0:0:45:CWAA.wav
448,192,12932,1,0,0:0:0:0:
320,192,13239,1,0,0:0:0:45:LETTHEBASSKICK.wav
64,192,13547,1,0,0:0:0:45:CWAA.wav
448,192,13547,1,0,0:0:0:0:
192,192,13855,1,0,0:0:0:45:LETTHEBASSKICK.wav
448,192,14162,1,0,0:0:0:45:CWAA.wav
320,192,14162,1,0,0:0:0:0:
64,192,14316,1,0,0:0:0:45:CHENG.wav
192,192,14316,1,0,0:0:0:0:
64,192,14624,1,0,0:0:0:45:CHENG.wav
192,192,14624,1,0,0:0:0:0:
64,192,14932,1,0,0:0:0:45:CHENG.wav
192,192,14932,1,0,0:0:0:0:
448,192,15085,1,0,0:0:0:45:LETTHEBASSKICK.wav
320,192,15239,1,0,0:0:0:45:LETTHEBASSKICK.wav
64,192,15393,1,0,0:0:0:45:CWAA.wav
448,192,15393,1,0,0:0:0:0:
320,192,15701,1,0,0:0:0:45:LETTHEBASSKICK.wav
192,192,15701,1,0,0:0:0:0:
64,192,16008,1,0,0:0:0:45:CWAA.wav
448,192,16008,1,0,0:0:0:0:
320,192,16316,1,0,0:0:0:45:LETTHEBASSKICK.wav
64,192,16624,1,0,0:0:0:45:CWAA.wav
192,192,16624,1,0,0:0:0:0:
448,192,16932,1,0,0:0:0:45:LETTHEBASSKICK.wav
64,192,16932,1,0,0:0:0:0:
320,192,17239,1,0,0:0:0:45:CWAA.wav
192,192,17239,1,0,0:0:0:0:
64,192,17547,1,0,0:0:0:45:LETTHEBASSKICK.wav
448,192,17855,1,0,0:0:0:45:CWAA.wav
192,192,17855,1,0,0:0:0:0:
320,192,18162,1,0,0:0:0:45:CHENG.wav
64,192,18162,1,0,0:0:0:0:
192,192,18470,1,0,0:0:0:45:CWAA.wav
448,192,18778,1,0,0:0:0:45:CHENG.wav
64,192,18778,1,0,0:0:0:0:
320,192,19085,1,0,0:0:0:45:CWAA.wav
192,192,19393,1,0,0:0:0:45:CHENG.wav
64,192,19393,1,0,0:0:0:45:LETTHEBASSKICK.wav
320,192,19624,1,0,0:0:0:45:CHENG.wav
448,192,19624,1,0,0:0:0:45:LETTHEBASSKICK.wav
192,192,19855,1,0,0:0:0:45:CHENG.wav
64,192,19855,1,0,0:0:0:45:LETTHEBASSKICK.wav
64,192,20624,1,0,0:0:0:45:LETTHEBASSKICK.wav
448,192,20624,1,0,0:0:0:0:
320,192,21855,1,0,0:0:0:0:
192,192,22624,1,0,0:0:0:0:
64,192,23085,1,0,0:0:0:0:
448,192,23547,1,0,0:0:0:0:
64,192,25547,1,0,0:0:0:0:
192,192,26778,1,0,0:0:0:0:
320,192,27547,1,0,0:0:0:0:
448,192,28008,1,0,0:0:0:0:
192,192,28470,1,0,0:0:0:0:
448,192,30470,1,0,0:0:0:45:LETTHEBASSKICK.wav
64,192,30470,1,0,0:0:0:45:CHENG.wav
320,192,30778,1,0,0:0:0:0:
192,192,30932,1,0,0:0:0:0:
448,192,31239,1,0,0:0:0:0:
320,192,31547,1,0,0:0:0:0:
192,192,31855,1,0,0:0:0:0:
64,192,32162,1,0,0:0:0:0:
448,192,32470,1,0,0:0:0:0:
320,192,32624,1,0,0:0:0:0:
192,192,32778,1,0,0:0:0:0:
64,192,32932,1,0,0:0:0:45:LETTHEBASSKICK.wav
320,192,33239,1,0,0:0:0:45:LETTHEBASSKICK.wav
192,192,33393,1,0,0:0:0:45:LETTHEBASSKICK.wav
448,192,33701,1,0,0:0:0:45:LETTHEBASSKICK.wav
320,192,34008,1,0,0:0:0:45:LETTHEBASSKICK.wav
192,192,34316,1,0,0:0:0:45:LETTHEBASSKICK.wav
64,192,34624,1,0,0:0:0:45:LETTHEBASSKICK.wav
448,192,34778,1,0,0:0:0:45:LETTHEBASSKICK.wav
320,192,34932,1,0,0:0:0:45:LETTHEBASSKICK.wav
192,192,35085,1,0,0:0:0:45:LETTHEBASSKICK.wav
64,192,35239,1,0,0:0:0:45:LETTHEBASSKICK.wav
448,192,35393,1,0,0:0:0:45:LETTHEBASSKICK.wav
192,192,35547,1,0,0:0:0:45:LETTHEBASSKICK.wav
320,192,35701,1,0,0:0:0:45:LETTHEBASSKICK.wav
64,192,35855,1,0,0:0:0:45:LETTHEBASSKICK.wav
192,192,36008,1,0,0:0:0:45:LETTHEBASSKICK.wav
448,192,36162,1,0,0:0:0:45:LETTHEBASSKICK.wav
64,192,36316,1,0,0:0:0:45:LETTHEBASSKICK.wav
320,192,36470,1,0,0:0:0:45:LETTHEBASSKICK.wav
64,192,36624,1,0,0:0:0:45:LETTHEBASSKICK.wav
192,192,36778,1,0,0:0:0:45:LETTHEBASSKICK.wav
320,192,36932,1,0,0:0:0:45:LETTHEBASSKICK.wav
448,192,37085,1,0,0:0:0:45:LETTHEBASSKICK.wav
64,192,37239,1,0,0:0:0:45:LETTHEBASSKICK.wav
320,192,37393,1,0,0:0:0:45:LETTHEBASSKICK.wav
192,192,37547,1,0,0:0:0:45:LETTHEBASSKICK.wav
448,192,37701,1,0,0:0:0:45:LETTHEBASSKICK.wav
64,192,37855,1,0,0:0:0:45:LETTHEBASSKICK.wav
64,192,38008,1,0,0:0:0:45:LETTHEBASSKICK.wav
320,192,38162,1,0,0:0:0:45:LETTHEBASSKICK.wav
320,192,38316,1,0,0:0:0:45:LETTHEBASSKICK.wav
192,192,38470,1,0,0:0:0:45:LETTHEBASSKICK.wav
192,192,38624,1,0,0:0:0:45:LETTHEBASSKICK.wav
448,192,38778,1,0,0:0:0:45:LETTHEBASSKICK.wav
448,192,38932,1,0,0:0:0:45:LETTHEBASSKICK.wav
192,192,39085,1,0,0:0:0:45:LETTHEBASSKICK.wav
64,192,39085,1,0,0:0:0:45:CHENG.wav
192,192,39316,1,0,0:0:0:45:CHENG.wav
64,192,39316,1,0,0:0:0:45:LETTHEBASSKICK.wav
320,192,39547,1,0,0:0:0:45:CHENG.wav
448,192,39547,1,0,0:0:0:45:LETTHEBASSKICK.wav
320,192,39778,1,0,0:0:0:45:CHENG.wav
448,192,39778,1,0,0:0:0:45:LETTHEBASSKICK.wav
192,192,40008,1,0,0:0:0:45:CHENG.wav
64,192,40008,1,0,0:0:0:45:LETTHEBASSKICK.wav
320,192,40316,1,0,0:0:0:45:CHENG.wav
448,192,40316,1,0,0:0:0:45:LETTHEBASSKICK.wav
192,192,41066,1,0,0:0:0:45:LETTHEBASSKICK.wav
64,192,41066,1,0,0:0:0:45:CHENG.wav
320,192,41816,1,0,0:0:0:45:LETTHEBASSKICK.wav
448,192,41816,1,0,0:0:0:45:CHENG.wav
192,192,42673,1,0,0:0:0:45:LETTHEBASSKICK.wav
64,192,42673,1,0,0:0:0:45:CHENG.wav
448,192,43673,1,0,0:0:0:45:CHENG.wav
64,192,43673,1,0,0:0:0:45:LETTHEBASSKICK.wav
192,192,44339,1,0,0:0:0:45:CWAA.wav
448,192,44339,1,0,0:0:0:0:
192,192,45339,1,0,0:0:0:45:LETTHEBASSKICK.wav
320,192,45673,1,0,0:0:0:45:CWAA.wav
64,192,45673,1,0,0:0:0:0:
192,192,46339,1,0,0:0:0:45:LETTHEBASSKICK.wav
448,192,46980,1,0,0:0:0:45:CWAA.wav
64,192,46980,1,0,0:0:0:0:
192,192,47775,1,0,0:0:0:45:LETTHEBASSKICK.wav
320,192,48025,1,0,0:0:0:45:CWAA.wav
64,192,48025,1,0,0:0:0:0:
448,192,48525,1,0,0:0:0:45:CHENG.wav
320,192,48525,1,0,0:0:0:45:LETTHEBASSKICK.wav
192,192,48986,1,0,0:0:0:45:CWAA.wav
64,192,48986,1,0,0:0:0:0:
320,192,49662,1,0,0:0:0:45:LETTHEBASSKICK.wav
448,192,49876,1,0,0:0:0:45:CWAA.wav
192,192,49876,1,0,0:0:0:0:
64,192,50305,1,0,0:0:0:45:LETTHEBASSKICK.wav
320,192,50705,1,0,0:0:0:45:CWAA.wav
448,192,50705,1,0,0:0:0:0:
192,192,51281,1,0,0:0:0:45:LETTHEBASSKICK.wav
320,192,51457,1,0,0:0:0:45:CWAA.wav
64,192,51457,1,0,0:0:0:0:
192,192,51810,1,0,0:0:0:45:CHENG.wav
448,192,51810,1,0,0:0:0:0:
192,192,52765,1,0,0:0:0:45:CWAA.wav
448,192,53050,1,0,0:0:0:45:CHENG.wav
64,192,53050,1,0,0:0:0:0:
320,192,53894,1,0,0:0:0:0:
448,192,54144,1,0,0:0:0:45:CHENG.wav
64,192,54144,1,0,0:0:0:0:
320,192,54624,1,0,0:0:0:45:CHENG.wav
192,192,54624,1,0,0:0:0:0:
448,192,55104,1,0,0:0:0:45:CHENG.wav
64,192,55104,1,0,0:0:0:0:
448,192,55548,1,0,0:0:0:45:CHENG.wav
64,192,55548,1,0,0:0:0:0:
320,192,55992,1,0,0:0:0:45:CHENG.wav
192,192,55992,1,0,0:0:0:0:
448,192,59617,1,0,0:0:0:0:
64,192,59617,1,0,0:0:0:0:
320,192,59992,1,0,0:0:0:45:LETTHEBASSKICK.wav
448,192,59992,1,0,0:0:0:0:
192,192,60222,1,0,0:0:0:45:LETTHEBASSKICK.wav
64,192,60222,1,0,0:0:0:0:
64,192,60453,1,0,0:0:0:45:LETTHEBASSKICK.wav
448,192,60453,1,0,0:0:0:0:
320,192,60684,1,0,0:0:0:45:LETTHEBASSKICK.wav
192,192,60684,1,0,0:0:0:0:
448,192,60915,1,0,0:0:0:45:LETTHEBASSKICK.wav
64,192,60915,1,0,0:0:0:0:
320,192,61068,1,0,0:0:0:45:LETTHEBASSKICK.wav
192,192,61068,1,0,0:0:0:0:
64,192,61222,1,0,0:0:0:45:CHENG.wav
448,192,61222,1,0,0:0:0:45:LETTHEBASSKICK.wav
192,192,61376,1,0,0:0:0:0:
448,192,61530,1,0,0:0:0:45:CWAA.wav
64,192,61684,1,0,0:0:0:0:
320,192,61838,1,0,0:0:0:45:LETTHEBASSKICK.wav
192,192,61992,1,0,0:0:0:0:
448,192,62145,1,0,0:0:0:45:CWAA.wav
64,192,62299,1,0,0:0:0:0:
320,192,62453,1,0,0:0:0:45:LETTHEBASSKICK.wav
448,192,62607,1,0,0:0:0:0:
192,192,62761,1,0,0:0:0:45:CWAA.wav
320,192,62915,1,0,0:0:0:0:
64,192,63068,1,0,0:0:0:45:LETTHEBASSKICK.wav
192,192,63222,1,0,0:0:0:0:
448,192,63376,1,0,0:0:0:45:CWAA.wav
320,192,63530,1,0,0:0:0:0:
64,192,63684,1,0,0:0:0:45:LETTHEBASSKICK.wav
192,192,63838,1,0,0:0:0:0:
320,192,63992,1,0,0:0:0:45:CWAA.wav
448,192,64145,1,0,0:0:0:0:
192,192,64299,1,0,0:0:0:45:LETTHEBASSKICK.wav
64,192,64453,1,0,0:0:0:0:
320,192,64607,1,0,0:0:0:45:CWAA.wav
192,192,64761,1,0,0:0:0:0:
448,192,64915,1,0,0:0:0:45:LETTHEBASSKICK.wav
320,192,65068,1,0,0:0:0:0:
192,192,65222,1,0,0:0:0:45:CWAA.wav
64,192,65376,1,0,0:0:0:0:
320,192,65530,1,0,0:0:0:45:LETTHEBASSKICK.wav
448,192,65684,1,0,0:0:0:0:
192,192,65838,1,0,0:0:0:45:CWAA.wav
320,192,65992,1,0,0:0:0:0:
448,192,66145,1,0,0:0:0:45:LETTHEBASSKICK.wav
64,192,66145,1,0,0:0:0:45:CHENG.wav
192,192,66299,1,0,0:0:0:0:
448,192,66453,1,0,0:0:0:45:CWAA.wav
320,192,66607,1,0,0:0:0:0:
192,192,66761,1,0,0:0:0:45:LETTHEBASSKICK.wav
64,192,66915,1,0,0:0:0:0:
448,192,67068,1,0,0:0:0:45:CWAA.wav
192,192,67222,1,0,0:0:0:0:
320,192,67376,1,0,0:0:0:45:LETTHEBASSKICK.wav
448,192,67530,1,0,0:0:0:0:
192,192,67684,1,0,0:0:0:45:CWAA.wav
320,192,67838,1,0,0:0:0:0:
64,192,67992,1,0,0:0:0:45:LETTHEBASSKICK.wav
192,192,68145,1,0,0:0:0:0:
320,192,68299,1,0,0:0:0:45:CWAA.wav
448,192,68453,1,0,0:0:0:0:
64,192,68607,1,0,0:0:0:45:LETTHEBASSKICK.wav
320,192,68761,1,0,0:0:0:0:
192,192,68915,1,0,0:0:0:45:CWAA.wav
448,192,69068,1,0,0:0:0:0:
192,192,69222,1,0,0:0:0:45:LETTHEBASSKICK.wav
64,192,69376,1,0,0:0:0:0:
320,192,69530,1,0,0:0:0:45:CWAA.wav
192,192,69684,1,0,0:0:0:0:
448,192,69838,1,0,0:0:0:45:LETTHEBASSKICK.wav
320,192,69992,1,0,0:0:0:0:
192,192,70145,1,0,0:0:0:45:CWAA.wav
64,192,70299,1,0,0:0:0:0:
320,192,70453,1,0,0:0:0:45:LETTHEBASSKICK.wav
448,192,70607,1,0,0:0:0:0:
192,192,70761,1,0,0:0:0:45:CWAA.wav
320,192,70915,1,0,0:0:0:0:
192,192,71068,1,0,0:0:0:45:CHENG.wav
64,192,71068,1,0,0:0:0:45:LETTHEBASSKICK.wav
448,192,71222,1,0,0:0:0:0:
64,192,71376,1,0,0:0:0:45:CWAA.wav
320,192,71530,1,0,0:0:0:0:
192,192,71684,1,0,0:0:0:45:LETTHEBASSKICK.wav
448,192,71838,1,0,0:0:0:0:
64,192,71992,1,0,0:0:0:45:CWAA.wav
192,192,72145,1,0,0:0:0:0:
320,192,72299,1,0,0:0:0:45:LETTHEBASSKICK.wav
64,192,72453,1,0,0:0:0:0:
448,192,72607,1,0,0:0:0:45:CWAA.wav
320,192,72761,1,0,0:0:0:0:
192,192,72915,1,0,0:0:0:45:LETTHEBASSKICK.wav
448,192,73068,1,0,0:0:0:0:
64,192,73222,1,0,0:0:0:45:CWAA.wav
192,192,73376,1,0,0:0:0:0:
448,192,73530,1,0,0:0:0:45:LETTHEBASSKICK.wav
320,192,73684,1,0,0:0:0:0:
192,192,73838,1,0,0:0:0:45:CWAA.wav
64,192,73992,1,0,0:0:0:0:
320,192,74145,1,0,0:0:0:45:LETTHEBASSKICK.wav
448,192,74299,1,0,0:0:0:0:
192,192,74453,1,0,0:0:0:45:CWAA.wav
64,192,74607,1,0,0:0:0:0:
320,192,74761,1,0,0:0:0:45:LETTHEBASSKICK.wav
64,192,74915,1,0,0:0:0:0:
448,192,75068,1,0,0:0:0:45:CWAA.wav
192,192,75222,1,0,0:0:0:0:
448,192,75376,1,0,0:0:0:45:LETTHEBASSKICK.wav
320,192,75530,1,0,0:0:0:0:
64,192,75684,1,0,0:0:0:45:CWAA.wav
192,192,75838,1,0,0:0:0:0:
320,192,75992,1,0,0:0:0:45:LETTHEBASSKICK.wav
448,192,75992,1,0,0:0:0:45:CHENG.wav
64,192,76145,1,0,0:0:0:0:
320,192,76299,1,0,0:0:0:45:CWAA.wav
192,192,76453,1,0,0:0:0:0:
448,192,76607,1,0,0:0:0:45:LETTHEBASSKICK.wav
320,192,76761,1,0,0:0:0:0:
64,192,76915,1,0,0:0:0:45:CWAA.wav
192,192,77068,1,0,0:0:0:0:
320,192,77222,1,0,0:0:0:45:LETTHEBASSKICK.wav
448,192,77376,1,0,0:0:0:0:
192,192,77530,1,0,0:0:0:45:CWAA.wav
64,192,77684,1,0,0:0:0:0:
448,192,77838,1,0,0:0:0:45:LETTHEBASSKICK.wav
320,192,77992,1,0,0:0:0:0:
64,192,78145,1,0,0:0:0:45:CWAA.wav
192,192,78299,1,0,0:0:0:0:
448,192,78453,1,0,0:0:0:45:LETTHEBASSKICK.wav
64,192,78607,1,0,0:0:0:0:
320,192,78761,1,0,0:0:0:45:CWAA.wav
192,192,78915,1,0,0:0:0:0:
448,192,79068,1,0,0:0:0:45:LETTHEBASSKICK.wav
320,192,79222,1,0,0:0:0:0:
192,192,79376,1,0,0:0:0:45:CWAA.wav
64,192,79530,1,0,0:0:0:45:CHENG.wav
448,192,79530,1,0,0:0:0:45:LETTHEBASSKICK.wav
448,192,79838,1,0,0:0:0:45:CHENG.wav
64,192,79838,1,0,0:0:0:45:LETTHEBASSKICK.wav
320,192,80145,1,0,0:0:0:45:CHENG.wav
192,192,80145,1,0,0:0:0:45:LETTHEBASSKICK.wav
64,192,80376,1,0,0:0:0:0:
448,192,80607,1,0,0:0:0:45:CWAA.wav
320,192,80607,128,0,80915:0:0:0:0:
192,192,80915,128,0,81222:0:0:0:0:
64,192,80915,1,0,0:0:0:0:
320,192,81222,1,0,0:0:0:45:LETTHEBASSKICK.wav
448,192,81376,1,0,0:0:0:45:CHENG.wav
64,192,81376,1,0,0:0:0:0:
192,192,81530,1,0,0:0:0:45:LETTHEBASSKICK.wav
448,192,81684,1,0,0:0:0:45:CHENG.wav
64,192,81684,1,0,0:0:0:0:
320,192,81838,1,0,0:0:0:45:CWAA.wav
448,192,81992,1,0,0:0:0:45:CHENG.wav
64,192,81992,1,0,0:0:0:0:
192,192,82145,1,0,0:0:0:0:
320,192,82299,1,0,0:0:0:45:LETTHEBASSKICK.wav
192,192,82453,1,0,0:0:0:45:CWAA.wav
64,192,82453,1,0,0:0:0:0:
448,192,82607,1,0,0:0:0:0:
64,192,82761,1,0,0:0:0:0:
320,192,82915,1,0,0:0:0:45:LETTHEBASSKICK.wav
448,192,83068,1,0,0:0:0:45:CWAA.wav
192,192,83068,1,0,0:0:0:0:
64,192,83222,1,0,0:0:0:0:
320,192,83376,1,0,0:0:0:45:CHENG.wav
448,192,83376,1,0,0:0:0:0:
192,192,83530,1,0,0:0:0:0:
64,192,83684,1,0,0:0:0:45:LETTHEBASSKICK.wav
320,192,83838,1,0,0:0:0:45:CHENG.wav
448,192,83838,1,0,0:0:0:0:
64,192,83992,1,0,0:0:0:0:
192,192,84145,1,0,0:0:0:45:CHENG.wav
320,192,84145,1,0,0:0:0:0:
448,192,84299,1,0,0:0:0:45:CWAA.wav
192,192,84453,1,0,0:0:0:45:CHENG.wav
64,192,84453,1,0,0:0:0:0:
320,192,84607,1,0,0:0:0:0:
448,192,84761,1,0,0:0:0:45:LETTHEBASSKICK.wav
192,192,84915,1,0,0:0:0:45:CWAA.wav
64,192,84915,1,0,0:0:0:0:
448,192,85068,1,0,0:0:0:0:
320,192,85222,1,0,0:0:0:0:
192,192,85376,1,0,0:0:0:45:LETTHEBASSKICK.wav
320,192,85530,1,0,0:0:0:45:CWAA.wav
448,192,85530,1,0,0:0:0:0:
64,192,85684,1,0,0:0:0:0:
320,192,85838,1,0,0:0:0:45:CHENG.wav
448,192,85838,1,0,0:0:0:45:LETTHEBASSKICK.wav
192,192,85992,1,0,0:0:0:0:
64,192,86145,1,0,0:0:0:45:CWAA.wav
448,192,86299,1,0,0:0:0:0:
192,192,86453,1,0,0:0:0:45:LETTHEBASSKICK.wav
320,192,86607,1,0,0:0:0:0:
448,192,86761,1,0,0:0:0:45:CHENG.wav
64,192,86915,1,0,0:0:0:0:
320,192,87068,1,0,0:0:0:45:LETTHEBASSKICK.wav
192,192,87222,1,0,0:0:0:0:
448,192,87376,1,0,0:0:0:45:CWAA.wav
320,192,87530,1,0,0:0:0:0:
64,192,87684,1,0,0:0:0:45:LETTHEBASSKICK.wav
192,192,87838,1,0,0:0:0:0:
320,192,87992,1,0,0:0:0:45:CWAA.wav
448,192,88145,1,0,0:0:0:0:
192,192,88299,1,0,0:0:0:45:LETTHEBASSKICK.wav
320,192,88453,1,0,0:0:0:0:
64,192,88607,1,0,0:0:0:45:CWAA.wav
448,192,88761,1,0,0:0:0:0:
192,192,88915,1,0,0:0:0:45:LETTHEBASSKICK.wav
64,192,89068,1,0,0:0:0:0:
320,192,89222,1,0,0:0:0:45:CWAA.wav
192,192,89376,1,0,0:0:0:45:LETTHEBASSKICK.wav
64,192,89376,1,0,0:0:0:45:CHENG.wav
320,192,89684,1,0,0:0:0:45:LETTHEBASSKICK.wav
448,192,89838,1,0,0:0:0:45:CHENG.wav
192,192,89838,1,0,0:0:0:45:CWAA.wav
320,192,90145,1,0,0:0:0:45:CWAA.wav
448,192,90145,1,0,0:0:0:0:
192,192,90453,1,0,0:0:0:45:CWAA.wav
64,192,90453,1,0,0:0:0:0:
320,192,90607,1,0,0:0:0:0:
448,192,90761,128,0,91992:0:0:0:0:
192,192,91992,1,0,0:0:0:45:LETTHEBASSKICK.wav
64,192,91992,1,0,0:0:0:45:CHENG.wav
320,192,92222,1,0,0:0:0:0:
192,192,92453,1,0,0:0:0:0:
320,192,92684,1,0,0:0:0:0:
448,192,92915,1,0,0:0:0:0:
320,192,93068,1,0,0:0:0:0:
192,192,93222,1,0,0:0:0:0:
320,192,93453,1,0,0:0:0:0:
192,192,93684,1,0,0:0:0:0:
320,192,93915,1,0,0:0:0:0:
64,192,94145,1,0,0:0:0:0:
192,192,94299,1,0,0:0:0:0:
320,192,94453,1,0,0:0:0:0:
448,192,94684,1,0,0:0:0:0:
192,192,94915,1,0,0:0:0:0:
192,192,95145,1,0,0:0:0:0:
320,192,95376,1,0,0:0:0:0:
64,192,95530,1,0,0:0:0:0:
448,192,95684,1,0,0:0:0:0:
192,192,95915,1,0,0:0:0:0:
320,192,96145,1,0,0:0:0:0:
64,192,96376,1,0,0:0:0:0:
192,192,96607,1,0,0:0:0:0:
320,192,96761,1,0,0:0:0:0:
448,192,96915,1,0,0:0:0:0:
64,192,97145,1,0,0:0:0:0:
320,192,97376,1,0,0:0:0:0:
192,192,97607,1,0,0:0:0:0:
448,192,97838,1,0,0:0:0:0:
320,192,97992,1,0,0:0:0:0:
192,192,98145,1,0,0:0:0:0:
448,192,98376,1,0,0:0:0:0:
64,192,98607,1,0,0:0:0:0:
320,192,98838,1,0,0:0:0:0:
64,192,99068,1,0,0:0:0:0:
192,192,99222,1,0,0:0:0:0:
320,192,99376,1,0,0:0:0:0:
64,192,99607,1,0,0:0:0:0:
448,192,99838,1,0,0:0:0:0:
448,192,100068,1,0,0:0:0:0:
192,192,100299,1,0,0:0:0:0:
320,192,100453,1,0,0:0:0:0:
192,192,100607,1,0,0:0:0:45:LETTHEBASSKICK.wav
64,192,100607,1,0,0:0:0:45:CHENG.wav
320,192,100838,1,0,0:0:0:45:CHENG.wav
448,192,100838,1,0,0:0:0:45:LETTHEBASSKICK.wav
192,192,101068,1,0,0:0:0:45:LETTHEBASSKICK.wav
64,192,101068,1,0,0:0:0:45:CHENG.wav
320,192,101299,1,0,0:0:0:45:LETTHEBASSKICK.wav
448,192,101299,1,0,0:0:0:45:CHENG.wav
192,192,101530,1,0,0:0:0:45:LETTHEBASSKICK.wav
64,192,101530,1,0,0:0:0:45:CHENG.wav
320,192,101684,1,0,0:0:0:45:LETTHEBASSKICK.wav
448,192,101684,1,0,0:0:0:45:CHENG.wav
192,192,101838,1,0,0:0:0:45:LETTHEBASSKICK.wav
64,192,101838,1,0,0:0:0:0:
448,192,102145,1,0,0:0:0:45:CHENG.wav
64,192,102145,1,0,0:0:0:45:LETTHEBASSKICK.wav
192,192,102299,1,0,0:0:0:0:
448,192,102453,1,0,0:0:0:45:LETTHEBASSKICK.wav
64,192,102607,1,0,0:0:0:0:
320,192,102761,1,0,0:0:0:45:CWAA.wav
448,192,102761,1,0,0:0:0:0:
192,192,102915,1,0,0:0:0:0:
448,192,103068,1,0,0:0:0:45:LETTHEBASSKICK.wav
64,192,103222,1,0,0:0:0:0:
320,192,103376,1,0,0:0:0:45:CWAA.wav
192,192,103376,1,0,0:0:0:0:
448,192,103530,1,0,0:0:0:0:
192,192,103684,1,0,0:0:0:45:LETTHEBASSKICK.wav
320,192,103838,1,0,0:0:0:0:
64,192,103992,1,0,0:0:0:45:CWAA.wav
448,192,103992,1,0,0:0:0:0:
192,192,104145,1,0,0:0:0:0:
448,192,104299,1,0,0:0:0:45:LETTHEBASSKICK.wav
320,192,104453,1,0,0:0:0:0:
64,192,104607,1,0,0:0:0:45:CWAA.wav
448,192,104607,1,0,0:0:0:0:
192,192,104761,1,0,0:0:0:0:
448,192,104915,1,0,0:0:0:45:LETTHEBASSKICK.wav
320,192,105068,1,0,0:0:0:0:
192,192,105222,1,0,0:0:0:45:CWAA.wav
64,192,105222,1,0,0:0:0:0:
448,192,105376,1,0,0:0:0:0:
320,192,105530,1,0,0:0:0:45:LETTHEBASSKICK.wav
192,192,105684,1,0,0:0:0:0:
448,192,105838,1,0,0:0:0:45:CWAA.wav
64,192,105838,1,0,0:0:0:0:
320,192,105992,1,0,0:0:0:0:
192,192,106145,1,0,0:0:0:45:LETTHEBASSKICK.wav
64,192,106299,1,0,0:0:0:0:
320,192,106453,1,0,0:0:0:45:CWAA.wav
192,192,106453,1,0,0:0:0:0:
448,192,106607,1,0,0:0:0:0:
192,192,106761,1,0,0:0:0:45:CHENG.wav
64,192,106761,1,0,0:0:0:45:LETTHEBASSKICK.wav
320,192,106915,1,0,0:0:0:0:
64,192,107068,1,0,0:0:0:45:CWAA.wav
448,192,107068,1,0,0:0:0:0:
192,192,107222,1,0,0:0:0:0:
448,192,107376,1,0,0:0:0:45:LETTHEBASSKICK.wav
320,192,107530,1,0,0:0:0:0:
192,192,107684,1,0,0:0:0:45:CWAA.wav
64,192,107684,1,0,0:0:0:0:
320,192,107838,1,0,0:0:0:0:
448,192,107992,1,0,0:0:0:45:LETTHEBASSKICK.wav
192,192,108145,1,0,0:0:0:0:
320,192,108299,1,0,0:0:0:45:CWAA.wav
64,192,108299,1,0,0:0:0:0:
448,192,108453,1,0,0:0:0:0:
192,192,108607,1,0,0:0:0:45:LETTHEBASSKICK.wav
320,192,108761,1,0,0:0:0:0:
192,192,108915,1,0,0:0:0:45:CWAA.wav
448,192,108915,1,0,0:0:0:0:
64,192,109068,1,0,0:0:0:0:
320,192,109222,1,0,0:0:0:45:LETTHEBASSKICK.wav
448,192,109376,1,0,0:0:0:0:
64,192,109530,1,0,0:0:0:45:CWAA.wav
192,192,109530,1,0,0:0:0:0:
320,192,109684,1,0,0:0:0:0:
192,192,109838,1,0,0:0:0:45:LETTHEBASSKICK.wav
320,192,109992,1,0,0:0:0:0:
192,192,110145,1,0,0:0:0:45:CWAA.wav
448,192,110145,1,0,0:0:0:0:
64,192,110299,1,0,0:0:0:45:CHENG.wav
320,192,110299,1,0,0:0:0:45:LETTHEBASSKICK.wav
192,192,110607,1,0,0:0:0:45:CHENG.wav
448,192,110607,1,0,0:0:0:45:LETTHEBASSKICK.wav
320,192,110915,1,0,0:0:0:45:LETTHEBASSKICK.wav
64,192,110915,1,0,0:0:0:45:CHENG.wav
192,192,111145,1,0,0:0:0:0:
64,192,111376,1,0,0:0:0:45:CWAA.wav
320,192,111376,128,0,111684:0:0:0:0:
192,192,111684,128,0,111992:0:0:0:0:
448,192,111684,1,0,0:0:0:0:
320,192,111992,1,0,0:0:0:45:LETTHEBASSKICK.wav
448,192,112145,1,0,0:0:0:45:CHENG.wav
64,192,112145,1,0,0:0:0:45:LETTHEBASSKICK.wav
192,192,112299,1,0,0:0:0:45:LETTHEBASSKICK.wav
448,192,112453,1,0,0:0:0:45:CHENG.wav
64,192,112453,1,0,0:0:0:0:
320,192,112607,1,0,0:0:0:45:CWAA.wav
64,192,112761,1,0,0:0:0:45:CHENG.wav
448,192,112761,1,0,0:0:0:0:
192,192,112915,1,0,0:0:0:0:
320,192,113068,1,0,0:0:0:45:LETTHEBASSKICK.wav
64,192,113222,1,0,0:0:0:45:CWAA.wav
192,192,113222,1,0,0:0:0:0:
448,192,113376,1,0,0:0:0:0:
64,192,113530,1,0,0:0:0:0:
320,192,113684,1,0,0:0:0:45:LETTHEBASSKICK.wav
448,192,113838,1,0,0:0:0:45:CWAA.wav
192,192,113838,1,0,0:0:0:0:
64,192,113992,1,0,0:0:0:0:
448,192,114145,1,0,0:0:0:45:CHENG.wav
320,192,114145,1,0,0:0:0:45:LETTHEBASSKICK.wav
192,192,114299,1,0,0:0:0:0:
64,192,114453,1,0,0:0:0:45:CWAA.wav
320,192,114607,1,0,0:0:0:45:CHENG.wav
448,192,114607,1,0,0:0:0:0:
64,192,114761,1,0,0:0:0:0:
320,192,114915,1,0,0:0:0:45:CHENG.wav
192,192,114915,1,0,0:0:0:0:
448,192,115068,1,0,0:0:0:45:CWAA.wav
64,192,115222,1,0,0:0:0:45:CHENG.wav
192,192,115222,1,0,0:0:0:0:
320,192,115376,1,0,0:0:0:0:
448,192,115530,1,0,0:0:0:45:LETTHEBASSKICK.wav
192,192,115684,1,0,0:0:0:45:CWAA.wav
64,192,115684,1,0,0:0:0:0:
448,192,115838,1,0,0:0:0:0:
320,192,115992,1,0,0:0:0:0:
192,192,116145,1,0,0:0:0:45:LETTHEBASSKICK.wav
320,192,116299,1,0,0:0:0:45:CWAA.wav
448,192,116299,1,0,0:0:0:0:
64,192,116453,1,0,0:0:0:0:
448,192,116607,1,0,0:0:0:45:CHENG.wav
320,192,116607,1,0,0:0:0:45:LETTHEBASSKICK.wav
192,192,116761,1,0,0:0:0:0:
320,192,116915,1,0,0:0:0:45:CWAA.wav
64,192,116915,1,0,0:0:0:0:
448,192,117068,1,0,0:0:0:45:CHENG.wav
192,192,117068,1,0,0:0:0:0:
192,192,117376,1,0,0:0:0:45:LETTHEBASSKICK.wav
320,192,117376,1,0,0:0:0:45:CHENG.wav
448,192,117530,1,0,0:0:0:45:CWAA.wav
64,192,117530,1,0,0:0:0:0:
320,192,117684,1,0,0:0:0:45:CHENG.wav
192,192,117684,1,0,0:0:0:0:
64,192,117992,1,0,0:0:0:45:LETTHEBASSKICK.wav
448,192,118145,1,0,0:0:0:45:CWAA.wav
192,192,118145,1,0,0:0:0:0:
320,192,118299,1,0,0:0:0:0:
64,192,118453,1,0,0:0:0:0:
192,192,118607,1,0,0:0:0:45:LETTHEBASSKICK.wav
320,192,118761,1,0,0:0:0:45:CWAA.wav
448,192,118761,1,0,0:0:0:0:
192,192,118915,1,0,0:0:0:45:CHENG.wav
64,192,118915,1,0,0:0:0:0:
448,192,119068,1,0,0:0:0:0:
320,192,119222,1,0,0:0:0:0:
64,192,119376,1,0,0:0:0:45:CWAA.wav
448,192,119530,1,0,0:0:0:0:
192,192,119684,1,0,0:0:0:0:
64,192,119838,1,0,0:0:0:0:
320,192,119992,1,0,0:0:0:45:CWAA.wav
192,192,120145,1,0,0:0:0:45:CHENG.wav
64,192,120145,1,0,0:0:0:0:
320,192,120453,1,0,0:0:0:45:LETTHEBASSKICK.wav
192,192,120607,1,0,0:0:0:45:CHENG.wav
448,192,120607,1,0,0:0:0:0:
64,192,120761,1,0,0:0:0:45:LETTHEBASSKICK.wav
192,192,120915,1,0,0:0:0:45:CHENG.wav
320,192,120915,1,0,0:0:0:0:
448,192,121068,1,0,0:0:0:45:LETTHEBASSKICK.wav
192,192,121222,1,0,0:0:0:45:CWAA.wav
64,192,121222,1,0,0:0:0:0:
320,192,121376,1,0,0:0:0:0:
448,192,121530,128,0,122761:0:0:0:0:
