osu file format v14

[General]
AudioFilename: 1-33 FLOWER.mp3
AudioLeadIn: 0
PreviewTime: 48589
Countdown: 0
SampleSet: None
StackLeniency: 0.7
Mode: 1
LetterboxInBreaks: 0
WidescreenStoryboard: 0

[Editor]
DistanceSpacing: 1.1
BeatDivisor: 4
GridSize: 32
TimelineZoom: 3.499999

[Metadata]
Title:FLOWER
TitleUnicode:FLOWER
Artist:DJ YOSHITAKA
ArtistUnicode:DJ YOSHITAKA
Creator:TKS
Version:Oni
Source:
Tags:
BeatmapID:2420943
BeatmapSetID:1160312

[Difficulty]
HPDrainRate:6
CircleSize:5
OverallDifficulty:6
ApproachRate:5
SliderMultiplier:1.4
SliderTickRate:1

[Events]
//Background and Video events
0,0,"125140093069633.jpg",0,-40
//Break Periods
//Storyboard Layer 0 (Background)
//Storyboard Layer 1 (Fail)
//Storyboard Layer 2 (Pass)
//Storyboard Layer 3 (Foreground)
//Storyboard Layer 4 (Overlay)
//Storyboard Sound Samples

[TimingPoints]
128,346.820809248555,4,1,0,80,1,0
4405,-100,4,1,0,5,0,0
5272,-100,4,1,0,100,0,0
5619,-100,4,1,0,70,0,0
16023,-100,4,1,0,80,0,0
16717,-100,4,1,0,90,0,0
50070,-100,4,1,0,90,0,1
83364,-50,4,1,0,90,0,0
86081,-111.111111111111,4,1,0,70,0,0
91688,-105.263157894737,4,1,0,85,0,0
95850,-95.2380952380952,4,1,0,85,0,0
97237,-95.2380952380952,4,1,0,85,0,1
119347,-95.2380952380952,4,1,0,10,0,1
119434,-95.2380952380952,4,1,0,10,0,0

[HitObjects]
256,192,128,5,0,0:0:0:0:
256,192,214,1,0,0:0:0:0:
256,192,301,1,0,0:0:0:0:
256,192,474,1,8,0:0:0:0:
256,192,648,1,0,0:0:0:0:
256,192,821,1,8,0:0:0:0:
256,192,908,1,8,0:0:0:0:
256,192,995,1,0,0:0:0:0:
256,192,1081,1,0,0:0:0:0:
256,192,1168,1,8,0:0:0:0:
256,192,1341,1,0,0:0:0:0:
256,192,1515,1,8,0:0:0:0:
256,192,1688,1,0,0:0:0:0:
256,192,1775,1,0,0:0:0:0:
256,192,1862,1,8,0:0:0:0:
256,192,2035,1,8,0:0:0:0:
256,192,2122,1,8,0:0:0:0:
256,192,2208,1,0,0:0:0:0:
256,192,2295,1,0,0:0:0:0:
256,192,2382,1,0,0:0:0:0:
256,192,2469,1,0,0:0:0:0:
256,192,2902,1,0,0:0:0:0:
256,192,2989,1,0,0:0:0:0:
256,192,3075,1,0,0:0:0:0:
256,192,3249,1,8,0:0:0:0:
256,192,3336,1,0,0:0:0:0:
256,192,3422,1,8,0:0:0:0:
256,192,3509,1,0,0:0:0:0:
256,192,3596,1,8,0:0:0:0:
256,192,3769,1,8,0:0:0:0:
256,192,3856,1,0,0:0:0:0:
256,192,3943,1,8,0:0:0:0:
256,192,4029,1,8,0:0:0:0:
256,192,4116,1,0,0:0:0:0:
256,192,4174,1,0,0:0:0:0:
256,192,4232,1,0,0:0:0:0:
256,192,4289,1,8,0:0:0:0:
256,192,4463,12,0,5156,0:0:0:0:
256,192,5330,5,12,0:0:0:0:
256,192,5677,1,0,0:0:0:0:
256,192,5850,1,0,0:0:0:0:
256,192,6023,1,0,0:0:0:0:
256,192,6197,1,8,0:0:0:0:
256,192,6544,1,0,0:0:0:0:
256,192,6717,1,0,0:0:0:0:
256,192,6891,1,8,0:0:0:0:
256,192,7237,1,0,0:0:0:0:
256,192,7411,1,0,0:0:0:0:
256,192,7584,1,8,0:0:0:0:
256,192,7758,1,0,0:0:0:0:
256,192,7931,1,0,0:0:0:0:
256,192,8104,1,0,0:0:0:0:
256,192,8278,1,8,0:0:0:0:
256,192,8625,1,0,0:0:0:0:
256,192,8798,1,0,0:0:0:0:
256,192,8971,1,8,0:0:0:0:
256,192,9318,1,0,0:0:0:0:
256,192,9492,1,0,0:0:0:0:
256,192,9665,1,8,0:0:0:0:
256,192,9838,1,0,0:0:0:0:
256,192,10012,1,0,0:0:0:0:
256,192,10185,1,0,0:0:0:0:
256,192,10359,1,8,0:0:0:0:
256,192,10706,1,0,0:0:0:0:
256,192,10879,1,8,0:0:0:0:
256,192,11052,1,8,0:0:0:0:
256,192,11226,1,0,0:0:0:0:
256,192,11399,1,0,0:0:0:0:
256,192,11573,1,0,0:0:0:0:
256,192,11746,1,8,0:0:0:0:
256,192,12093,1,0,0:0:0:0:
256,192,12266,1,0,0:0:0:0:
256,192,12440,1,8,0:0:0:0:
256,192,12786,1,0,0:0:0:0:
256,192,12960,1,0,0:0:0:0:
256,192,13133,1,8,0:0:0:0:
256,192,13480,1,0,0:0:0:0:
256,192,13654,1,0,0:0:0:0:
256,192,13827,1,8,0:0:0:0:
256,192,14000,1,0,0:0:0:0:
256,192,14174,1,0,0:0:0:0:
256,192,14347,1,0,0:0:0:0:
256,192,14521,1,8,0:0:0:0:
256,192,14867,1,8,0:0:0:0:
256,192,15041,1,8,0:0:0:0:
256,192,15214,1,0,0:0:0:0:
256,192,15561,1,8,0:0:0:0:
256,192,15908,1,0,0:0:0:0:
256,192,16081,1,8,0:0:0:0:
256,192,16168,1,0,0:0:0:0:
256,192,16255,1,8,0:0:0:0:
256,192,16312,1,8,0:0:0:0:
256,192,16370,1,8,0:0:0:0:
256,192,16428,1,0,0:0:0:0:
256,192,16515,1,0,0:0:0:0:
256,192,16601,1,8,0:0:0:0:
256,192,16775,1,4,0:0:0:0:
256,192,16948,1,8,0:0:0:0:
256,192,17122,1,0,0:0:0:0:
256,192,17208,1,8,0:0:0:0:
256,192,17295,1,0,0:0:0:0:
256,192,17469,1,8,0:0:0:0:
256,192,17642,1,0,0:0:0:0:
256,192,17729,1,8,0:0:0:0:
256,192,17815,1,0,0:0:0:0:
256,192,17902,1,0,0:0:0:0:
256,192,17989,1,8,0:0:0:0:
256,192,18162,1,0,0:0:0:0:
256,192,18336,1,8,0:0:0:0:
256,192,18422,1,8,0:0:0:0:
256,192,18509,1,0,0:0:0:0:
256,192,18682,1,8,0:0:0:0:
256,192,18856,1,8,0:0:0:0:
256,192,18943,1,0,0:0:0:0:
256,192,19029,1,0,0:0:0:0:
256,192,19116,1,8,0:0:0:0:
256,192,19203,1,0,0:0:0:0:
256,192,19376,1,8,0:0:0:0:
256,192,19549,1,0,0:0:0:0:
256,192,19723,1,8,0:0:0:0:
256,192,19896,1,0,0:0:0:0:
256,192,19983,1,8,0:0:0:0:
256,192,20070,1,0,0:0:0:0:
256,192,20243,1,8,0:0:0:0:
256,192,20417,1,0,0:0:0:0:
256,192,20503,1,8,0:0:0:0:
256,192,20590,1,0,0:0:0:0:
256,192,20677,1,0,0:0:0:0:
256,192,20763,1,8,0:0:0:0:
256,192,20937,1,0,0:0:0:0:
256,192,21110,1,8,0:0:0:0:
256,192,21197,1,8,0:0:0:0:
256,192,21284,1,0,0:0:0:0:
256,192,21370,1,0,0:0:0:0:
256,192,21457,1,8,0:0:0:0:
256,192,21630,1,8,0:0:0:0:
256,192,21717,1,0,0:0:0:0:
256,192,21804,1,8,0:0:0:0:
256,192,21891,1,8,0:0:0:0:
256,192,21977,1,0,0:0:0:0:
256,192,22064,1,0,0:0:0:0:
256,192,22151,1,8,0:0:0:0:
256,192,22324,1,0,0:0:0:0:
256,192,22497,1,8,0:0:0:0:
256,192,22584,1,0,0:0:0:0:
256,192,22758,1,0,0:0:0:0:
256,192,22844,1,8,0:0:0:0:
256,192,23018,1,8,0:0:0:0:
256,192,23104,1,8,0:0:0:0:
256,192,23191,1,0,0:0:0:0:
256,192,23278,1,8,0:0:0:0:
256,192,23364,1,0,0:0:0:0:
256,192,23538,1,8,0:0:0:0:
256,192,23711,1,0,0:0:0:0:
256,192,23885,1,8,0:0:0:0:
256,192,23971,1,8,0:0:0:0:
256,192,24058,1,0,0:0:0:0:
256,192,24232,1,8,0:0:0:0:
256,192,24405,1,8,0:0:0:0:
256,192,24492,1,0,0:0:0:0:
256,192,24578,1,0,0:0:0:0:
256,192,24665,1,8,0:0:0:0:
256,192,24752,1,0,0:0:0:0:
256,192,24925,1,8,0:0:0:0:
256,192,25099,1,0,0:0:0:0:
256,192,25272,1,8,0:0:0:0:
256,192,25359,1,0,0:0:0:0:
256,192,25532,1,0,0:0:0:0:
256,192,25619,1,8,0:0:0:0:
256,192,25792,1,8,0:0:0:0:
256,192,25879,1,8,0:0:0:0:
256,192,25966,1,0,0:0:0:0:
256,192,26052,1,8,0:0:0:0:
256,192,26139,1,0,0:0:0:0:
256,192,26312,1,8,0:0:0:0:
256,192,26486,1,0,0:0:0:0:
256,192,26659,1,8,0:0:0:0:
256,192,26746,1,8,0:0:0:0:
256,192,26833,1,0,0:0:0:0:
256,192,26919,1,0,0:0:0:0:
256,192,27006,1,8,0:0:0:0:
256,192,27180,1,8,0:0:0:0:
256,192,27266,1,0,0:0:0:0:
256,192,27353,1,8,0:0:0:0:
256,192,27440,1,8,0:0:0:0:
256,192,27526,1,0,0:0:0:0:
256,192,27613,1,0,0:0:0:0:
256,192,27700,1,8,0:0:0:0:
256,192,27873,1,0,0:0:0:0:
256,192,28047,1,0,0:0:0:0:
256,192,28133,1,0,0:0:0:0:
256,192,28220,1,8,0:0:0:0:
256,192,28393,1,0,0:0:0:0:
256,192,28480,1,8,0:0:0:0:
256,192,28567,1,0,0:0:0:0:
256,192,28654,1,0,0:0:0:0:
256,192,28827,1,0,0:0:0:0:
256,192,28914,1,8,0:0:0:0:
256,192,29087,1,8,0:0:0:0:
256,192,29260,1,0,0:0:0:0:
256,192,29347,1,0,0:0:0:0:
256,192,29434,1,0,0:0:0:0:
256,192,29521,1,0,0:0:0:0:
256,192,29607,1,8,0:0:0:0:
256,192,29781,1,8,0:0:0:0:
256,192,29867,1,0,0:0:0:0:
256,192,30041,1,8,0:0:0:0:
256,192,30128,1,0,0:0:0:0:
256,192,30214,1,0,0:0:0:0:
256,192,30301,1,8,0:0:0:0:
256,192,30474,1,8,0:0:0:0:
256,192,30648,1,0,0:0:0:0:
256,192,30821,1,0,0:0:0:0:
256,192,30908,1,0,0:0:0:0:
256,192,30995,1,8,0:0:0:0:
256,192,31168,1,0,0:0:0:0:
256,192,31255,1,8,0:0:0:0:
256,192,31341,1,0,0:0:0:0:
256,192,31428,1,0,0:0:0:0:
256,192,31601,1,0,0:0:0:0:
256,192,31688,1,8,0:0:0:0:
256,192,31862,1,8,0:0:0:0:
256,192,32035,1,8,0:0:0:0:
256,192,32122,1,0,0:0:0:0:
256,192,32208,1,0,0:0:0:0:
256,192,32295,1,8,0:0:0:0:
256,192,32382,1,0,0:0:0:0:
256,192,32469,1,0,0:0:0:0:
256,192,32555,1,8,0:0:0:0:
256,192,32729,1,0,0:0:0:0:
256,192,32815,1,8,0:0:0:0:
256,192,32902,1,0,0:0:0:0:
256,192,32989,1,0,0:0:0:0:
256,192,33075,1,8,0:0:0:0:
256,192,33249,1,8,0:0:0:0:
256,192,33422,1,0,0:0:0:0:
256,192,33596,1,0,0:0:0:0:
256,192,33682,1,0,0:0:0:0:
256,192,33769,1,8,0:0:0:0:
256,192,33943,1,0,0:0:0:0:
256,192,34029,1,8,0:0:0:0:
256,192,34116,1,0,0:0:0:0:
256,192,34203,1,0,0:0:0:0:
256,192,34376,1,0,0:0:0:0:
256,192,34463,1,8,0:0:0:0:
256,192,34636,1,8,0:0:0:0:
256,192,34810,1,0,0:0:0:0:
256,192,34896,1,0,0:0:0:0:
256,192,34983,1,0,0:0:0:0:
256,192,35070,1,0,0:0:0:0:
256,192,35156,1,8,0:0:0:0:
256,192,35330,1,8,0:0:0:0:
256,192,35417,1,0,0:0:0:0:
256,192,35590,1,8,0:0:0:0:
256,192,35677,1,0,0:0:0:0:
256,192,35763,1,0,0:0:0:0:
256,192,35850,1,8,0:0:0:0:
256,192,36023,1,8,0:0:0:0:
256,192,36197,1,0,0:0:0:0:
256,192,36370,1,0,0:0:0:0:
256,192,36457,1,0,0:0:0:0:
256,192,36544,1,8,0:0:0:0:
256,192,36717,1,0,0:0:0:0:
256,192,36804,1,8,0:0:0:0:
256,192,36891,1,0,0:0:0:0:
256,192,36977,1,0,0:0:0:0:
256,192,37151,1,0,0:0:0:0:
256,192,37237,1,8,0:0:0:0:
256,192,37411,1,8,0:0:0:0:
256,192,37584,1,8,0:0:0:0:
256,192,37671,1,0,0:0:0:0:
256,192,37758,1,0,0:0:0:0:
256,192,37844,1,8,0:0:0:0:
256,192,37931,1,0,0:0:0:0:
256,192,38018,1,0,0:0:0:0:
256,192,38104,1,8,0:0:0:0:
256,192,38278,1,8,0:0:0:0:
256,192,38364,1,8,0:0:0:0:
256,192,38451,1,0,0:0:0:0:
256,192,38538,1,0,0:0:0:0:
256,192,38625,1,8,0:0:0:0:
256,192,38798,1,8,0:0:0:0:
256,192,38971,1,4,0:0:0:0:
256,192,39145,1,0,0:0:0:0:
256,192,39318,1,8,0:0:0:0:
256,192,39492,1,0,0:0:0:0:
256,192,39665,1,8,0:0:0:0:
256,192,39752,1,8,0:0:0:0:
256,192,39838,1,0,0:0:0:0:
256,192,39925,1,0,0:0:0:0:
256,192,40012,1,8,0:0:0:0:
256,192,40185,1,0,0:0:0:0:
256,192,40359,1,0,0:0:0:0:
256,192,40532,1,0,0:0:0:0:
256,192,40706,1,8,0:0:0:0:
256,192,40879,1,0,0:0:0:0:
256,192,41052,1,8,0:0:0:0:
256,192,41139,1,8,0:0:0:0:
256,192,41226,1,0,0:0:0:0:
256,192,41312,1,0,0:0:0:0:
256,192,41399,1,8,0:0:0:0:
256,192,41573,1,0,0:0:0:0:
256,192,41746,1,0,0:0:0:0:
256,192,41919,1,0,0:0:0:0:
256,192,42093,1,8,0:0:0:0:
256,192,42266,1,0,0:0:0:0:
256,192,42440,1,8,0:0:0:0:
256,192,42526,1,8,0:0:0:0:
256,192,42613,1,0,0:0:0:0:
256,192,42700,1,0,0:0:0:0:
256,192,42786,1,8,0:0:0:0:
256,192,42960,1,0,0:0:0:0:
256,192,43133,1,0,0:0:0:0:
256,192,43307,1,0,0:0:0:0:
256,192,43480,1,8,0:0:0:0:
256,192,43654,1,0,0:0:0:0:
256,192,43827,1,8,0:0:0:0:
256,192,43914,1,8,0:0:0:0:
256,192,44000,1,0,0:0:0:0:
256,192,44087,1,0,0:0:0:0:
256,192,44174,1,8,0:0:0:0:
256,192,44347,1,0,0:0:0:0:
256,192,44521,1,4,0:0:0:0:
256,192,44694,1,8,0:0:0:0:
256,192,44781,1,8,0:0:0:0:
256,192,44954,1,0,0:0:0:0:
256,192,45041,1,8,0:0:0:0:
256,192,45214,1,0,0:0:0:0:
256,192,45388,1,8,0:0:0:0:
256,192,45474,1,8,0:0:0:0:
256,192,45648,1,0,0:0:0:0:
256,192,45734,1,8,0:0:0:0:
256,192,45908,1,0,0:0:0:0:
256,192,46081,1,8,0:0:0:0:
256,192,46168,1,8,0:0:0:0:
256,192,46341,1,0,0:0:0:0:
256,192,46428,1,8,0:0:0:0:
256,192,46601,1,0,0:0:0:0:
256,192,46775,1,8,0:0:0:0:
256,192,46862,1,8,0:0:0:0:
256,192,47035,1,0,0:0:0:0:
256,192,47122,1,8,0:0:0:0:
256,192,47295,1,8,0:0:0:0:
256,192,47382,1,0,0:0:0:0:
256,192,47469,1,8,0:0:0:0:
256,192,47555,1,8,0:0:0:0:
256,192,47642,1,0,0:0:0:0:
256,192,47729,1,8,0:0:0:0:
256,192,47815,1,8,0:0:0:0:
256,192,47902,1,0,0:0:0:0:
256,192,47989,1,8,0:0:0:0:
256,192,48075,1,0,0:0:0:0:
256,192,48162,1,0,0:0:0:0:
256,192,48336,1,12,0:0:0:0:
256,192,48682,1,4,0:0:0:0:
256,192,48943,1,4,0:0:0:0:
256,192,49203,1,12,0:0:0:0:
256,192,49463,1,4,0:0:0:0:
256,192,49723,1,12,0:0:0:0:
256,192,49896,1,12,0:0:0:0:
256,192,50070,1,4,0:0:0:0:
256,192,50243,1,8,0:0:0:0:
256,192,50330,1,0,0:0:0:0:
256,192,50503,1,0,0:0:0:0:
256,192,50590,1,8,0:0:0:0:
256,192,50677,1,8,0:0:0:0:
256,192,50763,1,0,0:0:0:0:
256,192,50850,1,8,0:0:0:0:
256,192,51023,1,0,0:0:0:0:
256,192,51110,1,8,0:0:0:0:
256,192,51197,1,0,0:0:0:0:
256,192,51284,1,8,0:0:0:0:
256,192,51370,1,8,0:0:0:0:
256,192,51457,1,0,0:0:0:0:
256,192,51630,1,8,0:0:0:0:
256,192,51717,1,0,0:0:0:0:
256,192,51891,1,0,0:0:0:0:
256,192,51977,1,8,0:0:0:0:
256,192,52151,1,0,0:0:0:0:
256,192,52237,1,8,0:0:0:0:
256,192,52324,1,0,0:0:0:0:
256,192,52411,1,0,0:0:0:0:
256,192,52497,1,8,0:0:0:0:
256,192,52584,1,0,0:0:0:0:
256,192,52671,1,8,0:0:0:0:
256,192,52758,1,8,0:0:0:0:
256,192,52844,1,0,0:0:0:0:
256,192,53018,1,8,0:0:0:0:
256,192,53104,1,0,0:0:0:0:
256,192,53278,1,0,0:0:0:0:
256,192,53364,1,8,0:0:0:0:
256,192,53451,1,8,0:0:0:0:
256,192,53538,1,0,0:0:0:0:
256,192,53625,1,8,0:0:0:0:
256,192,53798,1,0,0:0:0:0:
256,192,53885,1,8,0:0:0:0:
256,192,53971,1,8,0:0:0:0:
256,192,54058,1,0,0:0:0:0:
256,192,54145,1,0,0:0:0:0:
256,192,54232,1,8,0:0:0:0:
256,192,54405,1,0,0:0:0:0:
256,192,54492,1,8,0:0:0:0:
256,192,54665,1,0,0:0:0:0:
256,192,54752,1,8,0:0:0:0:
256,192,54925,1,8,0:0:0:0:
256,192,55012,1,0,0:0:0:0:
256,192,55099,1,0,0:0:0:0:
256,192,55185,1,8,0:0:0:0:
256,192,55272,1,0,0:0:0:0:
256,192,55359,1,0,0:0:0:0:
256,192,55445,1,8,0:0:0:0:
256,192,55532,1,8,0:0:0:0:
256,192,55619,1,0,0:0:0:0:
256,192,55792,1,8,0:0:0:0:
256,192,55879,1,0,0:0:0:0:
256,192,56052,1,0,0:0:0:0:
256,192,56139,1,8,0:0:0:0:
256,192,56226,1,8,0:0:0:0:
256,192,56312,1,0,0:0:0:0:
256,192,56399,1,8,0:0:0:0:
256,192,56573,1,0,0:0:0:0:
256,192,56659,1,8,0:0:0:0:
256,192,56746,1,0,0:0:0:0:
256,192,56833,1,8,0:0:0:0:
256,192,56919,1,8,0:0:0:0:
256,192,57006,1,0,0:0:0:0:
256,192,57180,1,8,0:0:0:0:
256,192,57266,1,0,0:0:0:0:
256,192,57440,1,0,0:0:0:0:
256,192,57526,1,8,0:0:0:0:
256,192,57700,1,0,0:0:0:0:
256,192,57786,1,8,0:0:0:0:
256,192,57873,1,0,0:0:0:0:
256,192,57960,1,0,0:0:0:0:
256,192,58047,1,8,0:0:0:0:
256,192,58133,1,0,0:0:0:0:
256,192,58220,1,8,0:0:0:0:
256,192,58307,1,8,0:0:0:0:
256,192,58393,1,0,0:0:0:0:
256,192,58567,1,8,0:0:0:0:
256,192,58654,1,0,0:0:0:0:
256,192,58827,1,0,0:0:0:0:
256,192,58914,1,8,0:0:0:0:
256,192,59000,1,8,0:0:0:0:
256,192,59087,1,0,0:0:0:0:
256,192,59174,1,8,0:0:0:0:
256,192,59347,1,0,0:0:0:0:
256,192,59434,1,8,0:0:0:0:
256,192,59521,1,8,0:0:0:0:
256,192,59607,1,0,0:0:0:0:
256,192,59694,1,0,0:0:0:0:
256,192,59781,1,8,0:0:0:0:
256,192,59954,1,0,0:0:0:0:
256,192,60041,1,8,0:0:0:0:
256,192,60214,1,0,0:0:0:0:
256,192,60301,1,8,0:0:0:0:
256,192,60474,1,8,0:0:0:0:
256,192,60561,1,0,0:0:0:0:
256,192,60648,1,0,0:0:0:0:
256,192,60734,1,8,0:0:0:0:
256,192,60821,1,8,0:0:0:0:
256,192,60908,1,0,0:0:0:0:
256,192,60995,1,0,0:0:0:0:
256,192,61081,1,8,0:0:0:0:
256,192,61168,1,0,0:0:0:0:
256,192,61341,1,8,0:0:0:0:
256,192,61428,1,0,0:0:0:0:
256,192,61601,1,0,0:0:0:0:
256,192,61688,1,8,0:0:0:0:
256,192,61775,1,8,0:0:0:0:
256,192,61862,1,0,0:0:0:0:
256,192,61948,1,8,0:0:0:0:
256,192,62122,1,0,0:0:0:0:
256,192,62208,1,8,0:0:0:0:
256,192,62295,1,0,0:0:0:0:
256,192,62382,1,8,0:0:0:0:
256,192,62469,1,8,0:0:0:0:
256,192,62555,1,0,0:0:0:0:
256,192,62729,1,8,0:0:0:0:
256,192,62815,1,0,0:0:0:0:
256,192,62989,1,0,0:0:0:0:
256,192,63075,1,8,0:0:0:0:
256,192,63249,1,0,0:0:0:0:
256,192,63336,1,8,0:0:0:0:
256,192,63422,1,0,0:0:0:0:
256,192,63509,1,0,0:0:0:0:
256,192,63596,1,8,0:0:0:0:
256,192,63682,1,0,0:0:0:0:
256,192,63769,1,8,0:0:0:0:
256,192,63856,1,8,0:0:0:0:
256,192,63943,1,0,0:0:0:0:
256,192,64116,1,8,0:0:0:0:
256,192,64203,1,0,0:0:0:0:
256,192,64376,1,0,0:0:0:0:
256,192,64463,1,8,0:0:0:0:
256,192,64549,1,8,0:0:0:0:
256,192,64636,1,0,0:0:0:0:
256,192,64723,1,8,0:0:0:0:
256,192,64896,1,0,0:0:0:0:
256,192,64983,1,8,0:0:0:0:
256,192,65070,1,8,0:0:0:0:
256,192,65156,1,0,0:0:0:0:
256,192,65243,1,0,0:0:0:0:
256,192,65330,1,8,0:0:0:0:
256,192,65503,1,0,0:0:0:0:
256,192,65590,1,8,0:0:0:0:
256,192,65763,1,0,0:0:0:0:
256,192,65850,1,8,0:0:0:0:
256,192,66023,1,8,0:0:0:0:
256,192,66110,1,0,0:0:0:0:
256,192,66197,1,0,0:0:0:0:
256,192,66284,1,8,0:0:0:0:
256,192,66370,1,0,0:0:0:0:
256,192,66457,1,0,0:0:0:0:
256,192,66544,1,8,0:0:0:0:
256,192,66630,1,8,0:0:0:0:
256,192,66717,1,0,0:0:0:0:
256,192,66891,1,8,0:0:0:0:
256,192,66977,1,0,0:0:0:0:
256,192,67064,1,8,0:0:0:0:
256,192,67237,1,8,0:0:0:0:
256,192,67324,1,8,0:0:0:0:
256,192,67411,1,0,0:0:0:0:
256,192,67497,1,8,0:0:0:0:
256,192,67671,1,0,0:0:0:0:
256,192,67758,1,8,0:0:0:0:
256,192,67844,1,0,0:0:0:0:
256,192,67931,1,8,0:0:0:0:
256,192,68018,1,8,0:0:0:0:
256,192,68104,1,0,0:0:0:0:
256,192,68278,1,8,0:0:0:0:
256,192,68364,1,0,0:0:0:0:
256,192,68451,1,8,0:0:0:0:
256,192,68625,1,8,0:0:0:0:
256,192,68711,1,0,0:0:0:0:
256,192,68885,1,8,0:0:0:0:
256,192,68971,1,0,0:0:0:0:
256,192,69058,1,0,0:0:0:0:
256,192,69145,1,8,0:0:0:0:
256,192,69232,1,0,0:0:0:0:
256,192,69318,1,8,0:0:0:0:
256,192,69492,1,0,0:0:0:0:
256,192,69578,1,0,0:0:0:0:
256,192,69665,1,8,0:0:0:0:
256,192,69752,1,0,0:0:0:0:
256,192,69838,1,8,0:0:0:0:
256,192,69925,1,8,0:0:0:0:
256,192,70012,1,0,0:0:0:0:
256,192,70099,1,0,0:0:0:0:
256,192,70185,1,0,0:0:0:0:
256,192,70272,1,8,0:0:0:0:
256,192,70359,1,0,0:0:0:0:
256,192,70445,1,0,0:0:0:0:
256,192,70532,1,8,0:0:0:0:
256,192,70619,1,8,0:0:0:0:
256,192,70706,1,0,0:0:0:0:
256,192,70792,1,0,0:0:0:0:
256,192,70879,1,8,0:0:0:0:
256,192,71139,1,8,0:0:0:0:
256,192,71399,1,8,0:0:0:0:
256,192,71573,1,8,0:0:0:0:
256,192,71659,1,0,0:0:0:0:
256,192,71746,1,0,0:0:0:0:
256,192,71833,1,8,0:0:0:0:
256,192,71919,1,0,0:0:0:0:
256,192,72006,1,0,0:0:0:0:
256,192,72093,1,8,0:0:0:0:
256,192,72266,1,4,0:0:0:0:
256,192,72526,1,4,0:0:0:0:
256,192,72786,1,4,0:0:0:0:
256,192,73047,1,4,0:0:0:0:
256,192,73307,1,12,0:0:0:0:
256,192,73480,1,12,0:0:0:0:
256,192,73654,1,0,0:0:0:0:
256,192,73740,1,0,0:0:0:0:
256,192,73827,1,8,0:0:0:0:
256,192,74000,1,0,0:0:0:0:
256,192,74087,1,8,0:0:0:0:
256,192,74174,1,0,0:0:0:0:
256,192,74347,1,8,0:0:0:0:
256,192,74405,1,8,0:0:0:0:
256,192,74463,1,8,0:0:0:0:
256,192,74521,1,8,0:0:0:0:
256,192,74607,1,8,0:0:0:0:
256,192,74694,1,0,0:0:0:0:
256,192,74781,1,0,0:0:0:0:
256,192,74867,1,8,0:0:0:0:
256,192,75041,1,4,0:0:0:0:
256,192,75301,1,4,0:0:0:0:
256,192,75561,1,4,0:0:0:0:
256,192,75821,1,4,0:0:0:0:
256,192,76081,1,12,0:0:0:0:
256,192,76255,1,12,0:0:0:0:
256,192,76428,1,0,0:0:0:0:
256,192,76601,1,8,0:0:0:0:
256,192,76775,1,0,0:0:0:0:
256,192,76862,1,8,0:0:0:0:
256,192,76948,1,0,0:0:0:0:
256,192,77035,1,0,0:0:0:0:
256,192,77122,1,8,0:0:0:0:
256,192,77180,1,8,0:0:0:0:
256,192,77382,1,8,0:0:0:0:
256,192,77469,1,0,0:0:0:0:
256,192,77555,1,0,0:0:0:0:
256,192,77642,1,8,0:0:0:0:
256,192,77815,1,4,0:0:0:0:
256,192,78075,1,4,0:0:0:0:
256,192,78336,1,4,0:0:0:0:
256,192,78596,1,4,0:0:0:0:
256,192,78856,1,12,0:0:0:0:
256,192,79029,1,12,0:0:0:0:
256,192,79203,1,0,0:0:0:0:
256,192,79289,1,0,0:0:0:0:
256,192,79376,1,8,0:0:0:0:
256,192,79549,1,0,0:0:0:0:
256,192,79636,1,8,0:0:0:0:
256,192,79723,1,0,0:0:0:0:
256,192,79896,1,8,0:0:0:0:
256,192,79954,1,8,0:0:0:0:
256,192,80012,1,8,0:0:0:0:
256,192,80070,1,8,0:0:0:0:
256,192,80156,1,8,0:0:0:0:
256,192,80243,1,0,0:0:0:0:
256,192,80330,1,0,0:0:0:0:
256,192,80417,1,8,0:0:0:0:
256,192,80590,1,4,0:0:0:0:
256,192,80850,1,4,0:0:0:0:
256,192,81110,1,4,0:0:0:0:
256,192,81370,1,4,0:0:0:0:
256,192,81630,1,12,0:0:0:0:
256,192,81804,1,12,0:0:0:0:
256,192,81977,1,0,0:0:0:0:
256,192,82064,1,0,0:0:0:0:
256,192,82151,1,8,0:0:0:0:
256,192,82324,1,0,0:0:0:0:
256,192,82411,1,8,0:0:0:0:
256,192,82497,1,0,0:0:0:0:
256,192,82584,1,0,0:0:0:0:
256,192,82671,1,8,0:0:0:0:
256,192,82844,1,0,0:0:0:0:
256,192,83018,1,12,0:0:0:0:
256,192,83364,12,12,85966,0:0:0:0:
256,192,86139,5,4,0:0:0:0:
256,192,86399,1,0,0:0:0:0:
256,192,86659,1,8,0:0:0:0:
256,192,86833,1,0,0:0:0:0:
256,192,86919,1,0,0:0:0:0:
256,192,87006,1,0,0:0:0:0:
256,192,87093,1,0,0:0:0:0:
256,192,87180,1,8,0:0:0:0:
256,192,87353,1,0,0:0:0:0:
256,192,87526,1,8,0:0:0:0:
256,192,87786,1,8,0:0:0:0:
256,192,88047,1,0,0:0:0:0:
256,192,88220,1,8,0:0:0:0:
256,192,88307,1,8,0:0:0:0:
256,192,88393,1,0,0:0:0:0:
256,192,88480,1,0,0:0:0:0:
256,192,88567,1,8,0:0:0:0:
256,192,88740,1,8,0:0:0:0:
256,192,88914,1,0,0:0:0:0:
256,192,89174,1,0,0:0:0:0:
256,192,89434,1,8,0:0:0:0:
256,192,89607,1,0,0:0:0:0:
256,192,89694,1,0,0:0:0:0:
256,192,89781,1,0,0:0:0:0:
256,192,89867,1,0,0:0:0:0:
256,192,89954,1,8,0:0:0:0:
256,192,90128,1,0,0:0:0:0:
256,192,90301,1,8,0:0:0:0:
256,192,90561,1,8,0:0:0:0:
256,192,90821,1,8,0:0:0:0:
256,192,90995,1,8,0:0:0:0:
256,192,91081,1,0,0:0:0:0:
256,192,91168,1,0,0:0:0:0:
256,192,91255,1,8,0:0:0:0:
256,192,91341,1,0,0:0:0:0:
256,192,91428,1,0,0:0:0:0:
256,192,91515,1,8,0:0:0:0:
256,192,91688,1,4,0:0:0:0:
256,192,91862,1,0,0:0:0:0:
256,192,92035,1,8,0:0:0:0:
256,192,92208,1,0,0:0:0:0:
256,192,92382,1,8,0:0:0:0:
256,192,92555,1,0,0:0:0:0:
256,192,92729,1,8,0:0:0:0:
256,192,92902,1,8,0:0:0:0:
256,192,93075,1,4,0:0:0:0:
256,192,93249,1,0,0:0:0:0:
256,192,93422,1,8,0:0:0:0:
256,192,93596,1,0,0:0:0:0:
256,192,93769,1,8,0:0:0:0:
256,192,93943,1,8,0:0:0:0:
256,192,94116,1,0,0:0:0:0:
256,192,94289,1,8,0:0:0:0:
256,192,94463,1,4,0:0:0:0:
256,192,94636,1,0,0:0:0:0:
256,192,94810,1,8,0:0:0:0:
256,192,94983,1,8,0:0:0:0:
256,192,95156,1,4,0:0:0:0:
256,192,95330,1,0,0:0:0:0:
256,192,95503,1,8,0:0:0:0:
256,192,95677,1,8,0:0:0:0:
256,192,95850,1,4,0:0:0:0:
256,192,96110,1,4,0:0:0:0:
256,192,96370,1,4,0:0:0:0:
256,192,96544,1,8,0:0:0:0:
256,192,96601,1,8,0:0:0:0:
256,192,96659,1,8,0:0:0:0:
256,192,96717,1,0,0:0:0:0:
256,192,96775,1,0,0:0:0:0:
256,192,96833,1,0,0:0:0:0:
256,192,96891,1,8,0:0:0:0:
256,192,96977,1,0,0:0:0:0:
256,192,97064,1,8,0:0:0:0:
256,192,97151,1,8,0:0:0:0:
256,192,97237,1,0,0:0:0:0:
256,192,97411,1,8,0:0:0:0:
256,192,97497,1,0,0:0:0:0:
256,192,97671,1,0,0:0:0:0:
256,192,97758,1,8,0:0:0:0:
256,192,97844,1,0,0:0:0:0:
256,192,97931,1,0,0:0:0:0:
256,192,98018,1,8,0:0:0:0:
256,192,98104,1,0,0:0:0:0:
256,192,98191,1,8,0:0:0:0:
256,192,98278,1,8,0:0:0:0:
256,192,98364,1,8,0:0:0:0:
256,192,98451,1,0,0:0:0:0:
256,192,98538,1,0,0:0:0:0:
256,192,98625,1,8,0:0:0:0:
256,192,98798,1,0,0:0:0:0:
256,192,98885,1,8,0:0:0:0:
256,192,98971,1,8,0:0:0:0:
256,192,99058,1,0,0:0:0:0:
256,192,99145,1,0,0:0:0:0:
256,192,99232,1,8,0:0:0:0:
256,192,99318,1,0,0:0:0:0:
256,192,99405,1,8,0:0:0:0:
256,192,99492,1,0,0:0:0:0:
256,192,99578,1,0,0:0:0:0:
256,192,99665,1,8,0:0:0:0:
256,192,99752,1,0,0:0:0:0:
256,192,99838,1,8,0:0:0:0:
256,192,99925,1,8,0:0:0:0:
256,192,100012,1,0,0:0:0:0:
256,192,100185,1,8,0:0:0:0:
256,192,100272,1,0,0:0:0:0:
256,192,100445,1,0,0:0:0:0:
256,192,100532,1,8,0:0:0:0:
256,192,100619,1,8,0:0:0:0:
256,192,100706,1,0,0:0:0:0:
256,192,100792,1,8,0:0:0:0:
256,192,100879,1,0,0:0:0:0:
256,192,100966,1,0,0:0:0:0:
256,192,101052,1,8,0:0:0:0:
256,192,101139,1,0,0:0:0:0:
256,192,101226,1,0,0:0:0:0:
256,192,101312,1,8,0:0:0:0:
256,192,101399,1,8,0:0:0:0:
256,192,101573,1,0,0:0:0:0:
256,192,101659,1,8,0:0:0:0:
256,192,101833,1,0,0:0:0:0:
256,192,101919,1,8,0:0:0:0:
256,192,102093,1,8,0:0:0:0:
256,192,102180,1,8,0:0:0:0:
256,192,102266,1,0,0:0:0:0:
256,192,102353,1,8,0:0:0:0:
256,192,102440,1,8,0:0:0:0:
256,192,102526,1,0,0:0:0:0:
256,192,102613,1,8,0:0:0:0:
256,192,102700,1,8,0:0:0:0:
256,192,102786,1,0,0:0:0:0:
256,192,102960,1,8,0:0:0:0:
256,192,103047,1,0,0:0:0:0:
256,192,103220,1,0,0:0:0:0:
256,192,103307,1,8,0:0:0:0:
256,192,103393,1,0,0:0:0:0:
256,192,103480,1,0,0:0:0:0:
256,192,103567,1,8,0:0:0:0:
256,192,103654,1,0,0:0:0:0:
256,192,103740,1,8,0:0:0:0:
256,192,103827,1,8,0:0:0:0:
256,192,103914,1,8,0:0:0:0:
256,192,104000,1,0,0:0:0:0:
256,192,104087,1,0,0:0:0:0:
256,192,104174,1,8,0:0:0:0:
256,192,104347,1,0,0:0:0:0:
256,192,104434,1,8,0:0:0:0:
256,192,104521,1,8,0:0:0:0:
256,192,104607,1,0,0:0:0:0:
256,192,104694,1,0,0:0:0:0:
256,192,104781,1,8,0:0:0:0:
256,192,104867,1,0,0:0:0:0:
256,192,104954,1,8,0:0:0:0:
256,192,105041,1,0,0:0:0:0:
256,192,105128,1,0,0:0:0:0:
256,192,105214,1,8,0:0:0:0:
256,192,105301,1,0,0:0:0:0:
256,192,105388,1,8,0:0:0:0:
256,192,105561,1,8,0:0:0:0:
256,192,105648,1,0,0:0:0:0:
256,192,105734,1,0,0:0:0:0:
256,192,105821,1,8,0:0:0:0:
256,192,105908,1,0,0:0:0:0:
256,192,105995,1,0,0:0:0:0:
256,192,106081,1,8,0:0:0:0:
256,192,106168,1,0,0:0:0:0:
256,192,106255,1,0,0:0:0:0:
256,192,106341,1,8,0:0:0:0:
256,192,106428,1,0,0:0:0:0:
256,192,106515,1,8,0:0:0:0:
256,192,106601,1,8,0:0:0:0:
256,192,106688,1,8,0:0:0:0:
256,192,106775,1,0,0:0:0:0:
256,192,106862,1,0,0:0:0:0:
256,192,106948,1,8,0:0:0:0:
256,192,107208,1,8,0:0:0:0:
256,192,107469,1,8,0:0:0:0:
256,192,107642,1,8,0:0:0:0:
256,192,107729,1,0,0:0:0:0:
256,192,107815,1,0,0:0:0:0:
256,192,107902,1,8,0:0:0:0:
256,192,107989,1,0,0:0:0:0:
256,192,108075,1,0,0:0:0:0:
256,192,108162,1,8,0:0:0:0:
256,192,108336,1,4,0:0:0:0:
256,192,108596,1,4,0:0:0:0:
256,192,108856,1,4,0:0:0:0:
256,192,109116,1,4,0:0:0:0:
256,192,109376,1,12,0:0:0:0:
256,192,109549,1,12,0:0:0:0:
256,192,109723,1,0,0:0:0:0:
256,192,109810,1,0,0:0:0:0:
256,192,109896,1,8,0:0:0:0:
256,192,110070,1,0,0:0:0:0:
256,192,110156,1,8,0:0:0:0:
256,192,110243,1,0,0:0:0:0:
256,192,110330,1,0,0:0:0:0:
256,192,110417,1,8,0:0:0:0:
256,192,110474,1,8,0:0:0:0:
256,192,110532,1,8,0:0:0:0:
256,192,110590,1,8,0:0:0:0:
256,192,110677,1,8,0:0:0:0:
256,192,110763,1,0,0:0:0:0:
256,192,110850,1,0,0:0:0:0:
256,192,110937,1,8,0:0:0:0:
256,192,111110,1,4,0:0:0:0:
256,192,111370,1,4,0:0:0:0:
256,192,111630,1,4,0:0:0:0:
256,192,111891,1,4,0:0:0:0:
256,192,112151,1,12,0:0:0:0:
256,192,112324,1,12,0:0:0:0:
256,192,112497,1,0,0:0:0:0:
256,192,112671,1,8,0:0:0:0:
256,192,112844,1,0,0:0:0:0:
256,192,112931,1,8,0:0:0:0:
256,192,113018,1,0,0:0:0:0:
256,192,113104,1,0,0:0:0:0:
256,192,113191,1,8,0:0:0:0:
256,192,113249,1,8,0:0:0:0:
256,192,113451,1,8,0:0:0:0:
256,192,113538,1,0,0:0:0:0:
256,192,113625,1,0,0:0:0:0:
256,192,113711,1,8,0:0:0:0:
256,192,113885,1,4,0:0:0:0:
256,192,114145,1,4,0:0:0:0:
256,192,114405,1,4,0:0:0:0:
256,192,114665,1,4,0:0:0:0:
256,192,114925,1,12,0:0:0:0:
256,192,115099,1,12,0:0:0:0:
256,192,115272,1,0,0:0:0:0:
256,192,115359,1,0,0:0:0:0:
256,192,115445,1,8,0:0:0:0:
256,192,115619,1,0,0:0:0:0:
256,192,115706,1,8,0:0:0:0:
256,192,115792,1,0,0:0:0:0:
256,192,115879,1,0,0:0:0:0:
256,192,115966,1,8,0:0:0:0:
256,192,116023,1,8,0:0:0:0:
256,192,116081,1,8,0:0:0:0:
256,192,116139,1,8,0:0:0:0:
256,192,116226,1,8,0:0:0:0:
256,192,116312,1,0,0:0:0:0:
256,192,116399,1,0,0:0:0:0:
256,192,116486,1,8,0:0:0:0:
256,192,116659,1,4,0:0:0:0:
256,192,116919,1,4,0:0:0:0:
256,192,117180,1,4,0:0:0:0:
256,192,117440,1,4,0:0:0:0:
256,192,117700,1,12,0:0:0:0:
256,192,117873,1,12,0:0:0:0:
256,192,118047,1,0,0:0:0:0:
256,192,118133,1,0,0:0:0:0:
256,192,118220,1,8,0:0:0:0:
256,192,118393,1,0,0:0:0:0:
256,192,118480,1,8,0:0:0:0:
256,192,118567,1,0,0:0:0:0:
256,192,118654,1,0,0:0:0:0:
256,192,118740,1,8,0:0:0:0:
256,192,118914,1,0,0:0:0:0:
256,192,119087,1,12,0:0:0:0:
256,192,119434,12,0,121515,0:0:0:0:
