osu file format v14

[General]
AudioFilename: audio.mp3
AudioLeadIn: 0
PreviewTime: 49108
Countdown: 0
SampleSet: Soft
StackLeniency: 0.1
Mode: 0
LetterboxInBreaks: 0
WidescreenStoryboard: 0

[Editor]
DistanceSpacing: 3.1
BeatDivisor: 4
GridSize: 8
TimelineZoom: 1.6

[Metadata]
Title:FLOWER
TitleUnicode:FLOWER
Artist:DJ YOSHITAKA
ArtistUnicode:DJ YOSHITAKA
Creator:Cyanocitcho
Version:Sixteen-Square Box
Source:jubeat knit APPEND
Tags:reflec beat ripples Electronic Instrumental beatmania IIDX tricoro BeatStream DANCE aROUND DanceDanceRevolution X3 VS 2ndMIX DanceEvolution ARCADE pack jukebeat KONAMI 01 jubeat saucer MÚSECA 1+1/2 pop'n music 20 fantasia plus + 10 SOUND VOLTEX III GRAVITY WARS ミライダガッキ FutureTomTom ポップンリズミン jubeatパック2 trance core トランスコア knit append fulaoer RB DDR GITADORA ミライダガッキ maimai GROOVE COASTER GC 太鼓の達人 CHUNITHM SDVX シンクロニカ MÚSECA ノスタルジア DANCERUSH STARDOM よしたかトルネード s_saika [W]hiteRBQ 033 LxH_cat flower __Ag Teages
BeatmapID:3731322
BeatmapSetID:1818629

[Difficulty]
HPDrainRate:3
CircleSize:4.5
OverallDifficulty:9
ApproachRate:9.5
SliderMultiplier:2
SliderTickRate:1

[Events]
//Background and Video events
0,0,"flower.jpg",0,0
//Break Periods
2,86937,91762
//Storyboard Layer 0 (Background)
//Storyboard Layer 1 (Fail)
//Storyboard Layer 2 (Pass)
//Storyboard Layer 3 (Foreground)
//Storyboard Layer 4 (Overlay)
//Storyboard Sound Samples

[TimingPoints]
727,346.820809248555,4,2,7,70,1,0
727,-142.857142857143,4,2,7,70,0,0
2807,-100,4,2,7,70,0,0
3501,-125,4,2,7,70,0,0
4715,-100,4,2,7,70,0,0
5929,-100,4,2,7,80,0,0
6276,-100,4,2,7,60,0,0
15466,-100,4,2,7,70,0,0
16073,-100,4,2,7,5,0,0
16160,-100,4,2,7,70,0,0
16420,-100,4,2,7,5,0,0
16507,-100,4,2,7,70,0,0
16680,-133.333333333333,4,2,7,45,0,0
16767,-125,4,2,7,45,0,0
16854,-117.647058823529,4,2,7,45,0,0
16940,-111.111111111111,4,2,7,45,0,0
17027,-105.263157894737,4,2,7,45,0,0
17114,-100,4,2,7,45,0,0
17200,-100,4,2,7,70,0,0
18588,-107.52688172043,4,2,7,70,0,0
20148,-100,4,2,7,70,0,0
34715,-100,4,2,7,65,0,0
34802,-100,4,2,7,70,0,0
34975,-100,4,2,7,65,0,0
35062,-100,4,2,7,70,0,0
35235,-100,4,2,7,65,0,0
35409,-100,4,2,7,70,0,0
36102,-100,4,2,7,65,0,0
36449,-100,4,2,7,70,0,0
36622,-100,4,2,7,65,0,0
36796,-100,4,2,7,70,0,0
37490,-100,4,2,7,65,0,0
37836,-100,4,2,7,70,0,0
38010,-100,4,2,7,65,0,0
38183,-100,4,2,7,70,0,0
38877,-100,4,2,7,65,0,0
39570,-100,4,2,7,80,0,0
39744,-100,4,2,7,70,0,0
45553,-100,4,2,7,65,0,0
45813,-100,4,2,7,70,0,0
46247,-100,4,2,7,65,0,0
46507,-100,4,2,7,70,0,0
46940,-100,4,2,7,65,0,0
47200,-100,4,2,7,70,0,0
47634,-100,4,2,7,65,0,0
47894,-100,4,2,7,70,0,0
48935,-100,4,2,7,80,0,0
49281,-50,4,2,7,80,0,1
49454,-50,4,2,7,5,0,1
49542,-50,4,2,7,80,0,1
49715,-50,4,2,7,5,0,1
49802,-50,4,2,7,80,0,1
50235,-50,4,2,7,5,0,1
50322,-50,4,2,7,80,0,1
72865,-45.4545454545455,4,2,7,50,0,0
73039,-45.4545454545455,4,2,7,5,0,0
73125,-58.8235294117647,4,2,7,50,0,0
73299,-58.8235294117647,4,2,7,5,0,0
73385,-58.8235294117647,4,2,7,50,0,0
73559,-58.8235294117647,4,2,7,5,0,0
73646,-58.8235294117647,4,2,7,50,0,0
73819,-58.8235294117647,4,2,7,5,0,0
73906,-50,4,2,7,50,0,0
74253,-50,4,2,7,60,0,0
75466,-50,4,2,7,60,0,0
75640,-80,4,2,7,50,0,0
75813,-80,4,2,7,5,0,0
75900,-74.0740740740741,4,2,7,50,0,0
76073,-74.0740740740741,4,2,7,5,0,0
76160,-66.6666666666667,4,2,7,50,0,0
76333,-66.6666666666667,4,2,7,5,0,0
76420,-50,4,2,7,50,0,0
76594,-50,4,2,7,5,0,0
76680,-50,4,2,7,50,0,0
77027,-50,4,2,7,60,0,0
78414,-66.6666666666667,4,2,7,50,0,0
78588,-66.6666666666667,4,2,7,5,0,0
78674,-66.6666666666667,4,2,7,50,0,0
78848,-66.6666666666667,4,2,7,5,0,0
78935,-66.6666666666667,4,2,7,50,0,0
79108,-66.6666666666667,4,2,7,5,0,0
79195,-66.6666666666667,4,2,7,50,0,0
79368,-66.6666666666667,4,2,7,5,0,0
79455,-50,4,2,7,50,0,0
79802,-50,4,2,7,60,0,0
81016,-50,4,2,7,60,0,0
81189,-80,4,2,7,50,0,0
81362,-80,4,2,7,5,0,0
81449,-74.0740740740741,4,2,7,50,0,0
81622,-74.0740740740741,4,2,7,5,0,0
81709,-66.6666666666667,4,2,7,50,0,0
81883,-66.6666666666667,4,2,7,5,0,0
81969,-50,4,2,7,50,0,0
82142,-50,4,2,7,5,0,0
82229,-66.6666666666667,4,2,7,50,0,0
82403,-50,4,2,7,50,0,0
82576,-50,4,2,7,60,0,0
82923,-50,4,2,7,70,0,0
83963,-13.7551581843191,4,2,7,70,0,0
86737,-13.7551581843191,4,2,7,50,0,0
92287,-13.7551581843191,4,2,7,70,0,0
96449,-33.3333333333333,4,2,7,70,0,0
96622,-33.3333333333333,4,2,7,5,0,0
96709,-33.3333333333333,4,2,7,70,0,0
96883,-33.3333333333333,4,2,7,5,0,0
96969,-33.3333333333333,4,2,7,70,0,0
97316,-100,4,2,7,70,0,0
97836,-100,4,2,7,80,0,1
108935,-50,4,2,7,60,0,0
109108,-50,4,2,7,5,0,0
109195,-66.6666666666667,4,2,7,60,0,0
109368,-66.6666666666667,4,2,7,5,0,0
109455,-100,4,2,7,60,0,0
109628,-100,4,2,7,5,0,0
109715,-100,4,2,7,60,0,0
109888,-100,4,2,7,5,0,0
109975,-66.6666666666667,4,2,7,60,0,0
110322,-50,4,2,7,70,0,0
111536,-50,4,2,7,70,0,0
111709,-66.6666666666667,4,2,7,60,0,0
111883,-66.6666666666667,4,2,7,5,0,0
111969,-66.6666666666667,4,2,7,60,0,0
112143,-66.6666666666667,4,2,7,5,0,0
112229,-100,4,2,7,60,0,0
112403,-100,4,2,7,5,0,0
112490,-200,4,2,7,60,0,0
112663,-200,4,2,7,5,0,0
112750,-200,4,2,7,60,0,0
113096,-200,4,2,7,70,0,0
114050,-57.1428571428571,4,2,7,70,0,0
114310,-57.1428571428571,4,2,7,70,0,0
114484,-57.1428571428571,4,2,7,60,0,0
114657,-57.1428571428571,4,2,7,5,0,0
114744,-66.6666666666667,4,2,7,60,0,0
114917,-66.6666666666667,4,2,7,5,0,0
115004,-80,4,2,7,60,0,0
115177,-80,4,2,7,5,0,0
115264,-100,4,2,7,60,0,0
115437,-100,4,2,7,5,0,0
115524,-100,4,2,7,60,0,0
115871,-50,4,2,7,70,0,0
117085,-50,4,2,7,70,0,0
117258,-80,4,2,7,60,0,0
117432,-80,4,2,7,5,0,0
117518,-66.6666666666667,4,2,7,60,0,0
117692,-66.6666666666667,4,2,7,5,0,0
117779,-50,4,2,7,60,0,0
117952,-50,4,2,7,5,0,0
118039,-44.4444444444445,4,2,7,60,0,0
118212,-44.4444444444445,4,2,7,5,0,0
118299,-133.333333333333,4,2,7,60,0,0
118472,-200,4,2,7,60,0,0
119859,-50,4,2,7,60,0,0
120032,-50,4,2,7,80,0,0

[Colours]
Combo1 : 128,128,128
Combo2 : 192,192,192
Combo3 : 0,64,128
Combo4 : 0,128,192
Combo5 : 0,232,232

[HitObjects]
324,268,727,6,0,P|255:257|186:268,1,139.999995727539,0|0,3:0|3:0,2:0:0:0:
256,352,1420,1,0,3:0:0:0:
256,180,1594,1,0,3:0:0:0:
256,20,1767,1,0,1:0:0:0:
166,240,2114,53,0,3:0:0:0:
55,83,2287,1,0,1:0:0:0:
166,118,2461,1,0,3:0:0:0:
67,276,2634,1,0,1:0:0:0:
265,297,2807,2,0,L|301:295,1,25,0|0,3:0|2:0,2:0:0:0:
333,295,2894,2,0,L|369:293,1,25,0|0,2:0|2:0,2:0:0:0:
393,325,2981,2,0,L|429:323,1,25,0|0,3:0|2:0,2:0:0:0:
460,318,3068,2,0,L|496:316,1,25,0|0,2:0|2:0,2:0:0:0:
486,310,3501,6,0,L|499:122,1,160,0|0,3:2|1:2,2:0:0:0:
435,51,4021,1,0,2:0:0:0:
335,120,4195,1,0,1:2:0:0:
176,120,4368,1,0,1:2:0:0:
75,48,4542,1,0,1:2:0:0:
256,29,4715,2,0,L|256:67,1,25,0|0,3:2|2:0,2:0:0:0:
256,94,4802,2,0,L|256:125,1,25,0|0,3:2|2:0,2:0:0:0:
256,192,4888,1,0,3:2:0:0:
256,192,4932,12,0,5929,1:2:0:0:
265,368,6276,37,2,2:0:0:0:
234,236,6449,1,2,2:0:0:0:
161,230,6622,1,2,2:0:0:0:
88,226,6796,1,2,2:0:0:0:
302,297,7143,1,0,2:0:0:0:
375,291,7316,1,2,2:0:0:0:
448,287,7490,1,2,2:0:0:0:
167,150,7836,1,0,2:0:0:0:
173,77,8010,1,2,2:0:0:0:
177,4,8183,1,2,2:0:0:0:
310,163,8530,1,0,2:0:0:0:
316,90,8703,1,2,2:0:0:0:
320,17,8877,1,2,2:0:0:0:
238,156,9224,1,0,2:0:0:0:
244,83,9397,1,2,2:0:0:0:
248,10,9570,1,2,2:0:0:0:
380,168,9917,1,0,2:0:0:0:
386,95,10091,1,2,2:0:0:0:
390,22,10264,1,2,2:0:0:0:
390,22,10611,1,0,2:0:0:0:
386,95,10784,1,2,2:0:0:0:
380,168,10958,1,2,2:0:0:0:
377,242,11131,53,0,2:0:0:0:
372,316,11305,1,2,2:0:0:0:
446,320,11478,1,2,2:0:0:0:
449,247,11651,1,2,2:0:0:0:
305,234,11998,1,0,2:0:0:0:
299,307,12172,1,2,2:0:0:0:
295,380,12345,1,2,2:0:0:0:
234,225,12692,1,2,2:0:0:0:
228,298,12865,1,2,2:0:0:0:
224,371,13039,1,2,2:0:0:0:
164,220,13385,1,2,2:0:0:0:
158,293,13559,1,2,2:0:0:0:
154,366,13732,1,2,2:0:0:0:
94,215,14079,1,2,2:0:0:0:
88,288,14253,1,2,2:0:0:0:
84,361,14426,1,2,2:0:0:0:
99,142,14599,5,2,2:0:0:0:
218,0,15466,1,2,2:0:0:0:
291,55,15640,1,2,2:0:0:0:
225,241,15813,2,0,B|210:85,1,150,2|0,2:0|2:0,2:0:0:0:
231,236,16160,2,0,B|250:399,1,150,2|0,2:0|2:0,2:0:0:0:
253,376,16507,1,2,2:0:0:0:
259,248,16680,22,0,L|256:227,1,18.7500007152558,2|0,2:0|2:0,2:0:0:0:
273,207,16767,54,0,L|270:182,1,20,0|0,2:0|2:0,2:0:0:0:
244,164,16854,6,0,L|242:135,1,21.2500004053116,0|0,2:0|2:0,2:0:0:0:
276,115,16940,54,0,L|274:80,1,22.4999993133545,0|0,2:0|2:0,2:0:0:0:
237,78,17027,54,0,L|235:54,1,23.7499993658066,0|0,2:0|2:0,2:0:0:0:
275,35,17114,54,0,L|274:8,1,25,0|0,2:0|2:0,2:0:0:0:
235,0,17200,54,0,L|195:3,1,25,0|0,2:0|2:0,2:0:0:0:
11,31,17374,21,2,3:2:0:0:
105,188,17547,1,2,2:0:0:0:
84,45,17721,53,2,2:0:0:0:
60,113,17807,1,2,2:0:0:0:
33,181,17894,1,2,2:0:0:0:
84,45,18068,53,2,3:2:0:0:
60,113,18154,1,0,2:0:0:0:
116,258,18328,21,2,3:2:0:0:
104,189,18414,1,0,2:0:0:0:
126,327,18588,54,0,L|105:187,1,139.500004363632,2|2,3:2|2:0,2:0:0:0:
105,189,18935,1,0,2:0:0:0:
84,45,19108,53,2,2:0:0:0:
159,71,19195,1,2,2:0:0:0:
235,93,19281,1,2,2:0:0:0:
96,118,19455,5,2,2:0:0:0:
166,107,19542,1,0,2:0:0:0:
217,21,19715,5,2,2:0:0:0:
159,71,19802,1,0,2:0:0:0:
15,27,19975,37,2,2:0:0:0:
105,189,20148,6,0,L|99:307,1,100,2|0,3:2|2:0,2:0:0:0:
226,369,20495,5,2,2:0:0:0:
164,329,20582,1,2,2:0:0:0:
99,288,20669,1,2,2:0:0:0:
298,258,20842,37,2,3:2:0:0:
232,296,20929,1,0,2:0:0:0:
377,316,21102,5,2,3:2:0:0:
443,278,21189,1,0,2:0:0:0:
489,381,21362,6,0,L|506:224,1,150,2|2,3:2|2:0,2:0:0:0:
505,231,21709,1,0,2:0:0:0:
340,234,21883,37,2,2:0:0:0:
363,166,21969,1,2,2:0:0:0:
387,98,22056,1,2,2:0:0:0:
249,126,22229,5,2,3:2:0:0:
318,112,22316,1,2,2:0:0:0:
387,98,22403,1,2,2:0:0:0:
455,82,22490,1,2,3:2:0:0:
339,44,22663,53,2,2:0:0:0:
408,32,22750,1,2,3:2:0:0:
267,195,22923,5,2,3:2:0:0:
234,57,23096,1,2,2:0:0:0:
200,177,23270,5,2,2:0:0:0:
135,158,23357,1,0,2:0:0:0:
70,136,23443,1,0,2:0:0:0:
112,21,23617,53,2,3:2:0:0:
123,90,23703,1,0,2:0:0:0:
85,205,23877,53,2,3:2:0:0:
98,272,23963,1,0,2:0:0:0:
6,116,24137,1,2,3:2:0:0:
114,344,24310,5,2,2:0:0:0:
236,249,24484,5,2,2:0:0:0:
167,259,24570,1,2,2:0:0:0:
286,302,24744,37,2,2:0:0:0:
355,292,24831,1,2,2:0:0:0:
493,267,25004,5,2,3:2:0:0:
483,198,25091,1,0,2:0:0:0:
435,348,25264,53,2,3:2:0:0:
425,279,25351,1,0,2:0:0:0:
393,64,25524,1,2,3:2:0:0:
470,128,25698,21,2,2:0:0:0:
255,51,25871,37,2,2:0:0:0:
324,57,25958,1,2,2:0:0:0:
197,101,26131,5,2,2:0:0:0:
128,94,26218,1,2,2:0:0:0:
250,155,26391,5,2,3:2:0:0:
319,161,26478,1,0,2:0:0:0:
192,205,26651,53,2,3:2:0:0:
123,198,26738,1,0,2:0:0:0:
389,168,26911,1,2,3:2:0:0:
240,260,27085,53,2,2:0:0:0:
48,312,27258,21,2,2:0:0:0:
58,238,27345,1,2,2:0:0:0:
173,381,27518,37,0,3:2:0:0:
98,368,27605,1,2,3:2:0:0:
240,260,27779,5,2,3:2:0:0:
233,333,27865,1,2,2:0:0:0:
123,197,28039,53,2,3:2:0:0:
192,205,28125,1,2,2:0:0:0:
159,200,28299,1,0,3:2:0:0:
301,368,28472,5,2,3:2:0:0:
444,274,28646,1,0,2:0:0:0:
479,269,28732,1,2,2:0:0:0:
446,203,28906,1,0,2:0:0:0:
478,172,28992,1,2,2:0:0:0:
414,143,29166,1,2,2:0:0:0:
428,92,29253,1,2,2:0:0:0:
350,115,29426,1,2,2:0:0:0:
331,48,29513,1,2,1:2:0:0:
340,84,29686,1,0,2:0:0:0:
248,294,29859,5,2,2:0:0:0:
283,99,30033,1,0,2:0:0:0:
301,66,30120,1,2,2:0:0:0:
213,115,30293,1,0,2:0:0:0:
201,67,30380,1,2,2:0:0:0:
151,147,30553,1,2,2:0:0:0:
113,109,30640,1,2,2:0:0:0:
116,209,30813,1,2,2:0:0:0:
47,190,30900,1,2,1:2:0:0:
81,200,31073,1,0,2:0:0:0:
151,346,31247,37,2,2:0:0:0:
214,193,31420,1,2,2:0:0:0:
214,268,31507,1,2,2:0:0:0:
369,191,31680,1,2,2:0:0:0:
292,192,31767,1,2,2:0:0:0:
375,339,31940,1,2,2:0:0:0:
372,265,32027,1,2,2:0:0:0:
215,345,32200,1,2,2:0:0:0:
294,340,32287,1,2,1:2:0:0:
293,326,32461,1,2,2:0:0:0:
292,192,32634,5,2,2:0:0:0:
372,265,32807,53,2,2:0:0:0:
439,262,32894,1,2,2:0:0:0:
506,261,32981,1,2,1:2:0:0:
294,340,33154,5,2,2:0:0:0:
287,115,33328,53,2,2:0:0:0:
292,192,33414,1,2,2:0:0:0:
454,116,33588,5,2,2:0:0:0:
452,192,33674,1,2,1:2:0:0:
375,9,33848,53,2,2:0:0:0:
372,192,34021,5,2,2:0:0:0:
292,192,34195,5,2,2:0:0:0:
292,212,34281,1,2,2:0:0:0:
220,192,34455,53,2,2:0:0:0:
220,172,34542,1,2,2:0:0:0:
148,192,34715,5,2,2:0:0:0:
148,212,34802,1,2,2:0:0:0:
76,192,34975,53,2,2:0:0:0:
76,160,35062,1,2,1:2:0:0:
76,224,35235,5,2,2:0:0:0:
0,192,35409,37,2,2:0:0:0:
76,192,35582,21,2,2:0:0:0:
76,160,35669,1,2,2:0:0:0:
148,192,35842,53,2,2:0:0:0:
148,232,35929,1,2,2:0:0:0:
221,192,36102,5,2,2:0:0:0:
221,140,36189,1,2,2:0:0:0:
293,192,36362,53,2,2:0:0:0:
293,248,36449,1,2,1:2:0:0:
293,136,36622,5,2,2:0:0:0:
512,192,36796,37,2,2:0:0:0:
400,192,36969,21,2,2:0:0:0:
365,191,37056,1,2,2:0:0:0:
329,192,37229,53,2,2:0:0:0:
292,192,37316,1,2,2:0:0:0:
258,192,37490,5,2,2:0:0:0:
221,192,37576,1,2,2:0:0:0:
186,191,37750,53,2,2:0:0:0:
155,192,37836,1,2,1:2:0:0:
155,192,38010,5,2,2:0:0:0:
154,59,38183,37,2,2:0:0:0:
220,128,38357,21,2,2:0:0:0:
289,130,38443,1,2,2:0:0:0:
364,64,38617,53,2,2:0:0:0:
432,66,38703,1,2,2:0:0:0:
512,141,38877,5,2,2:0:0:0:
340,244,39050,1,2,2:0:0:0:
364,64,39224,1,2,1:2:0:0:
495,300,39397,1,2,2:0:0:0:
402,5,39570,37,6,3:2:0:0:
364,64,39744,1,2,2:0:0:0:
364,64,39831,1,2,2:0:0:0:
294,62,40004,1,2,2:0:0:0:
294,62,40091,1,2,2:0:0:0:
257,2,40264,1,2,2:0:0:0:
257,2,40351,1,2,2:0:0:0:
188,5,40524,1,2,2:0:0:0:
188,5,40611,1,2,1:2:0:0:
148,59,40784,1,2,2:0:0:0:
148,59,40958,5,2,3:2:0:0:
188,122,41131,1,2,2:0:0:0:
188,122,41218,1,2,2:0:0:0:
259,123,41391,1,2,2:0:0:0:
259,123,41478,1,2,2:0:0:0:
298,186,41651,1,2,3:2:0:0:
298,186,41738,1,2,2:0:0:0:
261,246,41911,1,2,2:0:0:0:
261,246,41998,1,2,1:2:0:0:
190,247,42172,1,2,3:2:0:0:
190,247,42345,5,6,3:2:0:0:
153,189,42518,1,2,3:2:0:0:
153,189,42605,1,2,2:0:0:0:
83,187,42779,1,2,2:0:0:0:
83,187,42865,1,2,3:2:0:0:
44,247,43039,1,2,3:2:0:0:
44,247,43125,1,2,2:0:0:0:
83,310,43299,1,2,2:0:0:0:
83,310,43385,1,2,1:2:0:0:
151,309,43559,1,2,3:2:0:0:
151,309,43732,53,2,3:2:0:0:
202,364,43906,1,2,3:2:0:0:
202,364,43992,1,2,2:0:0:0:
273,363,44166,1,2,2:0:0:0:
273,363,44253,1,2,3:2:0:0:
319,303,44426,1,2,3:2:0:0:
319,303,44513,1,2,2:0:0:0:
274,243,44686,1,2,2:0:0:0:
274,243,44773,1,2,1:2:0:0:
201,240,44946,1,2,3:2:0:0:
273,363,45120,21,6,3:2:0:0:
360,239,45293,1,2,3:2:0:0:
426,213,45380,1,2,2:0:0:0:
339,134,45553,1,2,2:0:0:0:
268,110,45640,1,2,3:2:0:0:
272,277,45813,5,2,3:2:0:0:
339,134,45987,1,2,3:2:0:0:
289,192,46073,1,2,2:0:0:0:
325,59,46247,1,2,2:0:0:0:
406,35,46333,1,2,3:2:0:0:
273,363,46507,53,2,3:2:0:0:
186,239,46680,1,2,3:2:0:0:
120,213,46767,1,2,2:0:0:0:
207,134,46940,1,2,2:0:0:0:
278,110,47027,1,2,3:2:0:0:
274,277,47200,5,2,3:2:0:0:
207,134,47374,1,2,3:2:0:0:
257,192,47461,1,2,2:0:0:0:
221,59,47634,1,2,2:0:0:0:
150,35,47721,1,2,3:2:0:0:
499,174,47894,53,2,3:2:0:0:
470,164,47981,1,2,3:2:0:0:
439,185,48068,1,2,3:2:0:0:
437,216,48154,1,2,3:2:0:0:
446,211,48241,1,2,3:2:0:0:
406,175,48328,1,2,3:2:0:0:
354,183,48414,1,2,3:2:0:0:
322,221,48501,1,2,3:2:0:0:
276,228,48588,1,2,3:2:0:0:
234,204,48674,1,2,3:2:0:0:
218,158,48761,1,2,3:2:0:0:
245,114,48848,1,2,3:2:0:0:
256,192,48935,1,6,1:2:0:0:
67,188,49281,6,0,P|113:111|198:29,1,200,6|0,3:2|2:0,2:0:0:0:
217,317,49542,2,0,P|128:254|64:186,1,200,6|0,3:2|2:0,2:0:0:0:
343,166,49802,2,0,P|286:258|205:323,1,200,6|0,3:2|2:0,2:0:0:0:
192,34,50062,2,0,P|262:88|349:172,1,200,6|0,3:2|2:0,2:0:0:0:
246,128,50322,2,0,P|196:124|149:146,1,100,6|0,3:2|2:0,2:0:0:0:
169,238,50495,2,0,P|218:241|265:219,1,100,6|0,3:2|2:0,2:0:0:0:
343,165,50669,5,6,3:2:0:0:
486,166,50842,5,2,2:0:0:0:
486,93,50929,1,2,2:0:0:0:
415,163,51102,5,2,2:0:0:0:
415,93,51189,1,2,2:0:0:0:
414,18,51276,1,2,2:0:0:0:
415,163,51449,37,2,2:0:0:0:
344,92,51622,5,2,2:0:0:0:
345,20,51709,1,2,3:2:0:0:
343,165,51883,5,2,2:0:0:0:
272,163,51969,1,2,2:0:0:0:
201,162,52056,1,2,3:2:0:0:
274,16,52229,37,2,2:0:0:0:
274,90,52316,1,2,2:0:0:0:
204,18,52490,5,2,2:0:0:0:
203,91,52576,1,2,2:0:0:0:
201,162,52663,1,2,2:0:0:0:
131,88,52836,5,2,2:0:0:0:
132,16,52923,1,2,2:0:0:0:
272,163,53096,37,2,3:2:0:0:
273,235,53183,1,2,2:0:0:0:
200,233,53270,1,2,2:0:0:0:
127,233,53357,1,2,2:0:0:0:
128,160,53443,1,6,3:2:0:0:
130,306,53617,5,2,2:0:0:0:
130,379,53703,1,2,2:0:0:0:
55,305,53877,5,2,2:0:0:0:
55,232,53963,1,2,2:0:0:0:
57,159,54050,1,2,2:0:0:0:
127,233,54224,37,2,2:0:0:0:
128,160,54310,1,2,2:0:0:0:
57,159,54484,5,2,3:2:0:0:
60,14,54657,1,2,2:0:0:0:
57,159,54831,5,2,3:2:0:0:
203,91,55004,37,2,2:0:0:0:
204,18,55091,1,2,2:0:0:0:
131,88,55264,5,2,2:0:0:0:
132,16,55351,1,2,2:0:0:0:
273,235,55524,5,2,3:2:0:0:
272,163,55611,1,2,2:0:0:0:
201,162,55698,1,2,2:0:0:0:
200,233,55784,1,2,2:0:0:0:
344,236,55958,37,2,2:0:0:0:
343,309,56044,1,2,2:0:0:0:
418,309,56131,1,2,2:0:0:0:
417,236,56218,1,6,3:2:0:0:
486,93,56391,5,2,2:0:0:0:
486,21,56478,1,2,2:0:0:0:
415,93,56651,5,2,2:0:0:0:
415,163,56738,1,2,2:0:0:0:
417,236,56825,1,2,2:0:0:0:
274,90,56998,37,2,2:0:0:0:
344,92,57172,5,2,2:0:0:0:
345,20,57258,1,2,3:2:0:0:
272,163,57432,53,2,2:0:0:0:
274,90,57518,1,2,2:0:0:0:
274,16,57605,1,2,3:2:0:0:
201,162,57779,5,2,2:0:0:0:
203,91,57865,1,2,2:0:0:0:
131,88,58039,5,2,2:0:0:0:
203,91,58125,1,2,2:0:0:0:
274,90,58212,1,2,2:0:0:0:
132,16,58385,37,2,2:0:0:0:
204,18,58472,1,2,2:0:0:0:
128,160,58646,5,2,3:2:0:0:
201,162,58732,1,2,2:0:0:0:
272,163,58819,1,2,2:0:0:0:
273,90,58906,1,2,2:0:0:0:
274,16,58992,1,6,3:2:0:0:
343,165,59166,5,2,2:0:0:0:
344,92,59253,1,2,2:0:0:0:
273,235,59426,37,2,2:0:0:0:
200,233,59513,1,2,2:0:0:0:
127,233,59599,1,2,2:0:0:0:
201,162,59773,5,2,2:0:0:0:
203,91,59859,1,2,2:0:0:0:
56,377,60033,5,2,3:2:0:0:
57,159,60206,37,2,2:0:0:0:
55,305,60380,5,2,3:2:0:0:
201,162,60553,5,2,2:0:0:0:
203,91,60640,1,2,2:0:0:0:
127,233,60813,37,2,2:0:0:0:
130,305,60900,1,2,2:0:0:0:
274,307,61073,5,2,3:2:0:0:
273,235,61160,1,2,2:0:0:0:
200,233,61247,1,2,2:0:0:0:
200,305,61333,1,2,2:0:0:0:
343,165,61507,5,2,2:0:0:0:
344,92,61594,1,2,2:0:0:0:
273,90,61680,1,2,2:0:0:0:
272,163,61767,1,6,3:2:0:0:
418,309,61940,37,2,2:0:0:0:
417,236,62027,1,2,2:0:0:0:
343,309,62200,5,2,2:0:0:0:
418,309,62287,1,2,2:0:0:0:
491,309,62374,1,2,2:0:0:0:
274,307,62547,5,2,2:0:0:0:
343,237,62721,37,2,2:0:0:0:
343,165,62807,1,2,3:2:0:0:
273,235,62981,5,2,2:0:0:0:
274,307,63068,1,2,2:0:0:0:
272,380,63154,1,2,3:2:0:0:
200,233,63328,5,2,2:0:0:0:
201,162,63414,1,2,2:0:0:0:
125,304,63588,37,2,2:0:0:0:
127,233,63674,1,2,2:0:0:0:
128,160,63761,1,2,2:0:0:0:
55,232,63935,5,2,2:0:0:0:
55,159,64021,1,2,2:0:0:0:
343,237,64195,5,2,3:2:0:0:
272,235,64281,1,2,2:0:0:0:
200,233,64368,1,2,2:0:0:0:
127,233,64455,1,2,2:0:0:0:
55,232,64542,1,6,3:2:0:0:
200,305,64715,37,2,2:0:0:0:
200,378,64802,1,2,2:0:0:0:
272,235,64975,5,2,2:0:0:0:
274,307,65062,1,2,2:0:0:0:
272,380,65148,1,2,2:0:0:0:
343,237,65322,5,2,2:0:0:0:
343,309,65409,1,2,2:0:0:0:
486,166,65582,37,2,3:2:0:0:
486,21,65755,1,2,2:0:0:0:
486,166,65929,5,2,3:2:0:0:
343,165,66102,5,2,2:0:0:0:
344,92,66189,1,2,2:0:0:0:
415,163,66362,37,2,2:0:0:0:
415,93,66449,1,2,2:0:0:0:
490,237,66622,5,2,3:2:0:0:
417,236,66709,1,2,2:0:0:0:
418,309,66796,1,2,2:0:0:0:
491,309,66883,1,2,2:0:0:0:
343,309,67056,5,2,2:0:0:0:
273,307,67143,1,2,2:0:0:0:
272,380,67229,1,2,2:0:0:0:
344,381,67316,1,6,3:2:0:0:
272,235,67490,37,2,2:0:0:0:
273,164,67576,1,2,2:0:0:0:
203,91,67750,5,2,2:0:0:0:
273,90,67836,1,2,2:0:0:0:
344,92,67923,1,2,2:0:0:0:
201,162,68096,5,2,2:0:0:0:
273,90,68270,37,2,2:0:0:0:
274,16,68357,1,2,3:2:0:0:
343,237,68530,5,2,2:0:0:0:
417,236,68617,1,0,2:0:0:0:
490,237,68703,1,6,3:2:0:0:
415,93,68877,5,2,2:0:0:0:
414,18,68963,1,2,2:0:0:0:
490,237,69137,37,2,2:0:0:0:
486,166,69224,1,2,2:0:0:0:
486,93,69310,1,2,2:0:0:0:
344,92,69484,5,2,2:0:0:0:
345,20,69570,1,2,2:0:0:0:
201,162,69744,5,2,3:2:0:0:
273,164,69831,1,0,2:0:0:0:
343,165,69917,1,2,2:0:0:0:
415,163,70004,1,0,2:0:0:0:
486,166,70091,1,6,3:2:0:0:
418,309,70264,37,2,2:0:0:0:
417,236,70351,1,2,2:0:0:0:
414,18,70524,5,2,2:0:0:0:
345,20,70611,1,2,2:0:0:0:
274,16,70698,1,2,2:0:0:0:
417,236,70871,5,2,2:0:0:0:
418,309,70958,1,2,2:0:0:0:
273,90,71131,37,2,3:2:0:0:
272,235,71305,5,2,2:0:0:0:
274,16,71478,5,6,3:2:0:0:
343,165,71651,37,2,2:0:0:0:
344,92,71738,1,2,2:0:0:0:
273,164,71911,5,2,2:0:0:0:
273,90,71998,1,2,2:0:0:0:
272,235,72172,53,2,3:2:0:0:
274,16,72345,21,2,3:2:0:0:
272,235,72518,37,2,3:2:0:0:
274,16,72692,5,2,3:2:0:0:
0,23,72865,22,0,P|71:77|162:203,1,220.000006713867,6|0,3:2|2:0,2:0:0:0:
35,295,73125,2,0,P|129:258|209:251,1,170.000003242493,6|0,3:2|2:0,2:0:0:0:
240,87,73385,2,0,P|224:187|190:260,1,170.000003242493,6|0,3:2|2:0,2:0:0:0:
315,368,73646,2,0,P|235:304|189:238,1,170.000003242493,6|0,3:2|2:0,2:0:0:0:
328,208,73906,2,0,P|286:234|241:257,1,100,6|0,3:2|2:0,2:0:0:0:
150,372,74079,2,0,P|154:322|163:273,1,100,4|0,3:2|2:0,2:0:0:0:
310,95,74253,6,0,P|407:71|506:63,1,200,2|0,3:2|2:0,2:0:0:0:
511,196,74599,1,2,3:2:0:0:
481,161,74686,1,2,2:0:0:0:
433,167,74773,1,2,1:2:0:0:
421,71,74946,1,2,3:2:0:0:
450,117,75033,1,2,2:2:0:0:
506,62,75206,2,0,L|475:259,1,200,2|2,3:2|2:0,2:0:0:0:
476,259,75466,1,2,3:2:0:0:
336,288,75640,54,0,L|304:150,1,125,6|0,3:2|2:0,2:0:0:0:
308,166,75900,2,0,B|297:231|297:231|339:291,1,135.000000514984,6|0,3:2|2:0,2:0:0:0:
308,166,76160,2,0,B|286:199|285:240|285:240|299:266|343:291,1,150.000005722046,6|0,3:2|2:0,2:0:0:0:
308,166,76420,2,0,P|258:232|340:286,1,200,6|0,3:2|2:0,2:0:0:0:
403,138,76680,2,0,P|451:123|498:105,1,100,6|0,3:2|2:0,2:0:0:0:
337,85,76854,2,0,P|287:83|237:77,1,100,6|0,3:2|2:0,2:0:0:0:
183,19,77027,5,6,3:2:0:0:
337,85,77200,1,2,2:0:0:0:
321,84,77287,1,2,1:2:0:0:
332,203,77461,1,2,2:0:0:0:
308,166,77547,1,2,1:2:0:0:
458,236,77721,1,2,3:2:0:0:
435,273,77807,1,2,2:0:0:0:
512,342,77981,2,0,P|432:311|318:270,1,200,6|2,3:2|2:0,2:0:0:0:
324,272,78241,1,2,3:2:0:0:
257,95,78414,54,0,P|322:86|412:91,1,150.000005722046,6|0,3:2|2:0,2:0:0:0:
139,103,78674,2,0,P|187:52|265:11,1,150.000005722046,6|0,3:2|2:0,2:0:0:0:
54,190,78935,2,0,P|57:115|83:34,1,150.000005722046,6|0,3:2|2:0,2:0:0:0:
64,379,79195,2,0,P|20:318|1:246,1,150.000005722046,6|0,3:2|2:0,2:0:0:0:
222,300,79455,2,0,P|175:309|136:341,1,100,6|0,3:2|2:0,2:0:0:0:
332,305,79628,2,0,P|307:266|260:235,1,100,6|0,3:2|2:0,2:0:0:0:
401,372,79802,6,0,P|423:273|429:174,1,200,6|0,3:2|2:0,2:0:0:0:
352,132,80148,1,2,3:2:0:0:
323,167,80235,1,2,2:0:0:0:
275,157,80322,1,2,1:2:0:0:
181,173,80495,1,2,3:2:0:0:
229,157,80582,1,2,2:0:0:0:
142,201,80755,2,0,L|112:4,1,200,2|2,3:2|2:0,2:0:0:0:
111,3,81016,1,2,3:2:0:0:
38,331,81189,54,0,L|72:204,1,125,6|0,3:2|2:0,2:0:0:0:
71,211,81449,2,0,L|104:343,1,135.000000514984,6|0,3:2|2:0,2:0:0:0:
104,342,81709,2,0,L|142:196,1,150.000005722046,6|0,3:2|2:0,2:0:0:0:
142,196,81969,2,0,L|217:381,1,200,6|0,3:2|2:0,2:0:0:0:
234,306,82229,2,0,B|264:283|264:283|264:233,1,75.0000028610231,6|0,3:2|2:0,2:0:0:0:
234,306,82403,2,0,B|264:282|264:282|237:222,1,100,6|0,3:2|2:0,2:0:0:0:
175,255,82576,5,2,3:2:0:0:
327,327,82750,1,2,2:0:0:0:
489,287,82923,1,2,3:2:0:0:
381,275,83010,1,0,2:0:0:0:
436,284,83096,1,0,1:0:0:0:
224,263,83270,1,2,3:2:0:0:
175,255,83357,1,2,2:0:0:0:
271,321,83530,1,2,3:2:0:0:
327,327,83617,1,2,2:0:0:0:
259,191,83790,1,2,3:2:0:0:
269,192,83963,6,0,B|269:120|269:120|341:120|341:120|341:192|341:192|269:192|269:192|269:120|269:120|341:120|341:120|341:192|341:192|269:192|269:192|269:120|269:120|341:120|341:120|341:192|341:192|269:192|269:192|269:120|269:120|341:120|341:120|341:192|341:192|269:192|269:192|269:120|269:120|341:120|341:120|341:192|341:192|269:192|269:192|269:120|269:120|341:120|341:120|341:192|341:192|269:192|269:192|269:120|269:120|341:120|341:120|341:192|341:192|269:192|269:192|269:120|269:120|341:120|341:120|341:192|341:192|269:192|269:192|269:120|269:120|341:120|341:120|341:192|341:192|269:192|269:192|269:120|269:120|341:120|341:120|341:192|341:192|269:192|269:192|269:120|269:120|341:120|341:120|341:192|341:192|269:192|269:192|269:120|269:120|341:120|341:120|341:192|341:192|269:192|269:192|269:120|269:120|341:120|341:120|341:192|341:192|269:192|269:192|269:120|269:120|341:120|341:120|341:192|341:192|269:192|269:192|269:120|269:120|341:120|341:120|341:192|341:192|269:192|269:192|269:120|269:120|341:120|341:120|341:192|341:192|269:192|269:192|269:120|269:120|341:120|341:120|341:192|341:192|269:192|269:192|269:120|269:120|341:120|341:120|341:192|341:192|269:192|269:192|269:120|269:120|341:120|341:120|341:192|341:192|269:192|269:192|269:120|269:120|341:120|341:120|341:192|341:192|269:192|269:192|269:120|269:120|341:120|341:120|341:192|341:192|269:192|269:192|269:120|269:120|341:120|341:120|341:192|341:192|269:192|269:192|269:120|269:120|341:120|341:120|341:192|341:192|269:192|269:192|269:120|269:120|341:120|341:120|341:192|341:192|269:192|269:192|269:120|269:120|341:120|341:120|341:192|341:192|269:192|269:192|269:120|269:120|341:120|341:120|341:192|341:192|269:192|269:192|269:120|269:120|341:120|341:120|341:192|341:192|269:192|269:192|269:120|269:120|341:120|341:120|341:192|341:192|269:192|269:192|269:120|269:120|341:120|341:120|341:192|341:192|269:192|269:192|269:120|269:120|341:120|341:120|341:192|341:192|269:192|269:192|269:120|269:120|341:120|341:120|341:192|341:192|269:192|269:192|269:120|269:120|341:120|341:120|341:192|341:192|269:192|269:192|269:120|269:120|341:120|341:120|341:192|341:192|269:192|269:192|269:120|269:120|341:120|341:120|341:192|341:192|269:192|269:192|269:120|269:120|341:120|341:120|341:192|341:192|269:192|269:192|269:120|269:120|341:120|341:120|341:192|341:192|269:192|269:192|269:120|269:120|341:120|341:120|341:192|341:192|269:192|269:192|269:120|269:120|341:120|341:120|341:192|341:192|269:192|269:192|269:120|269:120|341:120|341:120|341:192|341:192|269:192|269:192|269:120|269:120|341:120|341:120|341:192|341:192|269:192|269:192|269:120|269:120|341:120,1,11631.9997969955,4|0,1:2|0:0,0:0:0:0:
160,320,92287,37,6,3:2:0:0:
176,320,92634,1,0,2:0:0:0:
192,320,92981,1,0,2:0:0:0:
208,320,93328,1,0,2:0:0:0:
352,240,93674,5,6,3:2:0:0:
336,240,94021,1,0,2:0:0:0:
320,240,94368,1,0,2:0:0:0:
304,240,94715,1,0,2:0:0:0:
176,160,95062,53,4,3:2:0:0:
192,160,95235,1,0,2:0:0:0:
208,160,95409,1,0,2:0:0:0:
224,160,95582,1,0,2:0:0:0:
336,96,95755,5,4,3:2:0:0:
320,96,95929,1,0,2:0:0:0:
304,96,96102,1,0,2:0:0:0:
288,96,96276,1,0,2:0:0:0:
161,203,96449,38,0,B|158:127|205:81|205:81|196:126|223:158|223:158|211:204|160:203,1,300.000011444092,6|0,3:2|2:0,2:0:0:0:
127,279,96709,2,0,B|62:319|-1:301|-1:301|42:287|56:247|56:247|102:235|127:279,1,300.000011444092,6|0,3:2|2:0,2:0:0:0:
209,272,96969,2,0,B|277:306|294:370|294:370|259:339|218:347|218:347|184:313|210:270,1,300.000011444092,6|0,3:2|2:0,2:0:0:0:
287,219,97229,1,6,3:2:0:0:
284,226,97316,2,0,L|336:218,1,50,2|0,2:0|2:0,2:0:0:0:
396,178,97490,54,0,L|450:171,1,50,6|0,3:2|2:0,2:0:0:0:
385,103,97663,2,0,L|437:95,1,50,2|0,3:2|2:0,2:0:0:0:
372,28,97836,6,0,L|301:14,1,50,6|0,3:2|2:0,2:0:0:0:
325,138,98010,1,2,2:0:0:0:
326,145,98096,2,0,L|261:131,1,50,0|2,2:0|1:2,2:0:0:0:
247,39,98270,1,2,2:0:0:0:
245,49,98357,1,2,2:0:0:0:
243,60,98443,2,0,L|179:41,1,50,2|2,2:0|3:2,2:0:0:0:
65,22,98617,1,2,2:0:0:0:
13,72,98703,1,2,2:0:0:0:
21,143,98790,1,2,2:0:0:0:
86,172,98877,1,2,3:2:0:0:
152,145,98963,1,2,2:0:0:0:
213,183,99050,1,2,2:0:0:0:
210,258,99137,1,2,2:0:0:0:
143,292,99224,37,2,3:2:0:0:
140,285,99310,1,0,2:0:0:0:
137,278,99397,1,2,2:0:0:0:
133,270,99484,2,0,L|79:274,1,50,2|2,2:0|1:2,2:0:0:0:
86,172,99657,1,2,2:0:0:0:
152,145,99744,1,2,2:0:0:0:
213,183,99831,1,2,2:0:0:0:
210,258,99917,1,2,3:2:0:0:
249,326,100004,1,2,2:0:0:0:
324,338,100091,1,2,2:0:0:0:
397,307,100177,1,2,2:0:0:0:
427,235,100264,1,2,3:2:0:0:
407,161,100351,1,2,2:0:0:0:
340,127,100437,1,2,2:0:0:0:
264,133,100524,1,2,2:0:0:0:
260,143,100611,6,0,L|267:206,1,50,6|0,3:2|2:0,2:0:0:0:
356,73,100784,1,2,2:0:0:0:
345,77,100871,2,0,L|339:135,1,50,0|2,2:0|1:2,2:0:0:0:
463,47,101044,1,2,2:0:0:0:
447,43,101131,2,0,L|427:103,1,50,2|2,2:0|2:0,2:0:0:0:
330,248,101305,1,2,3:2:0:0:
341,252,101391,2,0,L|351:181,1,50,2|2,2:0|2:0,2:0:0:0:
202,297,101565,1,2,2:0:0:0:
217,312,101651,2,0,L|253:276,1,50,2|0,3:2|2:0,2:0:0:0:
100,230,101825,2,0,L|156:222,1,50,2|2,2:0|2:0,2:0:0:0:
260,143,101998,6,0,L|198:152,1,50,2|0,3:2|2:0,2:0:0:0:
6,133,102172,1,2,2:0:0:0:
73,158,102258,1,2,2:0:0:0:
100,230,102345,1,0,3:2:0:0:
85,306,102432,1,2,2:0:0:0:
18,343,102518,1,2,2:0:0:0:
18,343,102692,37,2,3:2:0:0:
85,306,102779,1,2,3:2:0:0:
164,301,102865,1,2,3:2:0:0:
238,326,102952,2,0,L|227:379,1,50,2|2,3:2|2:0,2:0:0:0:
298,213,103125,5,2,3:2:0:0:
292,216,103212,1,2,3:2:0:0:
286,220,103299,1,2,3:2:0:0:
280,224,103385,2,0,L|293:295,1,50,6|0,3:2|2:0,2:0:0:0:
503,152,103559,5,2,2:0:0:0:
506,157,103646,2,0,L|493:223,1,50,0|2,2:0|1:2,2:0:0:0:
402,162,103819,1,2,2:0:0:0:
398,167,103906,1,2,2:0:0:0:
394,172,103992,2,0,L|394:242,1,50,2|2,2:0|3:2,2:0:0:0:
371,299,104166,1,2,2:0:0:0:
309,349,104253,1,2,2:0:0:0:
236,317,104339,1,2,2:0:0:0:
226,242,104426,1,2,3:2:0:0:
293,203,104513,1,2,2:0:0:0:
329,133,104599,1,2,2:0:0:0:
307,53,104686,1,2,2:0:0:0:
235,23,104773,38,0,L|298:14,1,50,6|0,3:2|2:0,2:0:0:0:
203,148,104946,1,2,2:0:0:0:
196,144,105033,2,0,L|263:137,1,50,2|2,2:0|3:2,2:0:0:0:
293,203,105206,1,2,2:0:0:0:
226,242,105293,1,2,2:0:0:0:
151,222,105380,1,2,2:0:0:0:
106,155,105466,1,2,3:2:0:0:
130,79,105553,1,2,2:0:0:0:
138,72,105640,2,0,P|160:85|192:94,1,50,2|0,2:0|2:0,2:0:0:0:
256,60,105813,1,2,3:2:0:0:
308,2,105900,1,2,2:0:0:0:
383,3,105987,1,2,2:0:0:0:
439,54,106073,1,2,2:0:0:0:
436,131,106160,1,6,3:2:0:0:
416,352,106333,5,2,2:0:0:0:
408,278,106420,1,2,2:0:0:0:
363,219,106507,1,2,3:2:0:0:
291,199,106594,1,2,2:0:0:0:
220,218,106680,1,2,2:0:0:0:
227,293,106767,1,2,2:0:0:0:
196,361,106854,1,6,3:2:0:0:
18,313,107027,5,2,2:0:0:0:
11,320,107114,1,2,2:0:0:0:
5,328,107200,2,0,L|54:318,1,50,2|2,3:2|2:0,2:0:0:0:
90,238,107374,2,0,L|139:228,1,50,2|2,2:0|2:0,2:0:0:0:
229,141,107547,38,0,L|151:166,1,50,6|0,3:2|2:0,2:0:0:0:
191,70,107721,1,2,2:0:0:0:
188,75,107807,2,0,L|124:96,1,50,2|0,2:2|2:0,2:0:0:0:
157,0,107981,1,2,2:0:0:0:
154,5,108068,2,0,L|93:25,1,50,2|0,2:0|2:0,2:0:0:0:
301,7,108241,5,2,3:2:0:0:
265,74,108328,1,0,3:0:0:0:
229,141,108414,1,2,3:2:0:0:
188,206,108501,1,2,3:2:0:0:
172,281,108588,1,0,3:2:0:0:
204,324,108674,1,0,3:0:0:0:
253,346,108761,1,2,3:2:0:0:
307,343,108848,1,0,3:0:0:0:
352,315,108935,22,0,P|297:243|251:135,1,200,6|0,3:2|2:0,2:0:0:0:
418,133,109195,2,0,P|340:153|271:154,1,150.000005722046,6|0,3:2|2:0,2:0:0:0:
271,35,109455,2,0,P|272:96|261:155,1,100,6|0,3:2|2:0,2:0:0:0:
158,115,109715,2,0,P|203:132|262:162,1,100,6|0,3:2|2:0,2:0:0:0:
213,224,109975,2,0,P|235:192|260:161,1,75.0000028610231,6|0,3:2|2:0,2:0:0:0:
330,199,110148,2,0,P|298:176|270:153,1,75.0000028610231,6|0,3:2|2:0,2:0:0:0:
351,314,110322,6,0,P|247:316|151:333,1,200,2|0,3:2|2:0,2:0:0:0:
74,217,110669,1,2,3:2:0:0:
71,253,110755,1,2,2:0:0:0:
84,286,110842,1,2,1:2:0:0:
125,168,111016,1,2,3:2:0:0:
90,185,111102,1,2,2:0:0:0:
152,332,111276,2,0,L|183:135,1,200,2|2,3:2|2:0,2:0:0:0:
183,134,111536,1,2,3:2:0:0:
267,182,111709,54,0,L|239:357,1,150.000005722046,4|0,3:2|2:0,2:0:0:0:
415,162,111969,2,0,L|246:184,1,150.000005722046,4|0,3:2|2:0,2:0:0:0:
454,253,112229,2,0,L|408:149,1,100,6|0,3:2|2:0,2:0:0:0:
434,298,112490,2,0,L|456:246,1,50,6|0,3:2|2:0,2:0:0:0:
409,298,112750,2,0,L|439:296,1,25,6|0,3:2|2:0,2:0:0:0:
286,305,112923,2,0,L|316:303,1,25,6|0,3:2|2:0,2:0:0:0:
155,309,113096,5,2,3:2:0:0:
225,182,113270,1,2,2:0:0:0:
215,193,113357,1,2,1:2:0:0:
167,83,113530,1,2,2:0:0:0:
164,106,113617,1,2,1:2:0:0:
51,95,113790,1,2,3:2:0:0:
75,126,113877,1,2,2:0:0:0:
0,48,114050,2,0,L|168:108,1,175.00000166893,2|2,3:2|2:0,2:0:0:0:
162,107,114310,1,2,3:2:0:0:
439,355,114484,54,0,P|479:277|502:193,1,175.00000166893,6|0,3:2|2:0,2:0:0:0:
439,143,114744,2,0,P|419:86|356:0,1,150.000005722046,6|0,3:2|2:0,2:0:0:0:
319,75,115004,2,0,P|257:70|193:84,1,125,6|0,3:2|2:0,2:0:0:0:
210,162,115264,2,0,P|188:206|178:256,1,100,6|0,3:2|2:0,2:0:0:0:
307,297,115524,2,0,P|279:287|250:280,1,50,6|0,3:2|2:0,2:0:0:0:
162,370,115698,2,0,P|179:352|197:335,1,50,6|0,3:2|2:0,2:0:0:0:
84,356,115871,6,0,P|92:255|84:156,1,200,2|0,3:2|2:0,2:0:0:0:
99,85,116218,1,2,3:2:0:0:
87,116,116305,1,2,2:0:0:0:
84,156,116391,1,2,1:2:0:0:
146,218,116565,1,2,3:2:0:0:
108,195,116651,1,2,2:0:0:0:
159,259,116825,2,0,L|189:62,1,200,2|2,3:2|2:0,2:0:0:0:
190,62,117085,1,2,3:2:0:0:
267,118,117258,54,0,L|249:245,1,125,6|0,3:2|2:0,2:0:0:0:
249,241,117518,2,0,B|326:229|326:229|336:149,1,150.000005722046,6|0,3:2|2:0,2:0:0:0:
249,241,117779,2,0,B|403:248|403:248|410:190,1,200,6|0,3:2|2:0,2:0:0:0:
249,241,118039,2,0,L|488:264,1,225.000008583069,6|0,3:2|2:0,2:0:0:0:
413,317,118299,2,0,L|418:266,1,37.5000014305115,6|0,3:2|2:0,2:0:0:0:
330,283,118472,2,0,L|334:248,1,25,6|0,3:2|2:0,2:0:0:0:
493,89,118646,5,2,3:2:0:0:
402,161,118819,1,2,2:0:0:0:
422,2,118992,1,2,3:2:0:0:
398,37,119079,1,0,2:0:0:0:
412,80,119166,1,0,1:0:0:0:
329,110,119339,1,2,3:2:0:0:
362,82,119426,1,2,2:0:0:0:
261,67,119599,1,2,3:2:0:0:
303,76,119686,1,2,2:0:0:0:
188,54,119859,2,0,B|196:16|163:-20|107:-7|94:17|94:17|116:2|153:10|162:36,1,200,2|4,3:2|2:0,2:0:0:0:
